osu file format v14

[General]
AudioFilename: audio.mp3
AudioLeadIn: 0
PreviewTime: 32073
Countdown: 0
SampleSet: Normal
StackLeniency: 0.7
Mode: 1
LetterboxInBreaks: 0
WidescreenStoryboard: 1

[Editor]
Bookmarks: 53817,63223
DistanceSpacing: 0.8
BeatDivisor: 4
GridSize: 32
TimelineZoom: 1.299999

[Metadata]
Title:Mentanpindoradora
TitleUnicode:メンタンピンドラドラ
Artist:enzo + O2i3
ArtistUnicode:enzo + O2i3
Creator:Alwaysyukaz
Version:Kantan
Source:MÚSECA 1+1/2
Tags:underworld shukukon syukucon シュクコン rhythm game video instrumental electronic faputa MUSECA
BeatmapID:2294794
BeatmapSetID:732541

[Difficulty]
HPDrainRate:8
CircleSize:2
OverallDifficulty:3
ApproachRate:0
SliderMultiplier:1.4
SliderTickRate:1

[Events]
//Background and Video events
0,0,"bg.jpg",0,30
//Break Periods
//Storyboard Layer 0 (Background)
//Storyboard Layer 1 (Fail)
//Storyboard Layer 2 (Pass)
//Storyboard Layer 3 (Foreground)
//Storyboard Layer 4 (Overlay)
//Storyboard Sound Samples

[TimingPoints]
1334,324.324324324324,4,1,0,90,1,0
22090,324.324324324324,3,1,0,90,1,0
29873,324.324324324324,4,1,0,90,1,8
29875,324.324324324324,4,1,0,90,1,0
32469,-100,4,1,0,90,0,1
42523,-100,4,1,0,90,0,0
43172,-100,4,1,0,90,0,1
52577,-100,4,1,0,90,0,0
84361,-100,4,1,0,90,0,1
94415,-100,4,1,0,90,0,0
95064,-100,4,1,0,90,0,1
104469,-100,4,1,0,90,0,0

[HitObjects]
256,188,1334,5,0,0:0:0:0:
256,188,1982,1,8,0:0:0:0:
256,188,2469,1,8,0:0:0:0:
256,188,3928,1,8,0:0:0:0:
256,188,4577,1,8,0:0:0:0:
256,188,5063,1,0,0:0:0:0:
256,188,6523,1,4,0:0:0:0:
256,188,7171,1,12,0:0:0:0:
256,188,7658,1,4,0:0:0:0:
256,188,9117,1,4,0:0:0:0:
256,188,9766,1,4,0:0:0:0:
256,192,10252,12,0,11550,0:0:0:0:
256,188,11712,5,4,0:0:0:0:
256,188,12036,5,8,0:0:0:0:
256,188,12361,1,8,0:0:0:0:
256,188,13009,1,8,0:0:0:0:
256,188,14306,1,8,0:0:0:0:
256,188,14955,1,0,0:0:0:0:
256,188,15604,1,8,0:0:0:0:
256,188,15928,1,8,0:0:0:0:
256,188,16252,1,0,0:0:0:0:
256,188,16901,1,0,0:0:0:0:
256,188,17225,1,8,0:0:0:0:
256,188,17550,1,8,0:0:0:0:
256,188,18198,1,8,0:0:0:0:
256,188,19496,1,0,0:0:0:0:
256,188,20144,1,8,0:0:0:0:
256,188,20793,1,0,0:0:0:0:
256,188,21117,1,8,0:0:0:0:
256,188,21442,1,0,0:0:0:0:
256,188,22090,1,12,0:0:0:0:
256,188,22738,1,0,0:0:0:0:
256,188,23062,1,0,0:0:0:0:
256,188,23387,1,8,0:0:0:0:
256,188,24360,1,8,0:0:0:0:
256,188,25008,1,0,0:0:0:0:
256,188,25333,1,8,0:0:0:0:
256,188,25657,1,8,0:0:0:0:
256,188,25981,1,0,0:0:0:0:
256,188,26954,1,0,0:0:0:0:
256,188,27279,1,8,0:0:0:0:
256,188,27927,1,0,0:0:0:0:
256,188,28252,1,8,0:0:0:0:
256,188,28576,1,0,0:0:0:0:
256,188,28900,1,0,0:0:0:0:
256,188,29875,2,0,P|196:120|192:116,8,70
256,188,31496,1,8,0:0:0:0:
256,188,32145,1,8,0:0:0:0:
256,188,32469,1,12,0:0:0:0:
256,188,33118,1,8,0:0:0:0:
256,188,33442,1,8,0:0:0:0:
256,188,33766,1,0,0:0:0:0:
256,188,34091,1,8,0:0:0:0:
256,188,34415,1,0,0:0:0:0:
256,188,35064,1,8,0:0:0:0:
256,188,35712,1,0,0:0:0:0:
256,188,36361,1,0,0:0:0:0:
256,188,36685,1,8,0:0:0:0:
256,188,37010,1,0,0:0:0:0:
256,188,38307,1,0,0:0:0:0:
256,188,38956,1,8,0:0:0:0:
256,188,39604,1,8,0:0:0:0:
256,188,39929,1,0,0:0:0:0:
256,188,40253,1,0,0:0:0:0:
256,188,40577,1,8,0:0:0:0:
256,188,40902,1,8,0:0:0:0:
256,188,41550,1,8,0:0:0:0:
256,188,41874,1,8,0:0:0:0:
256,188,42199,1,0,0:0:0:0:
256,188,43172,1,12,0:0:0:0:
256,188,43820,1,8,0:0:0:0:
256,188,44145,1,0,0:0:0:0:
256,188,44469,1,0,0:0:0:0:
256,188,44793,1,8,0:0:0:0:
256,188,45442,1,8,0:0:0:0:
256,188,46091,1,0,0:0:0:0:
256,188,46739,1,0,0:0:0:0:
256,188,47064,1,8,0:0:0:0:
256,188,47388,1,0,0:0:0:0:
256,188,48685,1,0,0:0:0:0:
256,188,49334,1,8,0:0:0:0:
256,188,49658,1,0,0:0:0:0:
256,188,49983,1,8,0:0:0:0:
256,188,50307,1,0,0:0:0:0:
256,188,50631,1,0,0:0:0:0:
256,188,51280,1,8,0:0:0:0:
256,188,51604,1,0,0:0:0:0:
256,188,51929,1,8,0:0:0:0:
256,188,52577,1,0,0:0:0:0:
256,188,53550,1,12,0:0:0:0:
256,188,54199,1,0,0:0:0:0:
256,188,54847,1,8,0:0:0:0:
256,188,55496,1,4,0:0:0:0:
256,188,55820,1,4,0:0:0:0:
256,188,56145,1,12,0:0:0:0:
256,188,56793,1,8,0:0:0:0:
256,188,57442,1,0,0:0:0:0:
256,188,58091,1,4,0:0:0:0:
256,188,58415,1,12,0:0:0:0:
256,188,59388,1,8,0:0:0:0:
256,188,60037,1,8,0:0:0:0:
256,188,60685,1,4,0:0:0:0:
256,188,61010,1,4,0:0:0:0:
256,188,61334,1,8,0:0:0:0:
256,188,62631,1,0,0:0:0:0:
256,188,62956,1,8,0:0:0:0:
256,188,63604,1,0,0:0:0:0:
256,188,64253,1,8,0:0:0:0:
256,188,64739,1,0,0:0:0:0:
256,188,65550,1,8,0:0:0:0:
256,188,66199,1,8,0:0:0:0:
256,188,66523,1,0,0:0:0:0:
256,188,67010,1,0,0:0:0:0:
256,188,67334,1,8,0:0:0:0:
256,188,68793,1,8,0:0:0:0:
256,188,69442,1,0,0:0:0:0:
256,188,70091,1,0,0:0:0:0:
256,192,71388,12,0,73334,0:0:0:0:
256,188,73983,5,0,0:0:0:0:
256,188,74631,1,8,0:0:0:0:
256,188,75280,1,8,0:0:0:0:
256,188,75604,1,0,0:0:0:0:
256,188,76577,1,8,0:0:0:0:
256,188,77226,1,0,0:0:0:0:
256,188,77874,1,0,0:0:0:0:
256,188,78199,1,8,0:0:0:0:
256,188,79172,1,0,0:0:0:0:
256,188,79820,1,8,0:0:0:0:
256,188,80469,1,8,0:0:0:0:
256,188,80793,1,0,0:0:0:0:
256,192,81766,12,0,83388,0:0:0:0:
256,188,83712,5,0,0:0:0:0:
256,188,84037,1,0,0:0:0:0:
256,188,84361,1,12,0:0:0:0:
256,188,85010,1,8,0:0:0:0:
256,188,85334,1,8,0:0:0:0:
256,188,85658,1,0,0:0:0:0:
256,188,85983,1,8,0:0:0:0:
256,188,86307,1,0,0:0:0:0:
256,188,86956,1,8,0:0:0:0:
256,188,87604,1,0,0:0:0:0:
256,188,88253,1,0,0:0:0:0:
256,188,88577,1,8,0:0:0:0:
256,188,88902,1,0,0:0:0:0:
256,188,90199,1,0,0:0:0:0:
256,188,90847,1,8,0:0:0:0:
256,188,91496,1,8,0:0:0:0:
256,188,91820,1,0,0:0:0:0:
256,188,92145,1,0,0:0:0:0:
256,188,92469,1,8,0:0:0:0:
256,188,92793,1,8,0:0:0:0:
256,188,93442,1,8,0:0:0:0:
256,188,93766,1,8,0:0:0:0:
256,188,94091,1,0,0:0:0:0:
256,188,95064,1,12,0:0:0:0:
256,188,95712,1,8,0:0:0:0:
256,188,96037,1,0,0:0:0:0:
256,188,96361,1,0,0:0:0:0:
256,188,96685,1,8,0:0:0:0:
256,188,97334,1,8,0:0:0:0:
256,188,97983,1,0,0:0:0:0:
256,188,98631,1,0,0:0:0:0:
256,188,98956,1,8,0:0:0:0:
256,188,99280,1,0,0:0:0:0:
256,188,100577,1,0,0:0:0:0:
256,188,101226,1,8,0:0:0:0:
256,188,101550,1,0,0:0:0:0:
256,188,101874,1,8,0:0:0:0:
256,188,102199,1,0,0:0:0:0:
256,188,102523,1,0,0:0:0:0:
256,188,103172,5,0,0:0:0:0:
256,188,103496,1,0,0:0:0:0:
256,188,103820,1,8,0:0:0:0:
256,188,104793,5,8,0:0:0:0:
