osu file format v14

[General]
AudioFilename: audio.mp3
AudioLeadIn: 0
PreviewTime: 55377
Countdown: 0
SampleSet: Soft
StackLeniency: 0.7
Mode: 2
LetterboxInBreaks: 0
WidescreenStoryboard: 0

[Editor]
Bookmarks: 56046,77379
DistanceSpacing: 1.6
BeatDivisor: 4
GridSize: 8
TimelineZoom: 3.499999

[Metadata]
Title:COMA
TitleUnicode:COMA
Artist:ensou ft. GUMI
ArtistUnicode:ensou ft. GUMI
Creator:Nelly
Version:Rain
Source:Cytus
Tags:rayark vocaloid megpoid gumi filipino paranoid grapes hi_hello
BeatmapID:1299618
BeatmapSetID:589530

[Difficulty]
HPDrainRate:6
CircleSize:4
OverallDifficulty:9
ApproachRate:9
SliderMultiplier:1.6
SliderTickRate:2

[Events]
//Background and Video events
0,0,"comabg.jpg",0,0
//Break Periods
2,80241,81774
//Storyboard Layer 0 (Background)
//Storyboard Layer 1 (Fail)
//Storyboard Layer 2 (Pass)
//Storyboard Layer 3 (Foreground)
//Storyboard Sound Samples

[TimingPoints]
41,333.333333333333,4,2,1,50,1,0
707,-100,4,2,1,50,0,0
2707,-100,4,2,1,85,0,0
12040,-86.9565217391304,4,2,1,85,0,0
12707,-100,4,2,1,85,0,0
13374,-100,4,2,1,85,0,0
34124,-100,4,2,1,80,0,0
34207,-100,4,2,1,75,0,0
34290,-100,4,2,1,70,0,0
34374,-100,4,2,1,65,0,0
34457,-100,4,2,1,60,0,0
34540,-100,4,2,1,55,0,0
34624,-100,4,2,1,50,0,0
34707,-100,4,2,1,85,0,0
45374,-133.333333333333,4,2,1,85,0,0
54707,-133.333333333333,4,2,1,30,0,0
56040,-100,4,2,1,85,0,1
72040,-125,4,2,1,85,0,0
72541,-100,4,2,1,85,0,0
74707,-125,4,2,1,85,0,0
75207,-100,4,2,1,85,0,0
82374,-200,4,2,1,85,0,0
85374,-100,4,2,1,85,0,0
88040,-100,4,2,1,85,0,1
98707,-100,4,2,1,85,0,0
98874,-100,4,2,1,20,0,0

[Colours]
Combo1 : 0,140,0
Combo2 : 217,217,217
Combo3 : 108,54,0

[HitObjects]
256,192,707,12,0,2374,0:0:0:0:
192,96,2707,6,2,L|176:144,2,40,2|0|0,0:0|0:0|0:0,0:0:0:0:
336,96,3040,2,2,L|240:96,1,80,2|2,0:0|0:0,0:0:0:0:
32,96,3373,1,8,0:0:0:0:
336,96,3707,6,2,L|352:144,2,40,2|0|0,0:0|0:0|0:0,0:0:0:0:
208,192,4040,2,2,L|192:240,2,40,2|0|0,0:0|0:0|0:0,0:0:0:0:
352,192,4373,2,2,L|448:192,1,80,2|2,0:0|0:0,0:0:0:0:
208,192,4706,1,8,0:0:0:0:
96,192,4873,2,2,L|136:192,1,40
352,192,5040,2,10,L|448:192,1,80,10|0,0:0|0:0,0:0:0:0:
112,192,5373,5,6,0:0:0:0:
224,192,5540,1,2,0:0:0:0:
96,160,5706,1,2,0:0:0:0:
240,160,5873,1,2,0:0:0:0:
16,96,6040,2,8,L|176:96,1,160,8|0,0:0|0:0,0:0:0:0:
304,256,6540,2,2,L|352:256,1,40
112,256,6706,6,2,L|16:256,2,80,2|2|0,0:0|0:0|0:0,0:0:0:0:
240,64,7207,1,2,0:0:0:0:
244,104,7290,1,0,0:0:0:0:
247,144,7373,1,10,0:0:0:0:
120,240,7541,1,2,0:0:0:0:
264,240,7707,1,8,0:0:0:0:
120,240,7874,1,2,0:0:0:0:
360,224,8040,6,6,L|448:224,1,80,6|2,0:0|0:0,0:0:0:0:
312,224,8374,2,2,L|304:144,1,80,2|0,0:0|0:0,0:0:0:0:
432,136,8707,1,8,0:0:0:0:
304,80,8874,2,2,L|224:80,2,80,2|0|2,0:0|0:0|0:0,0:0:0:0:
64,296,9374,5,6,0:0:0:0:
56,208,9541,1,2,0:0:0:0:
184,144,9707,1,2,0:0:0:0:
192,240,9874,1,2,0:0:0:0:
64,296,10040,1,8,0:0:0:0:
344,68,10207,1,8,0:0:0:0:
388,69,10291,1,0,0:0:0:0:
424,95,10374,1,2,0:0:0:0:
437,135,10457,1,0,0:0:0:0:
426,177,10541,1,2,0:0:0:0:
393,206,10624,1,0,0:0:0:0:
176,224,10707,6,6,L|48:224,2,120,6|2|2,0:0|0:0|0:0,0:0:0:0:
432,224,11374,2,12,L|272:224,1,160,12|0,0:0|0:0,0:0:0:0:
416,224,11874,2,2,L|424:184,1,40
192,32,12040,6,0,L|48:40,2,138.000002632141,2|2|2,0:0|0:0|0:0,0:0:0:0:
432,48,12707,2,2,P|464:96|360:216,1,240,2|0,0:0|0:0,0:0:0:0:
128,112,13374,6,6,L|32:112,1,80,6|2,0:0|0:0,0:0:0:0:
160,200,13707,2,0,L|80:200,1,80,0|2,0:0|0:0,0:0:0:0:
384,120,14040,2,0,P|400:168|320:224,1,160,8|0,0:0|0:0,0:0:0:0:
208,216,14541,2,2,L|160:216,1,40,2|2,0:0|0:0,0:0:0:0:
336,192,14707,6,2,L|432:192,2,80,2|2|0,0:0|0:0|0:0,0:0:0:0:
192,192,15207,1,2,0:0:0:0:
416,192,15374,2,8,L|496:192,1,80,8|0,0:0|0:0,0:0:0:0:
224,96,15707,2,8,L|144:96,1,80,8|0,0:0|0:0,0:0:0:0:
416,64,16041,6,4,L|432:160,1,80,4|2,0:0|0:0,0:0:0:0:
288,208,16374,1,2,0:0:0:0:
432,208,16541,1,2,0:0:0:0:
80,144,16707,2,8,L|160:144,1,80,8|0,0:0|0:0,0:0:0:0:
304,144,17041,2,2,L|336:96,2,40,2|2|2,0:0|0:0|0:0,0:0:0:0:
32,48,17374,6,0,L|24:128,1,80,0|2,0:0|0:0,0:0:0:0:
152,152,17707,2,0,L|232:152,1,80,0|2,0:0|0:0,0:0:0:0:
104,240,18041,1,8,0:0:0:0:
232,240,18207,2,0,L|240:160,1,80,0|2,0:0|0:0,0:0:0:0:
112,136,18540,1,0,0:0:0:0:
384,272,18707,6,6,L|400:192,1,80,6|2,0:0|0:0,0:0:0:0:
240,136,19041,1,0,0:0:0:0:
384,136,19207,1,2,0:0:0:0:
152,192,19374,2,0,L|312:192,1,160,8|0,0:0|0:0,0:0:0:0:
424,240,19874,2,2,L|432:288,1,40
240,312,20041,5,2,0:0:0:0:
216,216,20208,1,0,0:0:0:0:
328,192,20375,1,2,0:0:0:0:
344,96,20541,1,2,0:0:0:0:
96,240,20707,2,0,L|176:240,1,80,8|0,0:0|0:0,0:0:0:0:
416,240,21041,2,0,L|336:240,1,80,8|2,0:0|0:0,0:0:0:0:
96,64,21374,6,6,L|80:160,1,80,6|2,0:0|0:0,0:0:0:0:
224,208,21707,1,0,0:0:0:0:
80,208,21874,1,2,0:0:0:0:
432,144,22041,2,8,L|352:144,1,80,8|0,0:0|0:0,0:0:0:0:
208,144,22374,2,2,L|176:96,2,40,2|0|0,0:0|0:0|0:0,0:0:0:0:
336,320,22707,6,2,L|344:240,1,80,2|0,0:0|0:0,0:0:0:0:
200,224,23041,2,0,L|192:144,1,80
416,48,23374,1,8,0:0:0:0:
272,48,23541,1,0,0:0:0:0:
496,160,23707,2,2,L|512:208,3,40,0|0|0|0,0:0|0:0|0:0|0:0,0:0:0:0:
304,240,24041,5,6,0:0:0:0:
160,240,24207,2,2,L|80:240,2,80,2|0|0,0:0|0:0|0:0,0:0:0:0:
416,240,24707,1,8,0:0:0:0:
128,112,25041,2,2,L|112:192,1,80,2|0,0:0|0:0,0:0:0:0:
384,240,25541,6,2,L|304:240,2,80,2|2|0,0:0|0:0|0:0,0:0:0:0:
496,240,26041,1,8,0:0:0:0:
256,240,26207,2,2,L|224:192,2,40,2|0|8,0:0|0:0|0:0,0:0:0:0:
400,240,26541,1,2,0:0:0:0:
112,240,26707,6,0,L|96:160,1,80,0|0,0:0|0:0,0:0:0:0:
336,48,27041,2,2,L|256:48,2,80,2|0|8,0:0|0:0|0:0,0:0:0:0:
144,272,27707,2,2,L|128:192,1,80,2|0,0:0|0:0,0:0:0:0:
416,192,28207,6,2,L|336:192,1,80,2|8,0:0|0:0,0:0:0:0:
192,192,28541,1,0,0:0:0:0:
416,80,28707,2,8,L|432:128,2,40,8|0|0,0:0|0:0|0:0,0:0:0:0:
272,128,29041,1,8,0:0:0:0:
224,96,29124,1,0,0:0:0:0:
192,48,29207,1,0,0:0:0:0:
432,240,29374,6,6,L|440:160,1,80,6|0,0:0|0:0,0:0:0:0:
288,240,29707,1,2,0:0:0:0:
80,48,30041,2,8,L|64:128,1,80,8|2,0:0|0:0,0:0:0:0:
208,208,30374,1,2,0:0:0:0:
448,48,30707,6,6,L|368:48,2,80,6|2|0,0:0|0:0|0:0,0:0:0:0:
192,128,31207,2,0,L|112:128,1,80,0|8,0:0|0:0,0:0:0:0:
416,192,31707,2,8,L|432:272,1,80,8|0,0:0|0:0,0:0:0:0:
176,320,32041,6,14,L|256:320,1,80,14|2,0:0|0:0,0:0:0:0:
80,256,32374,2,14,L|160:256,1,80,14|0,0:0|0:0,0:0:0:0:
384,224,32707,1,12,0:0:0:0:
240,160,32874,1,2,0:0:0:0:
280,148,32957,1,2,0:0:0:0:
320,136,33040,1,0,0:0:0:0:
448,152,33207,1,2,0:0:0:0:
208,80,33374,6,12,L|128:80,1,80,12|2,0:0|0:0,0:0:0:0:
176,80,33624,1,0,0:0:0:0:
224,80,33707,1,12,0:0:0:0:
80,80,33874,1,2,0:0:0:0:
336,80,34041,5,8,3:0:0:0:
376,80,34124,1,8,3:0:0:0:
405,107,34207,1,8,3:0:0:0:
409,146,34291,1,8,3:0:0:0:
192,192,34374,2,8,L|144:192,1,40,8|8,3:0|3:0,3:0:0:0:
320,192,34541,2,8,L|368:192,1,40,8|8,3:0|3:0,3:0:0:0:
80,240,34707,6,6,L|224:320,1,160,6|8,0:0|0:0,0:0:0:0:
80,320,35207,1,2,0:0:0:0:
320,320,35374,2,2,L|240:320,2,80,2|2|8,0:0|0:0|0:0,0:0:0:0:
64,112,35874,6,0,L|48:192,1,80,0|2,0:0|0:0,0:0:0:0:
192,240,36207,1,2,0:0:0:0:
416,128,36374,2,8,L|320:128,1,80,8|0,0:0|0:0,0:0:0:0:
96,128,36707,1,2,0:0:0:0:
112,160,36791,1,2,0:0:0:0:
144,192,36874,1,2,0:0:0:0:
288,192,37041,1,8,0:0:0:0:
160,192,37207,2,2,L|112:192,1,40,2|0,0:0|0:0,0:0:0:0:
336,192,37374,5,2,0:0:0:0:
480,192,37541,2,0,L|400:192,2,80,0|8|2,0:0|0:0|0:0,0:0:0:0:
240,160,38041,2,0,L|224:240,1,80,0|0,0:0|0:0,0:0:0:0:
368,272,38374,1,8,0:0:0:0:
96,240,38541,6,0,L|240:320,1,160,0|2,0:0|0:0,0:0:0:0:
384,320,39041,2,8,L|288:320,2,80,8|2|2,0:0|0:0|0:0,0:0:0:0:
208,320,39541,1,2,0:0:0:0:
464,320,39707,2,8,L|384:320,1,80,8|0,0:0|0:0,0:0:0:0:
112,96,40041,6,4,P|96:160|176:192,1,160,4|8,0:0|0:0,0:0:0:0:
320,192,40541,1,2,0:0:0:0:
176,192,40707,2,2,L|256:192,1,80,2|0,0:0|0:0,0:0:0:0:
112,144,41041,2,8,L|192:144,1,80,8|0,0:0|0:0,0:0:0:0:
432,144,41374,6,2,L|336:144,2,80,2|0|8,0:0|0:0|0:0,0:0:0:0:
288,144,41874,1,0,0:0:0:0:
64,144,42041,1,2,0:0:0:0:
32,176,42124,1,2,0:0:0:0:
64,208,42207,1,2,0:0:0:0:
192,208,42374,2,8,L|96:208,1,80,8|0,0:0|0:0,0:0:0:0:
400,176,42707,6,4,L|256:256,1,160,4|8,0:0|0:0,0:0:0:0:
400,256,43207,1,2,0:0:0:0:
112,176,43374,2,2,L|192:176,1,80,2|0,0:0|0:0,0:0:0:0:
320,176,43707,2,0,L|328:256,1,80,8|0,0:0|0:0,0:0:0:0:
40,312,44040,6,0,L|200:312,1,160,2|8,0:0|0:0,0:0:0:0:
72,216,44540,1,0,0:0:0:0:
304,112,44707,2,2,L|320:160,2,40,2|2|10,0:0|0:0|0:0,0:0:0:0:
176,240,45041,2,8,L|240:192,1,80,8|0,0:0|0:0,0:0:0:0:
464,96,45374,6,6,P|352:118|336:176,2,180.000006866455,6|0|0,0:0|0:0|0:0,0:0:0:0:
192,64,46874,1,0,0:0:0:0:
400,64,47374,1,2,0:0:0:0:
240,64,47707,2,0,L|304:64,1,60.0000022888184,0|0,0:0|0:0,0:0:0:0:
64,96,48041,6,6,P|176:118|192:176,2,180.000006866455,6|0|0,0:0|0:0|0:0,0:0:0:0:
256,96,49374,2,2,B|348:180|348:180|432:96,1,240.000009155274,2|0,0:0|0:0,0:0:0:0:
288,96,50207,1,2,0:0:0:0:
408,272,50374,2,8,L|416:344,1,60.0000022888184,8|0,0:0|0:0,0:0:0:0:
160,96,50707,6,6,P|64:144|48:176,1,120.000004577637,6|0,0:0|0:0,0:0:0:0:
208,184,51207,1,0,0:0:0:0:
316,196,51374,1,8,0:0:0:0:
208,184,51540,1,0,0:0:0:0:
100,272,51707,6,0,P|148:320|308:272,1,240.000009155274,0|2,0:0|0:0,0:0:0:0:
96,192,52707,2,8,L|92:72,1,120.000004577637,8|0,0:0|0:0,0:0:0:0:
356,192,53374,5,6,0:0:0:0:
156,192,53707,1,2,0:0:0:0:
388,192,54041,1,8,0:0:0:0:
124,192,54374,1,2,0:0:0:0:
416,48,54707,6,0,P|444:152|344:212,1,240.000009155274,0|2,0:0|0:0,0:0:0:0:
96,208,55707,1,2,0:0:0:0:
312,212,56041,6,6,L|320:128,1,80,6|2,0:0|0:0,0:0:0:0:
192,112,56374,2,8,L|112:112,1,80,8|0,0:0|0:0,0:0:0:0:
356,152,56707,2,0,L|440:152,2,80,2|0|8,0:0|0:0|0:0,0:0:0:0:
120,72,57207,6,0,P|72:88|120:152,1,160,2|0,0:0|0:0,0:0:0:0:
264,152,57707,2,8,L|184:152,1,80,8|0,0:0|0:0,0:0:0:0:
312,232,58040,2,0,L|320:312,1,80,2|0,0:0|0:0,0:0:0:0:
192,320,58374,2,8,L|112:320,1,80,8|0,0:0|0:0,0:0:0:0:
416,96,58707,6,2,L|496:96,1,80,2|0,0:0|0:0,0:0:0:0:
352,160,59041,2,8,L|272:160,1,80,8|2,0:0|0:0,0:0:0:0:
424,272,59374,2,0,L|504:272,2,80,2|0|8,0:0|0:0|0:0,0:0:0:0:
192,96,59874,2,0,L|48:176,1,160,0|0,0:0|0:0,0:0:0:0:
192,176,60374,6,8,L|272:176,1,80,8|0,0:0|0:0,0:0:0:0:
128,240,60707,1,2,0:0:0:0:
272,304,60874,2,0,L|320:304,1,40,2|0,0:0|0:0,0:0:0:0:
96,336,61041,2,8,L|0:336,1,80,8|2,0:0|0:0,0:0:0:0:
352,64,61374,6,6,P|408:116|352:160,1,160,6|8,0:0|0:0,0:0:0:0:
208,160,61874,1,2,0:0:0:0:
352,160,62041,2,2,L|256:160,1,80
128,160,62374,1,8,0:0:0:0:
400,160,62541,2,0,L|240:160,1,160,0|2,0:0|0:0,0:0:0:0:
368,48,63041,6,8,L|384:128,1,80,8|2,0:0|0:0,0:0:0:0:
256,176,63374,2,2,L|176:176,1,80,2|0,0:0|0:0,0:0:0:0:
320,248,63707,2,8,L|400:248,1,80,8|0,0:0|0:0,0:0:0:0:
112,272,64040,6,0,L|104:192,1,80,2|0,0:0|0:0,0:0:0:0:
232,168,64374,2,8,L|312:168,1,80,8|2,0:0|0:0,0:0:0:0:
184,8,64707,2,2,L|176:88,1,80,2|0,0:0|0:0,0:0:0:0:
304,264,65040,2,8,L|384:264,1,80,8|0,0:0|0:0,0:0:0:0:
32,48,65374,6,2,L|16:128,1,80,2|0,0:0|0:0,0:0:0:0:
144,176,65707,2,8,L|48:176,1,80,8|2,0:0|0:0,0:0:0:0:
304,256,66041,1,8,0:0:0:0:
352,224,66124,1,8,0:0:0:0:
388,176,66207,1,8,0:0:0:0:
144,176,66374,1,8,0:0:0:0:
32,176,66540,1,8,0:0:0:0:
336,288,66707,6,4,L|416:288,2,80,4|0|8,0:0|0:0|0:0,0:0:0:0:
192,288,67207,1,0,0:0:0:0:
336,192,67374,2,2,L|256:192,1,80,2|0,0:0|0:0,0:0:0:0:
112,192,67707,1,8,0:0:0:0:
384,48,67874,2,0,P|432:64|384:128,1,160,0|0,0:0|0:0,0:0:0:0:
96,160,68374,6,8,L|80:240,1,80,8|0,0:0|0:0,0:0:0:0:
368,256,68707,2,2,L|448:256,1,80,2|0,0:0|0:0,0:0:0:0:
160,272,69041,2,8,L|80:272,1,80,8|0,0:0|0:0,0:0:0:0:
416,96,69374,6,2,L|432:176,1,80,2|0,0:0|0:0,0:0:0:0:
304,240,69707,2,8,L|384:240,1,80,8|0,0:0|0:0,0:0:0:0:
128,128,70041,2,2,L|48:128,2,80,2|2|8,0:0|0:0|0:0,0:0:0:0:
384,96,70541,2,2,L|240:176,1,160,2|2,0:0|0:0,0:0:0:0:
384,192,71041,6,2,L|400:288,1,80,10|0,0:0|0:0,0:0:0:0:
256,256,71374,1,8,0:0:0:0:
384,256,71540,1,0,0:0:0:0:
160,256,71707,2,8,L|64:256,1,80,10|0,0:0|0:0,0:0:0:0:
384,48,72041,6,6,P|432:112|400:160,1,128,6|2,0:0|0:0,0:0:0:0:
272,160,72541,2,0,L|240:192,1,40,0|2,0:0|0:0,0:0:0:0:
416,160,72707,2,8,P|448:240|384:288,1,160,8|2,0:0|0:0,0:0:0:0:
336,288,73124,1,0,0:0:0:0:
160,168,73207,6,2,P|112:200|160:280,1,160,2|0,0:0|0:0,0:0:0:0:
272,296,73707,2,0,L|416:224,1,160,0|8,0:0|0:0,0:0:0:0:
192,216,74374,1,0,0:0:0:0:
384,48,74707,6,6,P|432:112|400:168,1,128,6|0,0:0|0:0,0:0:0:0:
272,160,75207,2,2,L|240:200,1,40,2|0,0:0|0:0,0:0:0:0:
432,160,75374,2,12,P|464:240|400:288,1,160,12|0,0:0|0:0,0:0:0:0:
144,256,75874,6,2,P|96:198|130:131,1,160,2|0,0:0|0:0,0:0:0:0:
368,96,76374,2,2,L|448:96,1,80,2|0,0:0|0:0,0:0:0:0:
112,48,76707,5,10,0:0:0:0:
74,58,76791,1,8,0:0:0:0:
56,92,76874,1,8,0:0:0:0:
69,128,76957,1,8,0:0:0:0:
272,128,77041,1,8,0:0:0:0:
310,138,77124,1,8,0:0:0:0:
328,172,77207,1,8,0:0:0:0:
315,208,77291,1,8,0:0:0:0:
64,272,77374,5,12,0:0:0:0:
256,192,77541,12,2,80041,0:0:0:0:
128,192,82374,5,0,0:0:0:0:
384,64,82707,2,6,P|448:160|384:256,1,240,6|0,0:0|0:0,0:0:0:0:
128,160,84041,2,6,L|368:160,1,240,6|0,0:0|0:0,0:0:0:0:
128,32,85374,6,6,L|112:128,1,80,6|0,0:0|0:0,0:0:0:0:
400,224,85874,1,2,0:0:0:0:
384,176,85957,1,2,0:0:0:0:
352,144,86041,1,10,0:0:0:0:
188,144,86207,1,0,0:0:0:0:
332,52,86374,2,0,L|412:52,1,80,0|0,0:0|0:0,0:0:0:0:
48,48,86707,6,8,L|128:48,2,80,8|0|0,0:0|0:0|0:0,0:0:0:0:
192,48,87207,1,2,0:0:0:0:
416,96,87374,1,8,0:0:0:0:
454,106,87458,1,8,0:0:0:0:
472,140,87541,1,8,0:0:0:0:
459,176,87624,1,8,0:0:0:0:
256,112,87707,1,2,0:0:0:0:
218,122,87791,1,2,0:0:0:0:
200,156,87874,1,2,0:0:0:0:
213,192,87957,1,2,0:0:0:0:
416,240,88041,6,6,L|432:160,1,80,6|0,0:0|0:0,0:0:0:0:
288,112,88374,2,8,L|368:112,1,80,8|0,0:0|0:0,0:0:0:0:
64,192,88707,2,8,L|144:192,2,80,8|0|8,0:0|0:0|0:0,0:0:0:0:
208,192,89207,1,0,0:0:0:0:
464,192,89374,6,2,L|384:192,1,80,2|0,0:0|0:0,0:0:0:0:
240,192,89707,2,8,L|336:192,1,80,8|0,0:0|0:0,0:0:0:0:
80,112,90041,2,8,L|160:112,2,80,8|0|8,0:0|0:0|0:0,0:0:0:0:
224,112,90541,2,2,L|272:112,1,40,2|2,0:0|0:0,0:0:0:0:
48,224,90707,6,2,L|32:304,1,80,2|2,0:0|0:0,0:0:0:0:
176,336,91041,2,8,L|96:336,1,80,8|2,0:0|0:0,0:0:0:0:
272,272,91374,2,8,L|192:272,1,80,8|2,0:0|0:0,0:0:0:0:
464,224,91707,2,8,L|368:224,1,80,8|2,0:0|0:0,0:0:0:0:
64,224,92041,6,2,L|144:224,1,80,2|2,0:0|0:0,0:0:0:0:
288,224,92374,2,8,L|192:224,1,80,8|0,0:0|0:0,0:0:0:0:
432,144,92707,2,8,L|436:224,1,80,8|0,0:0|0:0,0:0:0:0:
288,224,93041,2,2,L|368:224,1,80,2|0,0:0|0:0,0:0:0:0:
128,208,93374,6,6,L|208:208,2,80,6|0|8,0:0|0:0|0:0,0:0:0:0:
272,208,93874,1,2,0:0:0:0:
48,128,94041,2,8,L|128:128,1,80,8|2,0:0|0:0,0:0:0:0:
448,128,94374,2,8,L|368:128,1,80,8|2,0:0|0:0,0:0:0:0:
144,128,94707,6,2,L|224:128,2,80,2|0|8,0:0|0:0|0:0,0:0:0:0:
288,128,95207,1,2,0:0:0:0:
16,128,95374,1,8,0:0:0:0:
96,208,95541,1,8,0:0:0:0:
320,176,95707,2,8,L|240:176,1,80,8|0,0:0|0:0,0:0:0:0:
480,144,96041,6,6,L|496:224,1,80,6|2,0:0|0:0,0:0:0:0:
352,272,96374,1,0,0:0:0:0:
496,272,96541,2,2,L|448:272,1,40,2|2,0:0|0:0,0:0:0:0:
240,272,96707,2,8,L|160:272,1,80,8|0,0:0|0:0,0:0:0:0:
400,176,97041,2,8,L|480:176,1,80,8|2,0:0|0:0,0:0:0:0:
432,176,97291,1,0,0:0:0:0:
144,176,97374,6,8,L|64:176,2,80,10|2|10,0:0|0:0|0:0,0:0:0:0:
296,176,97874,1,10,0:0:0:0:
64,96,98040,5,8,0:0:0:0:
48,144,98123,1,8,0:0:0:0:
88,176,98206,1,8,0:0:0:0:
144,176,98290,1,8,0:0:0:0:
384,160,98373,1,8,0:0:0:0:
432,136,98456,1,8,0:0:0:0:
144,304,98540,1,8,0:0:0:0:
96,280,98623,1,8,0:0:0:0:
400,32,98707,5,14,0:0:0:0:
256,192,98874,12,0,105374,0:0:0:0:
