osu file format v14

[General]
AudioFilename: audio.mp3
AudioLeadIn: 0
PreviewTime: 55377
Countdown: 0
SampleSet: Soft
StackLeniency: 0.7
Mode: 2
LetterboxInBreaks: 0
WidescreenStoryboard: 1

[Editor]
Bookmarks: 56046,77379
DistanceSpacing: 1.2
BeatDivisor: 4
GridSize: 8
TimelineZoom: 2.2

[Metadata]
Title:COMA
TitleUnicode:COMA
Artist:ensou ft. GUMI
ArtistUnicode:ensou ft. GUMI
Creator:Nelly
Version:Cup
Source:Cytus
Tags:rayark vocaloid megpoid gumi filipino paranoid grapes hi_hello
BeatmapID:1284935
BeatmapSetID:589530

[Difficulty]
HPDrainRate:3
CircleSize:2.5
OverallDifficulty:6
ApproachRate:6
SliderMultiplier:1
SliderTickRate:1

[Events]
//Background and Video events
0,0,"comabg.jpg",0,0
//Break Periods
2,80241,81249
//Storyboard Layer 0 (Background)
//Storyboard Layer 1 (Fail)
//Storyboard Layer 2 (Pass)
//Storyboard Layer 3 (Foreground)
//Storyboard Sound Samples

[TimingPoints]
41,333.333333333333,4,2,1,50,1,0
707,-100,4,2,1,50,0,0
2707,-100,4,2,1,85,0,0
12040,-86.9565217391304,4,2,1,85,0,0
12707,-100,4,2,1,85,0,0
13374,-100,4,2,1,85,0,0
34207,-100,4,2,1,75,0,0
34374,-100,4,2,1,65,0,0
34540,-100,4,2,1,55,0,0
34707,-100,4,2,1,85,0,0
45374,-133.333333333333,4,2,1,85,0,0
54707,-133.333333333333,4,2,1,30,0,0
56040,-100,4,2,1,85,0,1
72040,-125,4,2,1,85,0,0
72707,-100,4,2,1,85,0,0
74707,-125,4,2,1,85,0,0
75207,-100,4,2,1,85,0,0
82374,-200,4,2,1,85,0,0
85374,-100,4,2,1,85,0,0
88040,-100,4,2,1,85,0,1
98707,-100,4,2,1,85,0,0
99040,-100,4,2,1,20,0,0

[Colours]
Combo1 : 0,140,0
Combo2 : 217,217,217
Combo3 : 108,54,0

[HitObjects]
256,192,707,12,0,2374,0:0:0:0:
368,64,2707,6,2,L|256:64,1,100,2|2,0:0|0:0,0:0:0:0:
288,128,3207,2,2,L|304:192,1,50,2|8,0:0|0:0,0:0:0:0:
192,192,3707,6,2,L|64:192,2,100,2|2|2,0:0|0:0|0:0,0:0:0:0:
288,192,4707,1,8,0:0:0:0:
144,128,5041,1,10,0:0:0:0:
304,288,5374,6,6,L|448:144,2,200,6|8|0,0:0|0:0|0:0,0:0:0:0:
208,288,7041,1,0,0:0:0:0:
304,160,7374,2,10,L|320:48,1,100,10|8,0:0|0:0,0:0:0:0:
160,32,8041,6,6,L|48:32,1,100,6|2,0:0|0:0,0:0:0:0:
112,80,8541,1,0,0:0:0:0:
160,128,8707,2,8,P|208:160|128:232,1,200,8|6,0:0|0:0,0:0:0:0:
224,256,9707,5,2,0:0:0:0:
352,224,10041,2,8,L|240:224,1,100,8|2,0:0|0:0,0:0:0:0:
416,336,10707,6,6,P|464:320|416:216,1,200,6|12,0:0|0:0,0:0:0:0:
224,96,11874,1,2,0:0:0:0:
160,96,12041,2,2,P|116:152|160:232,1,172.500003290176,2|2,0:0|0:0,0:0:0:0:
224,232,12707,1,2,0:0:0:0:
464,64,13374,6,6,L|304:64,1,150,6|2,0:0|0:0,0:0:0:0:
240,64,14041,2,8,P|192:112|240:160,1,150,8|2,0:0|0:0,0:0:0:0:
320,160,14707,6,2,L|208:160,1,100,2|0,0:0|0:0,0:0:0:0:
320,256,15374,2,8,L|360:164,1,100,8|8,0:0|0:0,0:0:0:0:
192,64,16041,6,4,L|80:64,1,100,4|2,0:0|0:0,0:0:0:0:
144,80,16541,1,2,0:0:0:0:
192,96,16707,1,8,0:0:0:0:
336,96,17041,1,2,0:0:0:0:
288,96,17207,6,2,P|240:128|288:192,1,150,2|0,0:0|0:0,0:0:0:0:
384,192,18041,1,8,0:0:0:0:
256,192,18374,1,2,0:0:0:0:
416,192,18707,6,6,L|432:16,1,150,6|2,0:0|0:0,0:0:0:0:
336,32,19374,2,8,L|224:32,1,100,8|0,0:0|0:0,0:0:0:0:
256,32,20041,6,2,P|304:80|256:128,1,150,2|2,0:0|0:0,0:0:0:0:
196,128,20707,2,8,L|156:220,1,100,8|8,0:0|0:0,0:0:0:0:
320,224,21374,6,6,P|360:288|320:352,1,150,6|2,0:0|0:0,0:0:0:0:
224,352,22041,2,8,L|112:352,1,100,8|2,0:0|0:0,0:0:0:0:
192,224,22541,1,2,0:0:0:0:
204,272,22707,5,2,0:0:0:0:
96,288,23041,1,0,0:0:0:0:
208,288,23374,2,8,L|224:176,1,100,8|0,0:0|0:0,0:0:0:0:
80,96,24041,6,6,L|240:96,1,150,6|0,0:0|0:0,0:0:0:0:
176,96,24707,1,8,0:0:0:0:
256,128,25041,6,2,L|240:80,1,50,2|0,0:0|0:0,0:0:0:0:
352,96,25541,2,2,L|356:44,1,50,2|2,0:0|0:0,0:0:0:0:
192,176,26041,2,8,L|176:288,1,100,8|8,0:0|0:0,0:0:0:0:
272,336,26707,6,0,L|384:336,1,100,0|2,0:0|0:0,0:0:0:0:
320,288,27207,1,0,0:0:0:0:
272,240,27374,1,8,0:0:0:0:
416,240,27707,2,2,L|432:176,1,50,2|0,0:0|0:0,0:0:0:0:
288,176,28207,6,2,L|176:176,1,100,2|0,0:0|0:0,0:0:0:0:
256,368,28707,2,8,L|270:269,1,100,8|8,0:0|0:0,0:0:0:0:
128,256,29374,6,6,P|64:192|128:128,1,200,6|8,0:0|0:0,0:0:0:0:
224,128,30374,1,2,0:0:0:0:
368,128,30707,5,6,0:0:0:0:
432,128,30874,2,2,L|448:240,1,100,2|0,0:0|0:0,0:0:0:0:
384,256,31374,1,8,0:0:0:0:
240,256,31707,2,8,L|224:192,1,50,8|0,0:0|0:0,0:0:0:0:
304,192,32041,6,14,P|352:176|288:80,1,200,14|12,0:0|0:0,0:0:0:0:
160,80,33041,1,0,0:0:0:0:
304,80,33374,5,12,0:0:0:0:
368,80,33541,2,2,P|380:128|368:176,1,100,2|2,0:0|0:0,0:0:0:0:
224,176,34207,1,8,3:0:0:0:
176,176,34374,1,8,3:0:0:0:
128,176,34541,1,8,3:0:0:0:
200,144,34707,5,6,0:0:0:0:
336,272,35041,2,8,L|352:160,1,100,8|2,0:0|0:0,0:0:0:0:
208,144,35707,2,8,L|192:192,1,50,8|0,0:0|0:0,0:0:0:0:
336,208,36207,2,2,L|352:160,1,50,2|8,0:0|0:0,0:0:0:0:
208,160,36707,2,2,L|96:160,1,100,2|8,0:0|0:0,0:0:0:0:
256,160,37374,5,2,0:0:0:0:
320,160,37541,2,0,L|336:264,1,100,0|2,0:0|0:0,0:0:0:0:
272,272,38041,1,0,0:0:0:0:
416,272,38374,2,8,L|432:224,1,50,8|0,0:0|0:0,0:0:0:0:
288,224,38874,6,2,L|272:176,1,50,2|8,0:0|0:0,0:0:0:0:
336,160,39207,2,2,L|448:160,1,100,2|2,0:0|0:0,0:0:0:0:
384,160,39707,1,8,0:0:0:0:
240,160,40041,5,4,0:0:0:0:
384,64,40374,2,8,L|400:176,1,100,8|2,0:0|0:0,0:0:0:0:
256,176,41041,1,8,0:0:0:0:
112,176,41374,5,2,0:0:0:0:
48,224,41541,2,0,L|32:112,1,100,0|0,0:0|0:0,0:0:0:0:
96,112,42041,1,2,0:0:0:0:
240,112,42374,1,8,0:0:0:0:
96,112,42707,6,4,P|48:160|96:208,1,150,4|2,0:0|0:0,0:0:0:0:
160,208,43374,1,2,0:0:0:0:
288,208,43707,1,8,0:0:0:0:
160,208,44040,5,6,0:0:0:0:
304,288,44374,2,8,P|352:240|288:128,1,200,8|8,0:0|0:0,0:0:0:0:
136,128,45374,6,6,L|24:192,2,112.500004291535,6|0|0,0:0|0:0|0:0,0:0:0:0:
368,128,46874,2,0,L|384:240,1,112.500004291535,0|2,0:0|0:0,0:0:0:0:
272,256,47707,1,0,0:0:0:0:
144,256,48041,6,6,L|48:191,2,112.500004291535,6|0|0,0:0|0:0|0:0,0:0:0:0:
256,256,49374,2,2,P|304:224|224:112,1,225.000008583069,2|8,0:0|0:0,0:0:0:0:
384,96,50707,6,6,L|496:96,1,112.500004291535,6|0,0:0|0:0,0:0:0:0:
448,96,51374,1,8,0:0:0:0:
244,92,51874,2,2,L|132:108,1,112.500004291535,0|2,0:0|0:0,0:0:0:0:
208,288,52707,2,8,L|288:288,1,75.0000028610231,8|0,0:0|0:0,0:0:0:0:
368,288,53373,6,6,L|383:191,1,75.0000028610231,6|2,0:0|0:0,0:0:0:0:
255,192,54040,2,8,L|176:192,1,75.0000028610231,8|2,0:0|0:0,0:0:0:0:
272,80,54707,1,0,0:0:0:0:
160,272,55374,6,2,L|144:176,1,75.0000028610231,2|2,0:0|0:0,0:0:0:0:
320,144,56041,6,6,L|432:144,1,100,6|8,0:0|0:0,0:0:0:0:
256,240,56707,2,2,L|240:128,1,100,2|8,0:0|0:0,0:0:0:0:
328,112,57207,2,0,P|376:144|328:208,1,150,2|8,0:0|0:0,0:0:0:0:
176,208,58041,2,2,L|64:208,1,100,2|8,0:0|0:0,0:0:0:0:
208,208,58707,6,2,L|320:208,2,100,2|8|2,0:0|0:0|0:0,0:0:0:0:
64,208,59707,1,8,0:0:0:0:
128,208,59874,2,0,L|144:96,1,100,0|0,0:0|0:0,0:0:0:0:
80,96,60374,2,8,L|8:168,2,100,8|2|8,0:0|0:0|0:0,0:0:0:0:
224,96,61374,6,6,P|296:152|224:208,1,200,6|2,0:0|0:0,0:0:0:0:
96,224,62374,1,8,0:0:0:0:
32,224,62541,6,0,P|16:168|32:128,1,100,0|2,0:0|0:0,0:0:0:0:
92,112,63041,2,8,L|204:112,1,100,8|2,0:0|0:0,0:0:0:0:
336,112,63707,1,8,0:0:0:0:
192,112,64041,6,2,L|64:112,2,100,2|8|2,0:0|0:0|0:0,0:0:0:0:
336,112,65041,2,8,P|384:144|336:256,1,200,8|8,0:0|0:0,0:0:0:0:
208,256,66041,2,8,L|320:256,1,100,8|8,0:0|0:0,0:0:0:0:
144,160,66707,6,4,L|32:160,1,100,4|8,0:0|0:0,0:0:0:0:
192,256,67373,2,2,L|208:144,1,100,2|8,0:0|0:0,0:0:0:0:
120,128,67874,2,0,P|72:160|120:224,1,150,0|8,0:0|0:0,0:0:0:0:
272,224,68707,2,2,L|384:224,1,100,2|8,0:0|0:0,0:0:0:0:
237,223,69374,6,2,L|128:224,2,100,2|8|2,0:0|0:0|0:0,0:0:0:0:
384,208,70373,1,0,0:0:0:0:
448,208,70540,2,2,L|464:96,1,100,2|2,0:0|0:0,0:0:0:0:
400,96,71040,2,2,L|288:96,2,100,10|8|10,0:0|0:0|0:0,0:0:0:0:
256,96,72040,6,6,P|200:136|232:208,1,160,6|2,0:0|0:0,0:0:0:0:
400,208,73040,1,2,0:0:0:0:
472,208,73207,6,2,L|480:96,1,100,2|0,0:0|0:0,0:0:0:0:
416,80,73707,2,0,L|316:80,1,100,0|8,0:0|0:0,0:0:0:0:
176,80,74373,1,0,0:0:0:0:
304,80,74707,6,6,L|400:80,2,80,6|0|12,0:0|0:0|0:0,0:0:0:0:
160,80,75707,2,0,P|112:112|160:224,1,200,0|2,0:0|0:0,0:0:0:0:
304,224,76707,6,8,L|416:224,1,100,10|8,0:0|0:0,0:0:0:0:
212,224,77374,1,12,0:0:0:0:
256,192,77707,12,2,80041,0:0:0:0:
368,192,82374,5,0,0:0:0:0:
224,192,82707,2,6,P|176:160|224:104,1,150,6|0,0:0|0:0,0:0:0:0:
368,80,84041,2,6,L|384:240,1,150,6|0,0:0|0:0,0:0:0:0:
240,256,85374,6,6,P|168:212|240:160,1,200,6|10,0:0|0:0,0:0:0:0:
368,160,86374,1,0,0:0:0:0:
224,160,86707,6,8,L|112:160,1,100,8|0,0:0|0:0,0:0:0:0:
256,128,87374,2,8,L|368:128,1,100,8|2,0:0|0:0,0:0:0:0:
184,128,88041,5,6,0:0:0:0:
352,128,88374,2,8,L|368:240,1,100,8|8,0:0|0:0,0:0:0:0:
224,240,89041,1,8,0:0:0:0:
366,228,89374,6,0,L|472:224,2,100,2|8|8,0:0|0:0|0:0,0:0:0:0:
248,240,90374,1,8,0:0:0:0:
368,232,90707,6,0,L|376:128,1,100,2|8,0:0|0:0,0:0:0:0:
256,104,91374,2,0,L|152:104,1,100,8|8,0:0|0:0,0:0:0:0:
256,240,92041,6,2,L|368:240,1,100,2|8,0:0|0:0,0:0:0:0:
224,240,92707,2,8,L|120:240,1,100,8|2,0:0|0:0,0:0:0:0:
256,144,93374,5,6,0:0:0:0:
128,144,93707,2,8,L|16:144,2,100,8|8|8,0:0|0:0|0:0,0:0:0:0:
256,144,94707,6,2,L|264:248,1,100,2|8,0:0|0:0,0:0:0:0:
144,312,95374,1,8,0:0:0:0:
96,312,95540,1,8,0:0:0:0:
48,312,95707,1,8,0:0:0:0:
168,208,96041,6,6,L|272:208,1,100,6|0,0:0|0:0,0:0:0:0:
152,104,96707,2,8,L|144:208,1,100
280,296,97374,6,8,P|369:254|422:171,1,200,10|8,0:0|0:0,0:0:0:0:
144,144,98707,1,14,0:0:0:0:
256,192,99040,12,0,105373,0:0:0:0:
