osu file format v14

[General]
AudioFilename: audio.mp3
AudioLeadIn: 0
PreviewTime: 45296
Countdown: 0
SampleSet: Normal
StackLeniency: 0.4
Mode: 1
LetterboxInBreaks: 0
WidescreenStoryboard: 1

[Editor]
Bookmarks: 24046,45379,56046,77379,109379
DistanceSpacing: 1
BeatDivisor: 4
GridSize: 32
TimelineZoom: 2.2

[Metadata]
Title:COMA
TitleUnicode:COMA
Artist:ensou feat. GUMI
ArtistUnicode:ensou feat. GUMI
Creator:Nao Tomori
Version:Oni
Source:Cytus
Tags:spoes radar rayark games rhythm game rock tagalog filipino vocarock メグッポイド グミ megpoid gumi vocaloid dasu
BeatmapID:1445749
BeatmapSetID:683542

[Difficulty]
HPDrainRate:6
CircleSize:2
OverallDifficulty:6
ApproachRate:7
SliderMultiplier:1.4
SliderTickRate:1

[Events]
//Background and Video events
0,0,"Gleam.Garden.no.Shoujo.full.1558715.jpg",0,0
//Break Periods
//Storyboard Layer 0 (Background)
//Storyboard Layer 1 (Fail)
//Storyboard Layer 2 (Pass)
//Storyboard Layer 3 (Foreground)
//Storyboard Layer 4 (Overlay)
//Storyboard Sound Samples

[TimingPoints]
2713,333.333333333333,4,1,0,82,1,0
12712,-100,4,1,0,82,0,0
12796,-103.225806451613,4,1,0,82,0,0
12879,-106.666666666667,4,1,0,82,0,0
12962,-110.344827586207,4,1,0,82,0,0
13046,-114.285714285714,4,1,0,82,0,0
13129,-118.518518518519,4,1,0,82,0,0
13212,-123.076923076923,4,1,0,82,0,0
13296,-128,4,1,0,82,0,0
13379,-133.333333333333,4,1,0,63,0,0
23379,-133.333333333333,4,1,0,63,0,0
23546,-130.718954248366,4,1,0,63,0,0
23712,-128.205128205128,4,1,0,63,0,0
23796,-123.456790123457,4,1,0,63,0,0
23879,-119.047619047619,4,1,0,63,0,0
23962,-114.942528735632,4,1,0,63,0,0
24046,-111.111111111111,4,1,0,63,0,0
34046,-111.111111111111,4,1,0,63,0,0
34129,-109.289617486339,4,1,0,63,0,0
34212,-107.52688172043,4,1,0,63,0,0
34296,-105.820105820106,4,1,0,63,0,0
34379,-104.166666666667,4,1,0,63,0,0
34462,-102.564102564103,4,1,0,63,0,0
34546,-101.010101010101,4,1,0,63,0,0
34629,-99.502487562189,4,1,0,63,0,0
34712,-98.0392156862745,4,1,0,63,0,0
35046,-111.111111111111,4,1,0,63,0,0
45546,-133.333333333333,4,1,0,63,0,0
53379,-133.333333333333,4,1,0,63,0,0
53712,-125,4,1,0,63,0,0
54046,-117.647058823529,4,1,0,63,0,0
54212,-113.636363636364,4,1,0,63,0,0
54379,-109.89010989011,4,1,0,63,0,0
54546,-106.382978723404,4,1,0,63,0,0
54629,-105.263157894737,4,1,0,63,0,0
54712,-104.166666666667,4,1,0,63,0,0
56046,-100,4,1,0,84,0,1
66712,-100,4,1,0,84,0,0
66879,-100,4,1,0,74,0,0
76546,-100,4,1,0,74,0,0
76629,-99.009900990099,4,1,0,74,0,0
76712,-98.0392156862745,4,1,0,74,0,0
76796,-97.0873786407767,4,1,0,74,0,0
76879,-96.1538461538461,4,1,0,74,0,0
76962,-95.2380952380952,4,1,0,74,0,0
77046,-94.3396226415094,4,1,0,74,0,0
77129,-93.4579439252336,4,1,0,74,0,0
77212,-92.5925925925926,4,1,0,74,0,0
77296,-91.743119266055,4,1,0,74,0,0
77379,-90.9090909090909,4,1,0,74,0,0
86712,-90.9090909090909,4,1,0,79,0,0
86879,-90.4977375565611,4,1,0,79,0,0
87046,-90.0900900900901,4,1,0,79,0,0
87212,-89.2857142857143,4,1,0,79,0,0
87462,-88.4955752212389,4,1,0,84,0,0
87546,-87.719298245614,4,1,0,84,0,0
87629,-86.9565217391304,4,1,0,84,0,0
87712,-86.2068965517241,4,1,0,89,0,0
87796,-85.4700854700855,4,1,0,89,0,0
87879,-84.7457627118644,4,1,0,89,0,0
87962,-84.0336134453781,4,1,0,89,0,0
88046,-83.3333333333333,4,1,0,94,0,1
98712,-83.3333333333333,4,1,0,99,0,0
98879,-83.3333333333333,4,1,0,40,0,0

[HitObjects]
156,185,2712,5,0,0:0:0:0:
135,186,2796,1,0,0:0:0:0:
137,185,2879,1,0,0:0:0:0:
137,185,3046,1,0,0:0:0:0:
137,185,3212,1,0,0:0:0:0:
137,185,3379,1,8,0:0:0:0:
137,185,3712,1,0,0:0:0:0:
137,185,3796,1,0,0:0:0:0:
137,185,3879,1,0,0:0:0:0:
137,185,4046,1,0,0:0:0:0:
137,185,4129,1,0,0:0:0:0:
137,185,4212,1,0,0:0:0:0:
137,185,4379,1,0,0:0:0:0:
137,185,4546,1,0,0:0:0:0:
137,185,4712,1,8,0:0:0:0:
137,185,4879,1,0,0:0:0:0:
137,185,4962,1,0,0:0:0:0:
137,185,5046,1,8,0:0:0:0:
137,185,5212,1,0,0:0:0:0:
137,185,5379,1,12,0:0:0:0:
137,185,5546,1,0,0:0:0:0:
137,185,5712,1,0,0:0:0:0:
137,185,5879,1,0,0:0:0:0:
137,185,6046,1,8,0:0:0:0:
137,185,6546,1,0,0:0:0:0:
137,185,6629,1,0,0:0:0:0:
137,185,6712,1,0,0:0:0:0:
137,185,6879,1,0,0:0:0:0:
137,185,7046,1,0,0:0:0:0:
137,185,7212,1,0,0:0:0:0:
137,185,7296,1,0,0:0:0:0:
137,185,7379,1,8,0:0:0:0:
137,185,7546,1,0,0:0:0:0:
137,185,7712,1,8,0:0:0:0:
137,185,7879,1,0,0:0:0:0:
137,185,8046,1,12,0:0:0:0:
137,185,8212,1,0,0:0:0:0:
137,185,8379,1,0,0:0:0:0:
137,185,8546,1,0,0:0:0:0:
137,185,8712,1,8,0:0:0:0:
137,185,8796,1,0,0:0:0:0:
137,185,8879,1,8,0:0:0:0:
137,185,9046,1,0,0:0:0:0:
137,185,9212,1,0,0:0:0:0:
137,185,9379,1,12,0:0:0:0:
137,185,9546,1,0,0:0:0:0:
137,185,9712,1,8,0:0:0:0:
137,185,9879,1,0,0:0:0:0:
137,185,10046,1,8,0:0:0:0:
137,185,10212,1,0,0:0:0:0:
137,185,10296,1,0,0:0:0:0:
137,185,10379,1,8,0:0:0:0:
137,185,10462,1,8,0:0:0:0:
137,185,10546,1,8,0:0:0:0:
137,185,10629,1,8,0:0:0:0:
137,185,10712,1,4,0:0:0:0:
137,185,10962,1,4,0:0:0:0:
137,185,11212,1,4,0:0:0:0:
137,185,11379,1,4,0:0:0:0:
137,185,11879,1,0,0:0:0:0:
137,185,11962,1,0,0:0:0:0:
137,185,12046,1,0,0:0:0:0:
137,185,12296,1,0,0:0:0:0:
137,185,12546,1,0,0:0:0:0:
180,139,12712,1,8,0:0:0:0:
180,139,12796,1,8,0:0:0:0:
180,139,12879,1,8,0:0:0:0:
180,139,12963,1,8,0:0:0:0:
180,139,13046,1,8,0:0:0:0:
180,139,13130,1,8,0:0:0:0:
180,139,13212,1,8,0:0:0:0:
180,139,13296,1,8,0:0:0:0:
204,158,13379,1,4,0:0:0:0:
358,88,13546,1,0,0:0:0:0:
359,85,13879,1,0,0:0:0:0:
359,85,14046,1,8,0:0:0:0:
211,79,14379,1,8,0:0:0:0:
358,83,14546,1,0,0:0:0:0:
358,83,14629,1,0,0:0:0:0:
358,83,14712,1,0,0:0:0:0:
358,83,14879,1,0,0:0:0:0:
358,83,15212,1,0,0:0:0:0:
358,83,15379,1,8,0:0:0:0:
358,83,15546,1,0,0:0:0:0:
366,83,15629,1,0,0:0:0:0:
358,83,15712,1,8,0:0:0:0:
358,83,15879,1,8,0:0:0:0:
358,83,16046,1,4,0:0:0:0:
358,83,16212,1,0,0:0:0:0:
211,81,16546,1,0,0:0:0:0:
211,81,16712,1,8,0:0:0:0:
211,80,17046,1,0,0:0:0:0:
211,80,17129,1,0,0:0:0:0:
211,80,17212,1,0,0:0:0:0:
211,80,17379,1,8,0:0:0:0:
211,80,17546,1,0,0:0:0:0:
211,80,17879,1,0,0:0:0:0:
211,80,18046,1,8,0:0:0:0:
211,80,18212,1,8,0:0:0:0:
211,80,18379,1,0,0:0:0:0:
222,138,18712,1,4,0:0:0:0:
222,138,18879,1,0,0:0:0:0:
220,207,19212,1,0,0:0:0:0:
220,207,19379,1,8,0:0:0:0:
220,207,19712,1,8,0:0:0:0:
220,207,19879,1,0,0:0:0:0:
220,207,19962,1,0,0:0:0:0:
220,207,20046,1,0,0:0:0:0:
220,207,20212,1,0,0:0:0:0:
296,196,20546,1,0,0:0:0:0:
296,196,20712,1,8,0:0:0:0:
296,196,20879,1,0,0:0:0:0:
296,196,20962,1,0,0:0:0:0:
296,196,21046,1,8,0:0:0:0:
296,196,21212,1,8,0:0:0:0:
296,196,21379,1,4,0:0:0:0:
296,196,21546,1,0,0:0:0:0:
292,189,21879,1,0,0:0:0:0:
292,189,22046,1,8,0:0:0:0:
292,189,22379,1,0,0:0:0:0:
292,189,22546,1,8,0:0:0:0:
292,189,22712,1,0,0:0:0:0:
292,189,22879,1,0,0:0:0:0:
292,189,22962,1,8,0:0:0:0:
292,189,23046,1,0,0:0:0:0:
292,189,23212,1,0,0:0:0:0:
292,189,23379,1,8,0:0:0:0:
292,189,23546,1,0,0:0:0:0:
292,189,23712,1,8,0:0:0:0:
292,189,23796,1,8,0:0:0:0:
292,189,23879,1,8,0:0:0:0:
292,189,23962,1,8,0:0:0:0:
284,186,24046,1,0,0:0:0:0:
290,234,24212,1,8,0:0:0:0:
290,234,24379,1,0,0:0:0:0:
209,163,24712,1,8,0:0:0:0:
209,163,24879,1,0,0:0:0:0:
209,163,25046,1,0,0:0:0:0:
199,186,25379,1,8,0:0:0:0:
199,186,25546,1,0,0:0:0:0:
199,186,25712,1,0,0:0:0:0:
195,187,26046,1,8,0:0:0:0:
195,187,26212,1,0,0:0:0:0:
199,186,26296,1,0,0:0:0:0:
199,186,26379,1,0,0:0:0:0:
199,186,26546,1,0,0:0:0:0:
199,186,26712,1,8,0:0:0:0:
199,186,26879,1,0,0:0:0:0:
199,186,27046,1,0,0:0:0:0:
161,119,27379,1,8,0:0:0:0:
161,119,27546,1,0,0:0:0:0:
161,119,27712,1,0,0:0:0:0:
193,79,27879,1,0,0:0:0:0:
193,79,27962,1,0,0:0:0:0:
193,79,28046,1,8,0:0:0:0:
193,79,28212,1,0,0:0:0:0:
193,79,28379,1,8,0:0:0:0:
184,79,28712,1,8,0:0:0:0:
184,79,28796,1,0,0:0:0:0:
184,79,28879,1,0,0:0:0:0:
184,79,29046,1,8,0:0:0:0:
184,79,29129,1,8,0:0:0:0:
184,79,29212,1,0,0:0:0:0:
210,122,29379,1,12,0:0:0:0:
210,122,29546,1,0,0:0:0:0:
253,228,29712,1,0,0:0:0:0:
236,212,30046,1,8,0:0:0:0:
236,212,30212,1,0,0:0:0:0:
228,214,30379,1,0,0:0:0:0:
226,214,30712,1,12,0:0:0:0:
168,145,30879,1,0,0:0:0:0:
168,145,30962,1,0,0:0:0:0:
168,145,31046,1,0,0:0:0:0:
162,147,31379,1,8,0:0:0:0:
162,147,31546,1,0,0:0:0:0:
162,147,31712,1,8,0:0:0:0:
162,147,31879,1,0,0:0:0:0:
162,147,32046,1,12,0:0:0:0:
162,147,32212,1,0,0:0:0:0:
162,147,32379,1,0,0:0:0:0:
188,95,32546,1,0,0:0:0:0:
181,110,32712,1,8,0:0:0:0:
181,110,32879,1,0,0:0:0:0:
181,110,32962,1,0,0:0:0:0:
181,110,33046,1,0,0:0:0:0:
181,110,33212,1,0,0:0:0:0:
181,110,33379,1,8,0:0:0:0:
176,115,33546,1,0,0:0:0:0:
176,115,33629,1,0,0:0:0:0:
176,115,33712,1,8,0:0:0:0:
176,115,33879,1,0,0:0:0:0:
176,115,34046,1,8,0:0:0:0:
176,115,34129,1,8,0:0:0:0:
165,112,34212,1,8,0:0:0:0:
164,112,34296,1,8,0:0:0:0:
167,104,34379,1,0,0:0:0:0:
167,104,34462,1,0,0:0:0:0:
167,104,34546,1,0,0:0:0:0:
167,104,34629,1,0,0:0:0:0:
157,112,34712,1,12,0:0:0:0:
295,202,35046,1,8,0:0:0:0:
293,186,35212,1,0,0:0:0:0:
288,200,35379,1,0,0:0:0:0:
288,200,35546,1,0,0:0:0:0:
281,204,35712,1,8,0:0:0:0:
281,204,35796,1,8,0:0:0:0:
281,204,35879,1,0,0:0:0:0:
281,204,36046,1,0,0:0:0:0:
281,204,36212,1,0,0:0:0:0:
277,212,36379,1,8,0:0:0:0:
276,213,36712,1,0,0:0:0:0:
276,213,36796,1,0,0:0:0:0:
276,213,36879,1,0,0:0:0:0:
276,213,37046,1,8,0:0:0:0:
276,213,37212,1,0,0:0:0:0:
276,213,37296,1,8,0:0:0:0:
269,220,37379,1,0,0:0:0:0:
269,220,37546,1,0,0:0:0:0:
269,220,37712,1,8,0:0:0:0:
269,220,37879,1,0,0:0:0:0:
269,220,38046,1,0,0:0:0:0:
269,220,38212,1,0,0:0:0:0:
269,220,38296,1,0,0:0:0:0:
269,220,38379,1,8,0:0:0:0:
267,226,38712,1,0,0:0:0:0:
267,226,38879,1,0,0:0:0:0:
267,226,39046,1,8,0:0:0:0:
267,226,39212,1,0,0:0:0:0:
267,226,39379,1,0,0:0:0:0:
267,226,39546,1,8,0:0:0:0:
267,226,39629,1,0,0:0:0:0:
267,226,39712,1,8,0:0:0:0:
267,226,39879,1,0,0:0:0:0:
267,226,40046,1,12,0:0:0:0:
262,198,40379,1,8,0:0:0:0:
262,198,40546,1,0,0:0:0:0:
262,198,40712,1,0,0:0:0:0:
262,198,40879,1,0,0:0:0:0:
262,198,40962,1,0,0:0:0:0:
262,198,41046,1,8,0:0:0:0:
278,155,41212,1,8,0:0:0:0:
263,199,41379,1,0,0:0:0:0:
263,199,41546,1,0,0:0:0:0:
263,199,41712,1,8,0:0:0:0:
264,209,42046,1,0,0:0:0:0:
264,209,42129,1,0,0:0:0:0:
264,209,42212,1,0,0:0:0:0:
264,209,42379,1,8,0:0:0:0:
264,209,42546,1,0,0:0:0:0:
264,209,42712,1,12,0:0:0:0:
263,209,43046,1,8,0:0:0:0:
252,204,43212,1,0,0:0:0:0:
252,204,43296,1,0,0:0:0:0:
252,204,43379,1,0,0:0:0:0:
252,204,43546,1,0,0:0:0:0:
252,204,43712,1,8,0:0:0:0:
252,204,44046,1,12,0:0:0:0:
252,204,44379,1,8,0:0:0:0:
252,204,44546,1,8,0:0:0:0:
252,204,44712,1,0,0:0:0:0:
252,204,44796,1,0,0:0:0:0:
252,204,44879,1,8,0:0:0:0:
252,204,45046,1,8,0:0:0:0:
172,81,45129,1,8,0:0:0:0:
252,204,45212,1,0,0:0:0:0:
252,204,45379,1,4,0:0:0:0:
206,156,47379,1,0,0:0:0:0:
205,158,47712,1,8,0:0:0:0:
205,158,48046,1,4,0:0:0:0:
205,158,49379,1,0,0:0:0:0:
205,158,50212,1,0,0:0:0:0:
205,158,50379,1,8,0:0:0:0:
205,158,50712,1,4,0:0:0:0:
205,158,51379,1,8,0:0:0:0:
205,158,51879,1,0,0:0:0:0:
205,158,52379,1,0,0:0:0:0:
205,158,52712,1,8,0:0:0:0:
205,158,53046,1,8,0:0:0:0:
205,158,53379,1,4,0:0:0:0:
205,158,53712,1,0,0:0:0:0:
205,158,54046,1,8,0:0:0:0:
205,158,54212,1,8,0:0:0:0:
205,158,54379,1,0,0:0:0:0:
205,158,54546,1,0,0:0:0:0:
205,158,54629,1,0,0:0:0:0:
205,158,54712,1,8,0:0:0:0:
204,160,56046,1,12,0:0:0:0:
300,133,56212,1,0,0:0:0:0:
296,142,56379,1,8,0:0:0:0:
296,142,56546,1,0,0:0:0:0:
296,142,56629,1,0,0:0:0:0:
296,142,56712,1,8,0:0:0:0:
231,56,56796,1,8,0:0:0:0:
296,142,56879,1,0,0:0:0:0:
296,142,57046,1,8,0:0:0:0:
296,142,57212,1,0,0:0:0:0:
296,142,57546,1,0,0:0:0:0:
256,94,57712,1,8,0:0:0:0:
226,97,57879,1,0,0:0:0:0:
226,97,57962,1,0,0:0:0:0:
226,97,58046,1,8,0:0:0:0:
226,97,58212,1,0,0:0:0:0:
226,97,58379,1,8,0:0:0:0:
226,97,58546,1,0,0:0:0:0:
226,97,58629,1,0,0:0:0:0:
226,97,58712,1,0,0:0:0:0:
226,97,58879,1,0,0:0:0:0:
226,97,59046,1,8,0:0:0:0:
226,97,59212,1,0,0:0:0:0:
226,97,59296,1,8,0:0:0:0:
226,97,59379,1,0,0:0:0:0:
226,97,59546,1,0,0:0:0:0:
226,97,59712,1,8,0:0:0:0:
226,97,59879,1,0,0:0:0:0:
183,71,60212,1,0,0:0:0:0:
183,71,60379,1,8,0:0:0:0:
183,71,60546,1,0,0:0:0:0:
183,71,60712,1,8,0:0:0:0:
185,43,60796,1,8,0:0:0:0:
183,71,60879,1,0,0:0:0:0:
183,71,60962,1,0,0:0:0:0:
215,94,61046,1,8,0:0:0:0:
184,70,61212,1,0,0:0:0:0:
215,94,61379,1,12,0:0:0:0:
209,105,61712,1,8,0:0:0:0:
209,105,61879,1,0,0:0:0:0:
209,105,62046,1,8,0:0:0:0:
209,105,62212,1,0,0:0:0:0:
209,105,62379,1,8,0:0:0:0:
209,105,62546,1,8,0:0:0:0:
209,105,62629,1,8,0:0:0:0:
209,105,62712,1,0,0:0:0:0:
159,126,62879,1,0,0:0:0:0:
159,126,62962,1,0,0:0:0:0:
209,105,63046,1,8,0:0:0:0:
209,105,63212,1,0,0:0:0:0:
209,105,63379,1,8,0:0:0:0:
209,105,63712,1,8,0:0:0:0:
209,105,63879,1,0,0:0:0:0:
201,58,63962,1,8,0:0:0:0:
209,105,64046,1,0,0:0:0:0:
209,105,64212,1,0,0:0:0:0:
209,105,64296,1,0,0:0:0:0:
209,105,64379,1,8,0:0:0:0:
209,105,64462,1,8,0:0:0:0:
209,105,64546,1,0,0:0:0:0:
185,16,64712,1,8,0:0:0:0:
235,66,64796,1,8,0:0:0:0:
225,78,64879,1,0,0:0:0:0:
258,153,65046,1,8,0:0:0:0:
231,145,65379,1,0,0:0:0:0:
231,145,65546,1,0,0:0:0:0:
231,145,65712,1,8,0:0:0:0:
231,145,65879,1,0,0:0:0:0:
196,158,65962,1,0,0:0:0:0:
231,145,66046,1,8,0:0:0:0:
231,145,66129,1,8,0:0:0:0:
231,145,66212,1,0,0:0:0:0:
225,141,66379,1,8,0:0:0:0:
225,141,66546,1,8,0:0:0:0:
225,141,66712,1,4,0:0:0:0:
223,266,66879,1,0,0:0:0:0:
213,182,67046,1,8,0:0:0:0:
219,269,67379,1,0,0:0:0:0:
219,269,67546,1,0,0:0:0:0:
198,268,67712,1,8,0:0:0:0:
198,268,67879,1,0,0:0:0:0:
197,201,68212,1,0,0:0:0:0:
189,204,68379,1,8,0:0:0:0:
189,204,68546,1,8,0:0:0:0:
189,204,68712,1,0,0:0:0:0:
189,204,68879,1,0,0:0:0:0:
189,204,68962,1,0,0:0:0:0:
189,204,69046,1,8,0:0:0:0:
178,206,69379,1,0,0:0:0:0:
178,206,69546,1,0,0:0:0:0:
178,206,69712,1,8,0:0:0:0:
178,206,70046,1,0,0:0:0:0:
178,206,70212,1,0,0:0:0:0:
175,218,70296,1,0,0:0:0:0:
178,206,70379,1,8,0:0:0:0:
178,206,70546,1,0,0:0:0:0:
175,218,70879,1,0,0:0:0:0:
175,218,71046,1,8,0:0:0:0:
175,218,71212,1,0,0:0:0:0:
175,217,71546,1,0,0:0:0:0:
175,217,71712,1,8,0:0:0:0:
175,217,71879,1,8,0:0:0:0:
175,217,72046,1,4,0:0:0:0:
161,202,72379,1,8,0:0:0:0:
171,203,72546,1,0,0:0:0:0:
171,203,72629,1,0,0:0:0:0:
171,203,72712,1,8,0:0:0:0:
161,202,72879,1,8,0:0:0:0:
161,202,73046,1,0,0:0:0:0:
161,202,73129,1,0,0:0:0:0:
161,202,73212,1,0,0:0:0:0:
159,201,73546,1,0,0:0:0:0:
159,201,73712,1,8,0:0:0:0:
159,201,73879,1,0,0:0:0:0:
159,201,73962,1,0,0:0:0:0:
159,201,74046,1,8,0:0:0:0:
159,201,74212,1,8,0:0:0:0:
159,201,74379,1,0,0:0:0:0:
158,201,74712,1,12,0:0:0:0:
149,220,75046,1,0,0:0:0:0:
149,220,75212,1,0,0:0:0:0:
149,220,75296,1,0,0:0:0:0:
149,220,75379,1,8,0:0:0:0:
149,220,75546,1,0,0:0:0:0:
149,220,75712,1,8,0:0:0:0:
149,220,75879,1,0,0:0:0:0:
149,220,76046,1,4,0:0:0:0:
218,136,76379,1,0,0:0:0:0:
205,133,76546,1,0,0:0:0:0:
205,133,76629,1,0,0:0:0:0:
198,135,76712,1,8,0:0:0:0:
196,137,76796,1,8,0:0:0:0:
198,135,76879,1,8,0:0:0:0:
196,137,76962,1,8,0:0:0:0:
198,135,77046,1,8,0:0:0:0:
196,137,77129,1,8,0:0:0:0:
198,135,77212,1,0,0:0:0:0:
185,137,77379,1,12,0:0:0:0:
185,137,77546,1,0,0:0:0:0:
183,112,77879,1,0,0:0:0:0:
173,115,78046,1,8,0:0:0:0:
169,127,78212,1,0,0:0:0:0:
164,94,78546,1,0,0:0:0:0:
164,94,78712,1,8,0:0:0:0:
157,105,79046,1,0,0:0:0:0:
157,105,79212,1,0,0:0:0:0:
157,105,79379,1,8,0:0:0:0:
156,109,79712,1,8,0:0:0:0:
156,109,79879,1,8,0:0:0:0:
156,109,80046,1,0,0:0:0:0:
156,109,80212,1,0,0:0:0:0:
184,53,80546,1,0,0:0:0:0:
184,53,80712,1,8,0:0:0:0:
168,74,80879,1,0,0:0:0:0:
167,102,81212,1,0,0:0:0:0:
167,102,81379,1,8,0:0:0:0:
169,113,81712,1,0,0:0:0:0:
169,113,81879,1,0,0:0:0:0:
169,113,82046,1,8,0:0:0:0:
169,113,82212,1,8,0:0:0:0:
169,113,82379,1,0,0:0:0:0:
159,118,82712,1,12,0:0:0:0:
159,118,82879,1,0,0:0:0:0:
154,124,83212,1,0,0:0:0:0:
154,124,83379,1,8,0:0:0:0:
154,124,83546,1,0,0:0:0:0:
155,122,83879,1,0,0:0:0:0:
155,122,84046,1,12,0:0:0:0:
145,161,84379,1,0,0:0:0:0:
143,157,84712,1,8,0:0:0:0:
143,157,84879,1,8,0:0:0:0:
143,157,85046,1,0,0:0:0:0:
303,116,85212,1,8,0:0:0:0:
141,149,85379,1,4,0:0:0:0:
141,149,85546,1,0,0:0:0:0:
141,154,85879,1,0,0:0:0:0:
141,154,85962,1,0,0:0:0:0:
141,154,86046,1,8,0:0:0:0:
141,154,86212,1,0,0:0:0:0:
142,154,86546,1,0,0:0:0:0:
142,154,86712,1,12,0:0:0:0:
142,154,86879,1,8,0:0:0:0:
142,154,87046,1,0,0:0:0:0:
142,154,87212,1,0,0:0:0:0:
142,154,87379,1,8,0:0:0:0:
142,154,87462,1,8,0:0:0:0:
142,154,87546,1,8,0:0:0:0:
142,154,87629,1,8,0:0:0:0:
142,154,87712,1,0,0:0:0:0:
142,154,87796,1,0,0:0:0:0:
142,154,87879,1,0,0:0:0:0:
142,154,87962,1,0,0:0:0:0:
143,145,88046,1,12,0:0:0:0:
259,187,88379,1,8,0:0:0:0:
259,187,88546,1,0,0:0:0:0:
259,187,88629,1,0,0:0:0:0:
259,187,88712,1,8,0:0:0:0:
259,187,88879,1,0,0:0:0:0:
259,187,89046,1,8,0:0:0:0:
194,89,89129,1,8,0:0:0:0:
259,187,89212,1,0,0:0:0:0:
173,38,89296,1,0,0:0:0:0:
259,187,89379,1,8,0:0:0:0:
259,187,89546,1,0,0:0:0:0:
259,187,89712,1,8,0:0:0:0:
259,187,89879,1,0,0:0:0:0:
259,187,89962,1,0,0:0:0:0:
259,187,90046,1,8,0:0:0:0:
259,187,90129,1,8,0:0:0:0:
259,187,90212,1,0,0:0:0:0:
259,187,90379,1,8,0:0:0:0:
259,187,90546,1,0,0:0:0:0:
259,187,90629,1,8,0:0:0:0:
259,168,90712,1,0,0:0:0:0:
253,160,91046,1,8,0:0:0:0:
253,160,91129,1,8,0:0:0:0:
253,160,91212,1,0,0:0:0:0:
253,160,91296,1,0,0:0:0:0:
253,160,91379,1,8,0:0:0:0:
119,206,91546,1,0,0:0:0:0:
250,153,91712,1,8,0:0:0:0:
124,107,91796,1,8,0:0:0:0:
250,153,91879,1,0,0:0:0:0:
250,153,92046,1,8,0:0:0:0:
250,153,92212,1,0,0:0:0:0:
247,145,92296,1,0,0:0:0:0:
248,144,92379,1,8,0:0:0:0:
248,144,92546,1,0,0:0:0:0:
248,144,92712,1,8,0:0:0:0:
247,145,92796,1,8,0:0:0:0:
248,144,92879,1,0,0:0:0:0:
248,144,93046,1,8,0:0:0:0:
168,65,93129,1,0,0:0:0:0:
236,155,93212,1,0,0:0:0:0:
180,83,93296,1,0,0:0:0:0:
236,155,93379,1,12,0:0:0:0:
231,169,93712,1,8,0:0:0:0:
226,164,93796,1,8,0:0:0:0:
226,164,93879,1,0,0:0:0:0:
226,164,93962,1,0,0:0:0:0:
226,164,94046,1,8,0:0:0:0:
226,164,94212,1,0,0:0:0:0:
226,164,94379,1,8,0:0:0:0:
226,164,94546,1,0,0:0:0:0:
226,164,94629,1,0,0:0:0:0:
226,164,94712,1,8,0:0:0:0:
226,164,94879,1,0,0:0:0:0:
226,164,95046,1,8,0:0:0:0:
223,155,95212,1,0,0:0:0:0:
223,155,95296,1,0,0:0:0:0:
223,155,95379,1,8,0:0:0:0:
145,123,95462,1,0,0:0:0:0:
223,155,95546,1,8,0:0:0:0:
223,155,95712,1,8,0:0:0:0:
226,91,95796,1,0,0:0:0:0:
248,145,95879,1,0,0:0:0:0:
226,91,95962,1,0,0:0:0:0:
221,157,96046,1,12,0:0:0:0:
221,157,96379,1,12,0:0:0:0:
144,98,96546,1,0,0:0:0:0:
242,156,96629,1,0,0:0:0:0:
221,157,96712,1,12,0:0:0:0:
139,99,96879,1,0,0:0:0:0:
221,157,97046,1,12,0:0:0:0:
216,133,97212,1,8,0:0:0:0:
221,157,97379,1,4,0:0:0:0:
221,147,97546,1,4,0:0:0:0:
221,147,97712,1,4,0:0:0:0:
221,147,97879,1,4,0:0:0:0:
221,147,98046,1,8,0:0:0:0:
221,147,98129,1,8,0:0:0:0:
221,147,98212,1,8,0:0:0:0:
221,147,98296,1,8,0:0:0:0:
221,147,98379,1,8,0:0:0:0:
221,147,98462,1,8,0:0:0:0:
208,154,98712,1,4,0:0:0:0:
256,192,98879,12,0,109379,0:0:0:0:
