osu file format v14

[General]
AudioFilename: audio.mp3
AudioLeadIn: 0
PreviewTime: 45296
Countdown: 0
SampleSet: Normal
StackLeniency: 0.4
Mode: 1
LetterboxInBreaks: 0
WidescreenStoryboard: 1

[Editor]
Bookmarks: 24046,45379,56046,77379
DistanceSpacing: 1
BeatDivisor: 4
GridSize: 32
TimelineZoom: 2.2

[Metadata]
Title:COMA
TitleUnicode:COMA
Artist:ensou feat. GUMI
ArtistUnicode:ensou feat. GUMI
Creator:Nao Tomori
Version:Muzukashii
Source:Cytus
Tags:spoes radar rayark games rhythm game rock tagalog filipino vocarock メグッポイド グミ megpoid gumi vocaloid dasu
BeatmapID:2384381
BeatmapSetID:683542

[Difficulty]
HPDrainRate:6
CircleSize:2
OverallDifficulty:5
ApproachRate:7
SliderMultiplier:1.4
SliderTickRate:1

[Events]
//Background and Video events
0,0,"Gleam.Garden.no.Shoujo.full.1558715.jpg",0,0
//Break Periods
//Storyboard Layer 0 (Background)
//Storyboard Layer 1 (Fail)
//Storyboard Layer 2 (Pass)
//Storyboard Layer 3 (Foreground)
//Storyboard Layer 4 (Overlay)
//Storyboard Sound Samples

[TimingPoints]
2713,333.333333333333,4,1,0,82,1,0
12712,-100,4,1,0,82,0,0
12796,-103.225806451613,4,1,0,82,0,0
12879,-106.666666666667,4,1,0,82,0,0
12962,-110.344827586207,4,1,0,82,0,0
13046,-114.285714285714,4,1,0,82,0,0
13129,-118.518518518519,4,1,0,82,0,0
13212,-123.076923076923,4,1,0,82,0,0
13296,-128,4,1,0,82,0,0
13379,-133.333333333333,4,1,0,63,0,0
23379,-133.333333333333,4,1,0,63,0,0
23546,-130.718954248366,4,1,0,63,0,0
23712,-128.205128205128,4,1,0,63,0,0
23796,-123.456790123457,4,1,0,63,0,0
23879,-119.047619047619,4,1,0,63,0,0
23962,-114.942528735632,4,1,0,63,0,0
24046,-111.111111111111,4,1,0,63,0,0
34046,-111.111111111111,4,1,0,63,0,0
34129,-109.289617486339,4,1,0,63,0,0
34212,-107.52688172043,4,1,0,63,0,0
34296,-105.820105820106,4,1,0,63,0,0
34379,-104.166666666667,4,1,0,63,0,0
34462,-102.564102564103,4,1,0,63,0,0
34546,-101.010101010101,4,1,0,63,0,0
34629,-99.502487562189,4,1,0,63,0,0
34712,-98.0392156862745,4,1,0,63,0,0
35046,-111.111111111111,4,1,0,63,0,0
45546,-133.333333333333,4,1,0,63,0,0
53379,-133.333333333333,4,1,0,63,0,0
53712,-125,4,1,0,63,0,0
54046,-117.647058823529,4,1,0,63,0,0
54212,-113.636363636364,4,1,0,63,0,0
54379,-109.89010989011,4,1,0,63,0,0
54546,-106.382978723404,4,1,0,63,0,0
54629,-105.263157894737,4,1,0,63,0,0
54712,-104.166666666667,4,1,0,63,0,0
56046,-100,4,1,0,84,0,1
66712,-100,4,1,0,84,0,0
66879,-100,4,1,0,74,0,0
76546,-100,4,1,0,74,0,0
76629,-99.009900990099,4,1,0,74,0,0
76712,-98.0392156862745,4,1,0,74,0,0
76796,-97.0873786407767,4,1,0,74,0,0
76879,-96.1538461538461,4,1,0,74,0,0
76962,-95.2380952380952,4,1,0,74,0,0
77046,-94.3396226415094,4,1,0,74,0,0
77129,-93.4579439252336,4,1,0,74,0,0
77212,-92.5925925925926,4,1,0,74,0,0
77296,-91.743119266055,4,1,0,74,0,0
77379,-90.9090909090909,4,1,0,74,0,0
86712,-90.9090909090909,4,1,0,79,0,0
86879,-90.4977375565611,4,1,0,79,0,0
87046,-90.0900900900901,4,1,0,79,0,0
87212,-89.2857142857143,4,1,0,79,0,0
87379,-88.4955752212389,4,1,0,84,0,0
87546,-88.4955752212389,4,1,0,84,0,0
87629,-86.9565217391304,4,1,0,84,0,0
87712,-86.2068965517241,4,1,0,89,0,0
87796,-86.2068965517241,4,1,0,89,0,0
87879,-86.2068965517241,4,1,0,89,0,0
87962,-84.0336134453781,4,1,0,89,0,0
88046,-83.3333333333333,4,1,0,94,0,1
98712,-83.3333333333333,4,1,0,99,0,0

[HitObjects]
166,166,2712,5,0,0:0:0:0:
166,166,2796,1,0,0:0:0:0:
166,166,2879,1,0,0:0:0:0:
159,163,3046,1,0,0:0:0:0:
159,163,3212,1,0,0:0:0:0:
159,163,3379,1,8,0:0:0:0:
166,166,3712,1,0,0:0:0:0:
166,166,3796,1,0,0:0:0:0:
166,166,3879,1,0,0:0:0:0:
166,166,4046,1,0,0:0:0:0:
166,166,4130,1,0,0:0:0:0:
166,166,4213,1,0,0:0:0:0:
214,108,4379,1,0,0:0:0:0:
195,165,4712,1,8,0:0:0:0:
166,166,4879,1,0,0:0:0:0:
166,166,4963,1,0,0:0:0:0:
166,166,5046,1,0,0:0:0:0:
184,65,5212,1,0,0:0:0:0:
167,91,5379,1,12,0:0:0:0:
195,97,5712,1,0,0:0:0:0:
195,97,5879,1,0,0:0:0:0:
195,97,6046,1,8,0:0:0:0:
171,106,6546,1,0,0:0:0:0:
171,106,6629,1,0,0:0:0:0:
171,106,6712,1,0,0:0:0:0:
171,106,6879,1,0,0:0:0:0:
171,106,7046,1,0,0:0:0:0:
176,105,7379,1,8,0:0:0:0:
176,105,7546,1,0,0:0:0:0:
176,105,7712,1,8,0:0:0:0:
176,105,7879,1,8,0:0:0:0:
176,105,8046,1,4,0:0:0:0:
176,105,8379,1,0,0:0:0:0:
176,105,8546,1,0,0:0:0:0:
176,105,8712,1,8,0:0:0:0:
176,105,8879,1,8,0:0:0:0:
176,105,9046,1,0,0:0:0:0:
176,105,9212,1,0,0:0:0:0:
176,105,9379,1,12,0:0:0:0:
177,102,9712,1,8,0:0:0:0:
177,102,9879,1,0,0:0:0:0:
177,102,10046,1,8,0:0:0:0:
177,102,10212,1,0,0:0:0:0:
177,102,10296,1,0,0:0:0:0:
177,102,10379,1,0,0:0:0:0:
177,102,10712,1,4,0:0:0:0:
177,102,10962,1,4,0:0:0:0:
177,102,11212,1,4,0:0:0:0:
177,102,11379,1,12,0:0:0:0:
227,121,12046,1,0,0:0:0:0:
222,113,12296,1,0,0:0:0:0:
204,111,12546,1,0,0:0:0:0:
256,192,12712,12,0,13212,0:0:0:0:
202,166,13379,5,4,0:0:0:0:
202,166,13546,1,0,0:0:0:0:
161,152,13879,1,0,0:0:0:0:
161,152,14046,1,8,0:0:0:0:
153,155,14546,1,0,0:0:0:0:
153,155,14629,1,0,0:0:0:0:
153,155,14712,1,0,0:0:0:0:
153,155,14879,1,0,0:0:0:0:
153,155,15212,1,0,0:0:0:0:
153,155,15379,1,8,0:0:0:0:
153,155,15546,1,0,0:0:0:0:
153,155,15712,1,8,0:0:0:0:
153,155,15879,1,8,0:0:0:0:
146,158,16046,1,4,0:0:0:0:
146,158,16212,1,0,0:0:0:0:
142,163,16546,1,0,0:0:0:0:
142,163,16712,1,8,0:0:0:0:
142,163,17046,1,0,0:0:0:0:
142,163,17129,1,0,0:0:0:0:
142,163,17212,1,0,0:0:0:0:
142,163,17546,1,0,0:0:0:0:
142,163,17879,1,0,0:0:0:0:
142,163,18046,1,8,0:0:0:0:
142,163,18379,1,0,0:0:0:0:
137,171,18712,1,4,0:0:0:0:
137,171,18879,1,0,0:0:0:0:
137,171,19212,1,0,0:0:0:0:
124,174,19379,1,8,0:0:0:0:
123,174,19879,1,0,0:0:0:0:
123,174,19962,1,0,0:0:0:0:
123,174,20046,1,0,0:0:0:0:
113,185,20212,1,0,0:0:0:0:
113,185,20546,1,0,0:0:0:0:
113,185,20712,1,8,0:0:0:0:
113,185,20879,1,0,0:0:0:0:
113,185,21046,1,8,0:0:0:0:
113,185,21212,1,8,0:0:0:0:
113,185,21379,1,4,0:0:0:0:
146,198,21546,1,0,0:0:0:0:
145,204,21879,1,0,0:0:0:0:
134,183,22046,1,8,0:0:0:0:
132,196,22379,1,8,0:0:0:0:
132,196,22546,1,8,0:0:0:0:
132,196,22712,1,0,0:0:0:0:
132,196,22879,1,0,0:0:0:0:
132,196,23046,1,8,0:0:0:0:
132,196,23212,1,0,0:0:0:0:
132,196,23379,1,8,0:0:0:0:
128,199,23712,1,8,0:0:0:0:
128,199,23796,1,8,0:0:0:0:
128,199,23879,1,8,0:0:0:0:
128,199,23962,1,8,0:0:0:0:
128,199,24046,1,8,0:0:0:0:
161,188,24712,1,8,0:0:0:0:
161,188,25046,1,0,0:0:0:0:
159,186,25212,1,8,0:0:0:0:
159,186,25546,1,8,0:0:0:0:
159,186,25712,1,0,0:0:0:0:
159,185,26046,1,8,0:0:0:0:
159,185,26212,1,0,0:0:0:0:
159,185,26379,1,8,0:0:0:0:
198,101,26546,1,8,0:0:0:0:
198,101,26712,1,0,0:0:0:0:
209,109,27046,1,0,0:0:0:0:
198,101,27212,1,0,0:0:0:0:
198,101,27379,1,8,0:0:0:0:
191,80,27712,1,8,0:0:0:0:
191,80,27879,1,0,0:0:0:0:
166,146,28212,1,0,0:0:0:0:
166,147,28546,1,0,0:0:0:0:
166,147,28712,1,8,0:0:0:0:
166,147,28796,1,8,0:0:0:0:
159,139,28879,1,8,0:0:0:0:
165,133,29046,1,8,0:0:0:0:
177,18,29129,1,8,0:0:0:0:
180,33,29212,1,8,0:0:0:0:
183,159,29379,1,4,0:0:0:0:
201,149,30046,1,8,0:0:0:0:
200,149,30379,1,8,0:0:0:0:
189,157,30712,1,4,0:0:0:0:
189,157,30879,1,0,0:0:0:0:
189,157,31212,1,0,0:0:0:0:
189,157,31379,1,8,0:0:0:0:
172,133,31546,1,0,0:0:0:0:
190,152,31712,1,8,0:0:0:0:
190,152,31879,1,8,0:0:0:0:
190,152,32046,1,4,0:0:0:0:
181,170,32712,1,8,0:0:0:0:
157,211,32879,1,0,0:0:0:0:
157,211,32962,1,0,0:0:0:0:
157,211,33046,1,0,0:0:0:0:
112,195,33212,1,0,0:0:0:0:
181,170,33379,1,8,0:0:0:0:
181,170,33546,1,0,0:0:0:0:
181,170,33879,1,0,0:0:0:0:
171,127,34045,1,8,0:0:0:0:
176,169,34129,1,8,0:0:0:0:
176,169,34212,1,8,0:0:0:0:
176,169,34379,1,0,0:0:0:0:
176,169,34462,1,0,0:0:0:0:
176,43,34546,1,0,0:0:0:0:
176,169,34712,1,12,0:0:0:0:
280,173,35046,1,8,0:0:0:0:
288,153,35212,1,8,0:0:0:0:
320,93,35379,1,0,0:0:0:0:
276,190,35712,1,8,0:0:0:0:
217,68,35796,1,8,0:0:0:0:
281,172,35879,1,8,0:0:0:0:
214,111,36046,1,0,0:0:0:0:
281,172,36212,1,8,0:0:0:0:
281,172,36379,1,0,0:0:0:0:
281,172,36712,1,0,0:0:0:0:
281,172,36796,1,0,0:0:0:0:
281,172,36879,1,0,0:0:0:0:
281,172,37046,1,8,0:0:0:0:
275,179,37546,1,0,0:0:0:0:
275,179,37712,1,8,0:0:0:0:
251,134,37879,1,8,0:0:0:0:
277,179,38046,1,0,0:0:0:0:
277,179,38379,1,8,0:0:0:0:
276,168,38546,1,0,0:0:0:0:
276,168,38879,1,0,0:0:0:0:
276,168,39046,1,8,0:0:0:0:
276,168,39212,1,0,0:0:0:0:
275,171,39546,1,8,0:0:0:0:
275,171,39629,1,8,0:0:0:0:
275,171,39712,1,8,0:0:0:0:
279,131,39879,1,8,0:0:0:0:
275,171,40046,1,4,0:0:0:0:
257,212,40379,1,8,0:0:0:0:
257,212,40546,1,0,0:0:0:0:
257,212,40712,1,8,0:0:0:0:
257,211,41046,1,8,0:0:0:0:
257,211,41212,1,8,0:0:0:0:
257,211,41379,1,0,0:0:0:0:
257,211,41546,1,0,0:0:0:0:
257,210,41879,1,0,0:0:0:0:
257,210,42046,1,8,0:0:0:0:
255,207,42379,1,8,0:0:0:0:
252,219,42546,1,0,0:0:0:0:
255,207,42712,1,4,0:0:0:0:
252,219,43212,1,8,0:0:0:0:
252,219,43379,1,0,0:0:0:0:
252,219,43712,1,8,0:0:0:0:
252,219,44046,1,4,0:0:0:0:
252,220,44379,1,8,0:0:0:0:
252,220,44546,1,8,0:0:0:0:
197,76,44712,1,0,0:0:0:0:
197,76,44879,1,8,0:0:0:0:
197,76,45046,1,8,0:0:0:0:
197,76,45212,1,0,0:0:0:0:
198,76,45379,1,12,0:0:0:0:
201,259,47379,1,0,0:0:0:0:
201,259,48046,1,12,0:0:0:0:
192,269,49379,1,0,0:0:0:0:
192,269,50212,1,0,0:0:0:0:
192,269,50379,1,8,0:0:0:0:
191,270,50712,1,4,0:0:0:0:
191,270,51379,1,8,0:0:0:0:
191,270,51879,1,0,0:0:0:0:
191,270,52379,1,0,0:0:0:0:
191,270,52712,1,8,0:0:0:0:
191,270,53046,1,8,0:0:0:0:
191,270,53379,1,4,0:0:0:0:
191,270,53712,1,0,0:0:0:0:
191,270,54046,1,8,0:0:0:0:
191,270,54379,1,8,0:0:0:0:
191,270,54546,1,0,0:0:0:0:
191,270,54712,1,8,0:0:0:0:
234,202,56046,1,12,0:0:0:0:
234,202,56379,1,8,0:0:0:0:
234,202,56546,1,0,0:0:0:0:
227,203,56712,1,8,0:0:0:0:
227,203,56879,1,0,0:0:0:0:
227,203,57046,1,8,0:0:0:0:
227,203,57212,1,8,0:0:0:0:
179,104,57546,1,0,0:0:0:0:
179,104,57712,1,8,0:0:0:0:
177,112,57879,1,0,0:0:0:0:
189,79,57962,1,0,0:0:0:0:
177,112,58046,1,0,0:0:0:0:
177,112,58212,1,0,0:0:0:0:
170,105,58379,1,8,0:0:0:0:
190,105,58712,1,0,0:0:0:0:
190,105,58879,1,0,0:0:0:0:
190,105,59046,1,8,0:0:0:0:
187,104,59379,1,0,0:0:0:0:
187,104,59546,1,0,0:0:0:0:
187,104,59712,1,8,0:0:0:0:
187,104,59879,1,8,0:0:0:0:
187,104,60046,1,0,0:0:0:0:
187,104,60379,1,8,0:0:0:0:
187,104,60546,1,0,0:0:0:0:
187,104,60712,1,0,0:0:0:0:
244,104,60879,1,8,0:0:0:0:
244,104,60962,1,8,0:0:0:0:
182,101,61046,1,8,0:0:0:0:
182,101,61212,1,0,0:0:0:0:
182,101,61379,1,12,0:0:0:0:
171,107,62046,1,8,0:0:0:0:
171,107,62212,1,0,0:0:0:0:
171,107,62379,1,8,0:0:0:0:
171,107,62546,1,8,0:0:0:0:
171,107,62712,1,0,0:0:0:0:
171,107,62879,1,0,0:0:0:0:
171,107,62962,1,0,0:0:0:0:
171,107,63046,1,0,0:0:0:0:
171,107,63212,1,0,0:0:0:0:
163,104,63379,1,8,0:0:0:0:
163,102,63712,1,8,0:0:0:0:
156,95,63879,1,0,0:0:0:0:
156,95,64046,1,0,0:0:0:0:
153,94,64379,1,8,0:0:0:0:
153,94,64546,1,0,0:0:0:0:
153,94,64629,1,0,0:0:0:0:
153,94,64712,1,0,0:0:0:0:
153,94,64879,1,0,0:0:0:0:
153,94,65046,1,8,0:0:0:0:
153,94,65212,1,8,0:0:0:0:
153,94,65379,1,0,0:0:0:0:
154,101,66046,1,8,0:0:0:0:
154,101,66129,1,8,0:0:0:0:
154,101,66212,1,8,0:0:0:0:
154,101,66379,1,8,0:0:0:0:
154,101,66546,1,8,0:0:0:0:
154,101,66712,1,4,0:0:0:0:
231,126,67046,1,8,0:0:0:0:
227,169,67379,1,0,0:0:0:0:
227,169,67546,1,0,0:0:0:0:
227,169,67712,1,8,0:0:0:0:
214,164,67879,1,0,0:0:0:0:
214,163,68212,1,0,0:0:0:0:
214,163,68379,1,8,0:0:0:0:
208,173,68712,1,0,0:0:0:0:
179,94,68879,1,0,0:0:0:0:
208,173,69046,1,8,0:0:0:0:
205,170,69379,1,0,0:0:0:0:
201,170,69712,1,8,0:0:0:0:
201,170,70046,1,0,0:0:0:0:
201,170,70212,1,0,0:0:0:0:
201,170,70379,1,8,0:0:0:0:
201,170,70546,1,0,0:0:0:0:
190,169,70879,1,0,0:0:0:0:
190,169,71046,1,8,0:0:0:0:
190,169,71379,1,0,0:0:0:0:
190,169,71712,1,8,0:0:0:0:
190,169,72046,1,12,0:0:0:0:
190,169,72546,1,0,0:0:0:0:
190,169,72629,1,0,0:0:0:0:
190,169,72712,1,0,0:0:0:0:
190,169,73046,1,0,0:0:0:0:
190,169,73129,1,0,0:0:0:0:
190,169,73212,1,0,0:0:0:0:
205,168,73546,1,0,0:0:0:0:
205,168,73879,1,0,0:0:0:0:
205,168,74046,1,8,0:0:0:0:
203,170,74379,1,0,0:0:0:0:
203,170,74712,1,12,0:0:0:0:
199,172,75212,1,0,0:0:0:0:
199,172,75296,1,0,0:0:0:0:
199,172,75379,1,0,0:0:0:0:
199,166,75712,1,8,0:0:0:0:
199,166,75879,1,0,0:0:0:0:
199,166,76046,1,4,0:0:0:0:
199,166,76379,1,0,0:0:0:0:
199,166,76546,1,0,0:0:0:0:
199,166,76712,1,8,0:0:0:0:
199,166,76796,1,8,0:0:0:0:
199,166,76879,1,8,0:0:0:0:
199,166,76962,1,8,0:0:0:0:
199,166,77046,1,8,0:0:0:0:
184,161,77379,1,4,0:0:0:0:
178,159,78046,1,8,0:0:0:0:
172,154,78379,1,0,0:0:0:0:
200,150,78546,1,0,0:0:0:0:
172,154,78712,1,8,0:0:0:0:
172,154,79046,1,0,0:0:0:0:
170,147,79212,1,0,0:0:0:0:
172,154,79379,1,8,0:0:0:0:
233,154,79546,1,8,0:0:0:0:
167,152,79712,1,0,0:0:0:0:
167,152,80046,1,8,0:0:0:0:
167,152,80212,1,0,0:0:0:0:
152,166,80546,1,0,0:0:0:0:
152,166,80712,1,8,0:0:0:0:
233,155,80879,1,0,0:0:0:0:
150,163,81046,1,8,0:0:0:0:
145,112,81212,1,8,0:0:0:0:
150,163,81379,1,0,0:0:0:0:
150,163,81712,1,0,0:0:0:0:
150,163,81879,1,0,0:0:0:0:
150,163,82046,1,8,0:0:0:0:
149,161,82379,1,0,0:0:0:0:
149,160,82712,1,12,0:0:0:0:
149,160,82879,1,0,0:0:0:0:
142,135,83379,1,8,0:0:0:0:
139,148,83546,1,0,0:0:0:0:
139,148,84046,1,12,0:0:0:0:
139,151,84379,1,0,0:0:0:0:
139,151,84546,1,0,0:0:0:0:
139,151,84712,1,8,0:0:0:0:
136,149,85046,1,0,0:0:0:0:
136,149,85379,1,12,0:0:0:0:
136,149,85546,1,0,0:0:0:0:
136,149,85879,1,8,0:0:0:0:
136,149,85962,1,8,0:0:0:0:
136,149,86046,1,8,0:0:0:0:
136,149,86212,1,0,0:0:0:0:
136,149,86546,1,0,0:0:0:0:
136,149,86712,1,12,0:0:0:0:
130,144,86879,1,8,0:0:0:0:
152,77,87379,1,8,0:0:0:0:
152,77,87462,1,8,0:0:0:0:
152,77,87546,1,8,0:0:0:0:
152,77,87712,1,0,0:0:0:0:
152,77,87796,1,0,0:0:0:0:
152,77,87879,1,0,0:0:0:0:
134,148,88046,1,12,0:0:0:0:
173,184,88379,1,0,0:0:0:0:
173,184,88546,1,0,0:0:0:0:
167,179,88712,1,8,0:0:0:0:
167,179,88879,1,8,0:0:0:0:
178,171,88962,1,8,0:0:0:0:
167,179,89046,1,8,0:0:0:0:
167,179,89212,1,0,0:0:0:0:
167,179,89379,1,12,0:0:0:0:
175,175,89712,1,8,0:0:0:0:
175,175,89879,1,0,0:0:0:0:
142,118,89962,1,0,0:0:0:0:
166,177,90046,1,0,0:0:0:0:
166,177,90212,1,0,0:0:0:0:
166,177,90379,1,8,0:0:0:0:
166,177,90546,1,0,0:0:0:0:
166,177,90712,1,12,0:0:0:0:
213,140,91379,1,8,0:0:0:0:
213,140,91546,1,0,0:0:0:0:
244,91,91629,1,0,0:0:0:0:
213,140,91712,1,0,0:0:0:0:
213,140,91879,1,0,0:0:0:0:
206,124,92046,1,12,0:0:0:0:
173,198,92379,1,8,0:0:0:0:
173,198,92546,1,8,0:0:0:0:
187,61,92629,1,8,0:0:0:0:
173,198,92712,1,8,0:0:0:0:
173,198,92879,1,0,0:0:0:0:
173,198,93046,1,8,0:0:0:0:
173,198,93212,1,0,0:0:0:0:
173,198,93379,1,12,0:0:0:0:
179,202,94046,1,8,0:0:0:0:
179,202,94212,1,8,0:0:0:0:
179,202,94379,1,0,0:0:0:0:
179,202,94546,1,8,0:0:0:0:
179,202,94712,1,4,0:0:0:0:
178,202,95046,1,8,0:0:0:0:
178,202,95212,1,0,0:0:0:0:
178,202,95379,1,8,0:0:0:0:
156,140,95462,1,8,0:0:0:0:
178,202,95546,1,8,0:0:0:0:
178,202,95712,1,0,0:0:0:0:
160,143,95796,1,0,0:0:0:0:
178,202,95879,1,0,0:0:0:0:
178,202,96046,1,12,0:0:0:0:
176,197,96379,1,8,0:0:0:0:
176,197,96546,1,0,0:0:0:0:
176,197,96629,1,0,0:0:0:0:
176,197,96712,1,0,0:0:0:0:
176,197,96879,1,0,0:0:0:0:
176,197,97046,1,8,0:0:0:0:
176,197,97212,1,8,0:0:0:0:
176,197,97379,1,4,0:0:0:0:
176,197,97712,1,4,0:0:0:0:
176,197,98046,1,8,0:0:0:0:
176,197,98129,1,8,0:0:0:0:
176,197,98212,1,8,0:0:0:0:
176,197,98296,1,8,0:0:0:0:
176,197,98379,1,8,0:0:0:0:
176,197,98712,1,4,0:0:0:0:
256,192,98879,12,0,109379,0:0:0:0:
