osu file format v14

[General]
AudioFilename: coma.mp3
AudioLeadIn: 0
PreviewTime: 76796
Countdown: 0
SampleSet: None
StackLeniency: 0.9
Mode: 0
LetterboxInBreaks: 0
WidescreenStoryboard: 0

[Editor]
Bookmarks: 22046,34796,98796,120129,154796,159463,260129,270963
DistanceSpacing: 0.8
BeatDivisor: 4
GridSize: 4
TimelineZoom: 2

[Metadata]
Title:COMA
TitleUnicode:COMA
Artist:ensou feat. GUMI
ArtistUnicode:ensou feat. GUMI
Creator:I am graduated
Version:Insane
Source:Cytus
Tags:vocaloid filipino megpoid
BeatmapID:1374133
BeatmapSetID:648664

[Difficulty]
HPDrainRate:6
CircleSize:4
OverallDifficulty:7
ApproachRate:9
SliderMultiplier:1.6
SliderTickRate:1

[Events]
//Background and Video events
0,0,"bg.jpg",0,0
//Break Periods
2,154996,158863
2,184329,193529
//Storyboard Layer 0 (Background)
//Storyboard Layer 1 (Fail)
//Storyboard Layer 2 (Pass)
//Storyboard Layer 3 (Foreground)
//Storyboard Sound Samples

[TimingPoints]
130,333.333333333333,4,2,1,80,1,0
2796,-100,4,3,1,80,0,1
3463,-200,4,3,1,80,0,1
4129,-100,4,3,1,80,0,1
6129,-200,4,3,1,80,0,1
6629,-100,4,3,1,80,0,1
8796,-200,4,3,1,80,0,1
9463,-100,4,3,1,80,0,1
11463,-200,4,3,1,80,0,1
11963,-100,4,3,1,80,0,1
16796,-200,4,3,1,80,0,1
17296,-100,4,3,1,80,0,1
22129,-200,4,3,1,80,0,1
22629,-100,4,3,1,80,0,1
23463,-200,4,2,1,20,0,0
24129,-200,4,2,1,50,0,0
39463,-100,4,2,1,80,0,0
45629,-100,4,2,1,50,0,0
56129,-100,4,1,1,80,0,0
66796,-100,4,3,1,80,0,0
67463,-200,4,3,1,80,0,0
67796,-100,4,3,1,80,0,0
70129,-200,4,3,1,80,0,0
70463,-100,4,3,1,80,0,0
77463,-100,4,2,2,80,0,1
93463,-100,4,2,1,80,0,1
98796,-100,4,2,1,80,0,0
109796,-100,4,1,1,80,0,0
120129,-200,4,2,1,40,0,0
130796,-100,4,2,2,80,0,1
146796,-100,4,2,1,80,0,1
152129,-100,4,2,1,20,0,0
159463,-100,4,2,1,80,0,0
162796,-100,4,3,1,80,0,0
183463,-200,4,2,1,80,0,0
194796,-200,4,2,2,40,0,0
205463,-100,4,2,1,80,0,0
210796,-100,4,2,1,40,0,0
213463,-100,4,2,1,80,0,0
221463,-100,4,2,2,80,0,1
232129,-100,4,2,1,80,0,0
234963,-200,4,2,1,80,0,0
235796,-100,4,2,1,80,0,0
236129,-200,4,2,1,80,0,0
237129,-100,4,2,1,80,0,0
237629,-200,4,2,1,80,0,0
238463,-100,4,2,1,80,0,0
239463,-200,4,2,1,80,0,0
240129,-100,4,2,1,80,0,0
240796,-200,4,2,1,80,0,0
241463,-100,4,2,1,80,0,0
242796,-100,4,2,1,80,0,1
253546,-100,4,2,1,5,0,0

[Colours]
Combo1 : 255,200,0
Combo2 : 0,200,0
Combo3 : 130,255,0
Combo4 : 255,130,65

[HitObjects]
256,192,629,12,0,2462,0:0:0:0:
384,312,2796,5,2,0:0:0:0:
384,312,2879,1,0,0:0:0:0:
384,312,2963,1,0,0:0:0:0:
296,344,3129,2,0,P|252:352|212:344,1,80,2|0,0:0|0:0,0:0:0:0:
64,260,3463,6,0,P|108:252|148:260,1,80,2|2,0:0|0:0,0:0:0:0:
143,258,3879,1,0,0:0:0:0:
143,258,3963,1,0,0:0:0:0:
168,96,4129,5,2,0:0:0:0:
171,76,4212,1,0,0:0:0:0:
174,56,4295,1,0,0:0:0:0:
208,188,4463,2,0,P|248:204|288:204,1,80,2|0,0:0|0:0,0:0:0:0:
352,108,4796,5,2,0:0:0:0:
355,88,4879,1,0,0:0:0:0:
359,68,4962,1,0,0:0:0:0:
456,168,5129,2,0,P|460:212|452:260,1,80,8|0,0:1|0:0,0:0:0:0:
360,356,5463,6,0,P|324:340|280:344,1,80,4|0,0:2|0:0,0:0:0:0:
192,200,5796,2,0,P|236:204|276:192,1,80,2|0,0:0|0:0,0:0:0:0:
92,344,6129,6,0,L|100:256,1,80,2|2,0:0|0:0,0:0:0:0:
40,148,6629,6,0,L|44:104,2,40,0|0|2,0:0|0:0|0:0,0:0:0:0:
160,200,6963,1,0,0:0:0:0:
224,100,7129,2,0,P|260:84|320:84,1,80,2|0,0:0|0:0,0:0:0:0:
116,40,7463,2,0,P|124:72|132:136,1,80,2|0,0:0|0:0,0:0:0:0:
265,258,7796,2,0,P|270:218|280:180,1,80,2|0,0:0|0:0,0:0:0:0:
424,100,8129,5,2,0:0:0:0:
424,100,8213,1,0,0:0:0:0:
424,100,8296,1,0,0:0:0:0:
424,260,8463,2,0,P|419:299|427:338,1,80
296,244,8796,6,0,P|304:200|296:156,1,80,2|2,0:0|0:0,0:0:0:0:
299,165,9213,1,0,0:0:0:0:
299,165,9296,1,0,0:0:0:0:
192,68,9463,5,2,0:0:0:0:
192,68,9546,1,0,0:0:0:0:
192,68,9629,1,0,0:0:0:0:
124,244,9796,2,0,P|168:248|216:240,1,80
418,168,10129,6,0,P|354:160|270:172,2,120,2|0|0,0:0|0:0|0:0,0:0:0:0:
252,96,10796,2,0,L|244:36,2,40,2|0|0,0:0|0:0|0:0,0:0:0:0:
418,168,11129,2,0,P|466:168|506:152,1,80
336,44,11463,6,0,P|348:84|340:132,1,80,2|0,0:0|0:0,0:0:0:0:
360,280,11963,6,0,L|368:328,2,40,0|0|2,0:0|0:0|0:0,0:0:0:0:
292,192,12296,1,0,0:0:0:0:
256,352,12463,2,0,L|240:260,1,80,2|0,0:0|0:0,0:0:0:0:
200,140,12796,1,0,1:0:0:0:
200,140,12879,1,0,1:0:0:0:
200,140,12963,1,0,1:0:0:0:
140,336,13129,2,0,L|125:248,1,80,8|0,0:1|0:0,0:0:0:0:
43,159,13463,6,0,P|34:197|44:236,1,80,2|0,0:0|0:0,0:0:0:0:
192,167,13796,2,0,P|200:129|191:90,1,80
104,56,14129,1,2,0:0:0:0:
190,89,14296,6,0,P|199:128|192:167,1,80,2|0,0:0|0:0,0:0:0:0:
45,238,14629,2,0,P|35:200|44:160,1,80,0|2,0:0|0:0,0:0:0:0:
144,280,14963,2,0,P|153:319|144:358,2,80
264,340,15463,2,0,L|343:333,1,80,2|0,0:0|0:0,0:0:0:0:
344,333,15713,1,0,0:0:0:0:
344,333,15796,1,2,0:3:0:0:
436,156,15963,5,0,0:0:0:0:
436,156,16046,1,0,0:0:0:0:
436,156,16129,2,0,P|428:196|436:244,1,80,2|0,0:0|0:0,0:0:0:0:
316,120,16463,2,0,P|324:80|316:32,1,80
196,140,16796,6,0,P|188:179|192:218,1,80,2|0,0:0|0:0,0:0:0:0:
96,60,17296,6,0,L|40:52,2,40,0|0|2,0:0|0:0|0:0,0:0:0:0:
268,84,17629,1,0,0:0:0:0:
96,160,17796,2,0,P|88:200|96:240,1,80
280,256,18129,1,2,0:0:0:0:
176,304,18296,2,0,P|144:336|128:368,2,80,2|2|2,0:0|0:0|0:0,0:0:0:0:
280,256,18796,6,0,P|288:304|280:348,1,80,2|0,0:0|0:0,0:0:0:0:
448,304,19129,2,0,P|445:265|453:226,1,80
364,192,19463,1,2,0:0:0:0:
453,225,19629,6,0,P|445:264|448:304,1,80
284,334,19962,2,0,P|287:295|280:256,1,80,0|2,0:0|0:0,0:0:0:0:
364,192,20296,2,0,P|332:172|312:132,1,80
340,36,20629,1,0,0:0:0:0:
188,96,20796,2,0,P|148:108|96:96,1,80,2|8,0:0|0:0,0:0:0:0:
80,84,21046,1,0,0:0:0:0:
62,94,21129,1,0,0:0:0:0:
48,108,21212,1,0,0:0:0:0:
39,125,21295,1,0,0:0:0:0:
35,145,21379,1,0,0:0:0:0:
40,164,21463,6,0,P|56:220|44:292,2,120,4|0|0,0:2|0:0|0:0,0:0:0:0:
196,351,22129,6,0,P|188:312|184:273,1,80,2|0,0:0|0:0,0:0:0:0:
328,176,22629,5,0,0:0:0:0:
328,176,22713,1,0,0:0:0:0:
328,176,22796,2,0,P|320:240|336:300,2,120,4|4|4,0:0|0:0|0:0,0:0:0:0:
300,60,23463,6,2,L|136:76,1,160,2|2,1:0|0:0,1:0:0:0:
68,52,24296,5,0,0:0:0:0:
32,268,24629,2,0,L|84:264,1,40,0|8,0:0|0:1,0:0:0:0:
175,205,24963,2,0,L|136:208,1,40
220,284,25296,2,0,L|244:282,2,20,2|0|4,0:0|0:0|0:3,0:0:0:0:
328,244,25629,1,0,0:0:0:0:
416,284,25963,1,2,0:0:0:0:
416,284,26129,2,0,L|424:236,1,40,8|0,0:1|0:0,0:0:0:0:
384,164,26463,2,0,L|392:116,1,40,8|0,0:1|0:0,0:0:0:0:
348,48,26796,5,4,0:0:0:0:
348,48,26963,1,0,0:0:0:0:
176,76,27296,2,0,L|168:124,1,40,0|8,0:0|0:1,0:0:0:0:
280,148,27629,2,0,L|272:200,1,40,0|4,0:0|0:3,0:0:0:0:
273,187,27879,1,0,0:0:0:0:
273,187,27963,1,0,0:0:0:0:
168,248,28296,5,2,0:0:0:0:
168,248,28463,2,0,L|156:296,1,40
272,312,28796,2,0,L|260:364,1,40,8|2,0:1|0:0,0:0:0:0:
263,350,29129,1,0,0:0:0:0:
484,284,29463,5,4,0:0:0:0:
484,284,29629,1,0,0:0:0:0:
472,176,29963,2,0,L|416:168,1,40,0|8,0:0|0:1,0:0:0:0:
380,236,30296,2,0,L|324:228,1,40
276,168,30629,2,0,L|244:164,2,20,2|0|0,0:0|0:0|0:0,0:0:0:0:
180,272,30963,1,0,0:0:0:0:
172,144,31296,1,2,0:0:0:0:
172,144,31463,2,0,L|176:200,1,40,8|0,0:1|0:0,0:0:0:0:
72,192,31796,2,0,L|76:248,1,40,8|0,0:1|0:0,0:0:0:0:
80,320,32129,5,4,0:0:0:0:
80,320,32296,1,0,0:0:0:0:
264,352,32629,2,0,L|260:308,1,40,0|8,0:0|0:1,0:0:0:0:
180,272,32963,2,0,L|176:228,1,40,0|4,0:0|0:3,0:0:0:0:
176,233,33213,1,0,0:0:0:0:
176,233,33296,1,2,0:0:0:0:
176,233,33629,5,8,0:1:0:0:
252,160,33796,2,0,L|248:116,1,40,2|0,0:0|0:0,0:0:0:0:
360,212,34129,2,0,L|356:168,1,40,8|2,0:1|0:0,0:0:0:0:
356,172,34463,1,0,0:0:0:0:
464,40,34796,6,0,P|452:76|460:132,1,80,2|0,0:0|0:0,0:0:0:0:
468,200,35296,2,0,L|464:252,1,40,0|8,0:0|0:1,0:0:0:0:
456,316,35629,1,0,0:0:0:0:
300,344,35963,6,0,P|312:308|304:252,1,80,2|0,0:0|0:0,0:0:0:0:
296,184,36629,2,0,L|300:132,1,40,2|8,0:0|0:1,0:0:0:0:
308,64,37129,1,8,0:1:0:0:
152,24,37463,6,0,P|164:60|156:116,1,80,2|0,0:0|0:0,0:0:0:0:
144,184,37963,2,0,L|148:236,1,40,0|8,0:0|0:1,0:0:0:0:
156,304,38296,1,0,0:0:0:0:
12,332,38629,6,0,P|0:296|8:240,1,80,2|0,0:0|0:0,0:0:0:0:
16,172,39129,2,0,L|12:120,1,40,2|0,0:0|0:0,0:0:0:0:
52,48,39463,1,8,0:1:0:0:
128,84,39629,1,8,0:1:0:0:
216,84,39796,1,8,0:1:0:0:
292,48,39963,1,8,0:1:0:0:
432,80,40129,6,0,P|444:112|440:160,1,80,4|0,0:0|0:0,0:0:0:0:
288,208,40463,2,0,P|324:224|372:216,1,80,8|0,0:1|0:0,0:0:0:0:
448,284,40796,2,0,P|412:348|316:348,1,160,0|8,1:0|0:1,0:0:0:0:
252,312,41296,2,0,L|204:320,2,40,0|0|4,0:0|0:0|0:3,0:0:0:0:
132,356,41629,1,0,0:0:0:0:
40,304,41796,6,0,P|32:264|40:220,1,80,8|0,0:1|0:0,0:0:0:0:
152,161,42129,2,0,P|160:200|156:240,1,80,0|4,1:0|0:3,0:0:0:0:
156,239,42379,1,4,0:3:0:0:
156,239,42463,1,4,0:3:0:0:
72,96,42629,1,4,0:3:0:0:
208,88,42796,6,0,P|252:96|300:84,1,80,4|0,0:0|0:0,0:0:0:0:
416,52,43129,2,0,P|390:82|378:120,1,80
400,224,43463,2,0,B|480:204|480:204|463:293,1,160,8|2,0:1|0:0,0:0:0:0:
376,320,43963,1,8,0:1:0:0:
302,256,44129,6,0,P|262:251|224:260,1,80
136,372,44463,1,2,0:0:0:0:
220,352,44629,1,0,0:0:0:0:
148,284,44796,2,0,P|144:244|160:196,1,80,8|0,0:1|0:0,0:0:0:0:
212,136,45129,5,0,3:0:0:0:
209,128,45212,1,0,3:0:0:0:
207,120,45295,1,0,3:0:0:0:
205,112,45379,1,0,3:0:0:0:
202,105,45462,1,0,3:0:0:0:
144,40,45629,6,0,L|224:36,2,80,0|2|0,0:0|0:0|0:0,0:0:0:0:
48,108,46129,2,0,P|36:196|56:276,1,160,2|0,0:0|0:0,0:0:0:0:
118,348,46629,2,0,P|183:300|274:305,1,160
380,348,47129,2,0,P|424:356|468:340,1,80,2|0,0:0|0:0,0:0:0:0:
476,208,47463,2,0,L|468:124,1,80,2|0,0:0|0:0,0:0:0:0:
293,59,47796,2,0,L|286:138,1,80,2|0,0:0|0:0,0:0:0:0:
373,230,48129,1,2,0:0:0:0:
198,99,48463,6,0,P|154:103|110:99,1,80,2|0,0:0|0:0,0:0:0:0:
42,53,48796,2,0,P|26:129|86:185,1,160,2|2,0:0|0:0,0:0:0:0:
188,213,49296,2,0,L|211:179,2,40,0|0|2,0:0|0:0|0:0,0:0:0:0:
147,324,49629,2,0,P|232:313|320:331,1,160
495,313,50129,2,0,P|498:274|487:236,1,80,2|0,0:0|0:0,0:0:0:0:
323,162,50463,2,0,P|319:201|330:239,1,80,2|0,0:0|0:0,0:0:0:0:
469,113,50796,1,2,0:0:0:0:
196,96,51129,6,0,P|156:76|108:80,1,80,2|0,0:0|0:0,0:0:0:0:
32,132,51463,2,0,P|24:88|32:40,1,80,2|0,0:0|0:0,0:0:0:0:
128,176,51796,2,0,P|104:208|56:220,1,80,2|0,0:0|0:0,0:0:0:0:
92,328,52129,2,0,L|96:384,2,40,2|0|0,0:0|0:0|0:0,0:0:0:0:
300,276,52463,2,0,P|312:236|308:192,1,80,2|0,0:0|0:0,0:0:0:0:
232,340,52796,2,0,P|268:364|320:360,1,80,2|0,0:0|0:0,0:0:0:0:
224,248,53129,2,0,P|188:260|160:292,1,80,2|0,0:0|0:0,0:0:0:0:
372,264,53463,5,2,0:0:0:0:
464,220,53629,1,0,0:0:0:0:
452,124,53796,2,0,P|413:135|384:161,1,80,4|0,0:0|0:0,0:0:0:0:
296,168,54129,1,2,0:0:0:0:
336,72,54296,1,0,0:0:0:0:
236,100,54463,2,0,P|208:132|200:180,1,80,4|0,0:0|0:0,0:0:0:0:
180,312,54796,6,0,L|188:356,2,40,2|0|0,0:0|0:0|0:0,0:0:0:0:
94,168,55129,1,2,0:0:0:0:
60,244,55296,2,0,B|140:272|140:208|224:236,1,160
332,308,55796,2,0,P|368:308|416:284,1,80,2|0,0:0|0:0,0:0:0:0:
464,88,56129,5,4,0:2:0:0:
464,88,56296,1,0,0:0:0:0:
348,144,56463,2,0,P|340:188|352:232,1,80,8|0,0:0|0:0,0:0:0:0:
480,336,56796,1,0,0:0:0:0:
424,192,56962,1,0,0:0:0:0:
332,308,57129,1,8,0:0:0:0:
332,308,57296,6,0,P|288:360|192:352,1,160
152,288,57796,2,0,P|148:248|152:200,1,80,8|0,0:0|0:0,0:0:0:0:
244,288,58129,1,0,0:0:0:0:
52,248,58296,1,0,0:0:0:0:
224,156,58463,1,8,0:1:0:0:
92,100,58629,1,0,0:0:0:0:
92,100,58713,1,0,0:0:0:0:
92,100,58796,1,0,0:0:0:0:
248,20,58963,6,0,P|267:54|273:93,2,80,0|8|0,0:0|0:0|0:0,0:0:0:0:
356,48,59463,2,0,P|392:64|440:64,1,80
468,156,59796,1,8,0:0:0:0:
312,252,59963,1,0,0:0:0:0:
384,148,60129,2,0,P|380:188|388:232,1,80
468,292,60463,1,8,0:0:0:0:
376,320,60629,2,0,P|300:348|220:312,1,160
128,288,61129,2,0,P|130:248|118:210,1,80,8|0,0:0|0:0,0:0:0:0:
20,192,61463,6,0,P|84:184|116:88,1,160,0|8,0:0|0:0,0:0:0:0:
192,48,61963,1,0,0:0:0:0:
192,48,62129,1,0,0:0:0:0:
260,280,62463,2,0,P|220:284|168:280,1,80,8|0,0:0|0:0,0:0:0:0:
256,128,62796,6,0,P|296:124|348:128,1,80
504,144,63129,1,8,0:0:0:0:
348,40,63296,1,0,0:0:0:0:
428,192,63463,1,0,0:0:0:0:
428,192,63546,1,0,0:0:0:0:
428,192,63629,1,0,0:0:0:0:
432,76,63796,1,8,0:0:0:0:
340,132,63963,1,8,0:0:0:0:
420,280,64129,6,0,P|460:288|504:280,1,80,4|0,0:2|0:0,0:0:0:0:
428,192,64463,1,8,0:0:0:0:
344,228,64629,1,8,0:0:0:0:
277,285,64796,6,0,P|299:318|336:344,1,80,4|0,0:2|0:0,0:0:0:0:
344,228,65130,1,8,0:0:0:0:
260,194,65296,1,8,0:0:0:0:
132,207,65463,6,0,P|86:321|192:260,1,320,4|8,0:2|0:3,0:0:0:0:
192,260,66296,1,4,0:3:0:0:
268,48,66796,6,0,L|283:168,2,120,4|0|0,0:0|0:0|0:0,0:0:0:0:
440,128,67463,6,0,P|400:133|348:128,1,80,2|0,0:0|0:0,0:0:0:0:
208,208,67963,6,0,L|212:248,2,40,4|0|0,0:3|0:0|0:0,0:0:0:0:
112,180,68296,2,0,L|116:141,2,40,4|0|0,0:3|0:0|0:0,0:0:0:0:
84,352,68629,1,0,0:0:0:0:
152,304,68796,2,0,P|204:364|296:356,1,160,2|8,0:3|0:3,0:0:0:0:
416,272,69296,1,0,0:0:0:0:
344,244,69463,6,0,P|368:208|412:196,1,80
480,220,69796,2,0,P|496:264|484:320,1,80
432,352,70129,6,0,P|385:347|340:311,1,80,8|0,0:1|0:0,0:0:0:0:
256,228,70629,6,0,L|256:292,2,40,4|0|0,0:3|0:0|0:0,0:0:0:0:
336,148,70963,2,0,L|336:208,2,40,4|0|0,0:3|0:0|0:0,0:0:0:0:
404,92,71296,1,0,0:0:0:0:
264,84,71463,5,8,0:1:0:0:
264,84,71546,1,0,0:0:0:0:
264,84,71629,1,0,0:0:0:0:
180,124,71796,1,8,0:1:0:0:
116,56,71963,1,8,0:1:0:0:
72,128,72129,6,0,B|82:158|84:192|84:192|68:219|48:240|48:240|28:300|64:348,1,240
160,340,72796,1,8,0:1:0:0:
440,316,73129,6,0,B|400:352|400:352|360:308|360:308|284:280|264:356,1,240
160,340,73796,2,0,L|152:260,1,80
236,240,74129,2,0,L|244:160,1,80,8|0,0:1|0:0,0:0:0:0:
208,80,74463,1,0,0:0:0:0:
432,36,74796,6,0,P|372:80|296:36,1,160,4|0,0:2|0:0,0:0:0:0:
208,80,75296,1,0,0:0:0:0:
116,36,75463,2,0,P|88:112|96:200,1,160,8|4,0:1|0:0,0:0:0:0:
92,189,75963,1,4,0:0:0:0:
192,336,76296,1,4,0:0:0:0:
192,336,76463,1,4,0:0:0:0:
384,204,77463,6,0,P|385:164|374:126,1,80,4|0,0:0|0:0,0:0:0:0:
324,276,77796,1,8,0:1:0:0:
468,224,77963,1,0,0:0:0:0:
296,180,78129,2,0,P|216:164|136:180,1,160,2|8,0:0|0:1,0:0:0:0:
20,312,78629,2,0,P|60:320|112:312,2,80,0|2|0,0:0|0:0|0:0,0:0:0:0:
72,116,79129,6,0,P|56:154|48:204,1,80,8|0,0:1|0:0,0:0:0:0:
196,340,79463,2,0,L|184:252,1,80,2|0,0:0|0:0,0:0:0:0:
280,148,79796,1,8,0:1:0:0:
368,300,79963,1,0,0:0:0:0:
472,216,80129,2,0,P|433:207|392:212,1,80,2|0,0:0|0:0,0:0:0:0:
176,352,80463,2,0,P|248:340|280:264,1,160,8|2,0:1|0:0,0:0:0:0:
212,180,80963,1,0,0:0:0:0:
176,352,81129,1,8,0:1:0:0:
60,288,81296,1,0,0:0:0:0:
60,288,81463,6,0,L|64:200,1,80,2|0,0:0|0:0,0:0:0:0:
205,100,81796,2,0,L|213:192,1,80,8|0,0:1|0:0,0:0:0:0:
332,320,82129,1,2,0:0:0:0:
332,320,82213,1,0,0:0:0:0:
332,320,82296,1,0,0:0:0:0:
432,176,82463,2,0,P|437:137|429:98,1,80,8|0,0:1|0:0,0:0:0:0:
376,240,82796,6,0,P|336:232|288:240,1,80,4|0,0:0|0:0,0:0:0:0:
232,304,83129,1,8,0:1:0:0:
120,188,83296,1,0,0:0:0:0:
192,56,83463,2,0,P|208:144|196:228,1,160,2|8,0:0|0:1,0:0:0:0:
72,332,83963,2,0,L|60:236,2,80,0|2|0,0:0|0:0|0:0,0:0:0:0:
120,172,84463,6,0,P|160:152|180:116,1,80,8|0,0:1|0:0,0:0:0:0:
0,88,84796,2,0,P|42:100|82:87,1,80,2|0,0:0|0:0,0:0:0:0:
152,24,85129,1,8,0:1:0:0:
272,80,85296,1,0,0:0:0:0:
280,224,85463,2,0,P|240:213|201:220,1,80,2|0,0:0|0:0,0:0:0:0:
36,260,85796,2,0,P|116:264|148:352,1,160,8|2,0:1|0:0,0:0:0:0:
68,336,86296,1,0,0:0:0:0:
108,184,86463,1,8,0:1:0:0:
224,288,86629,1,0,0:0:0:0:
24,240,86796,6,0,P|20:204|24:152,1,80,2|0,0:0|0:0,0:0:0:0:
192,104,87129,2,0,P|196:140|192:192,1,80,8|0,0:1|0:0,0:0:0:0:
128,272,87463,1,8,0:1:0:0:
128,272,87546,1,0,0:0:0:0:
128,272,87629,1,0,0:0:0:0:
200,348,87796,1,8,0:1:0:0:
300,336,87963,1,8,0:1:0:0:
224,255,88129,6,0,P|263:248|302:252,1,80,4|0,0:0|0:0,0:0:0:0:
384,300,88463,1,8,0:1:0:0:
436,120,88629,1,0,0:0:0:0:
511,196,88796,2,0,P|434:212|358:188,1,160,2|8,0:0|0:1,0:0:0:0:
292,88,89296,2,0,L|300:0,2,80,0|2|0,0:0|0:0|0:0,0:0:0:0:
168,76,89796,6,0,P|169:120|200:162,1,80,8|0,0:1|0:0,0:0:0:0:
64,168,90129,2,0,P|78:210|120:241,1,80,2|0,0:0|0:0,0:0:0:0:
240,264,90463,1,8,0:1:0:0:
116,352,90629,1,0,0:0:0:0:
116,352,90796,2,0,L|200:344,1,80,2|0,0:0|0:0,0:0:0:0:
324,256,91129,6,0,P|292:192|204:184,1,160,8|2,0:1|0:0,0:0:0:0:
296,336,91629,1,0,0:0:0:0:
404,280,91796,1,8,0:1:0:0:
444,164,91963,2,0,P|436:125|416:91,2,80,0|2|0,0:0|0:0|0:0,0:0:0:0:
328,96,92463,2,0,P|256:112|160:88,1,160,8|2,0:1|0:0,0:0:0:0:
80,112,92963,1,2,0:0:0:0:
80,112,93129,1,8,0:1:0:0:
252,184,93463,6,0,L|80:208,1,160,4|0,0:0|0:0,0:0:0:0:
16,264,93963,1,0,0:0:0:0:
16,264,94046,1,0,0:0:0:0:
16,264,94129,2,0,P|20:312|36:352,1,80,8|0,0:1|0:0,0:0:0:0:
116,288,94463,1,0,0:0:0:0:
116,288,94546,1,0,0:0:0:0:
116,288,94629,2,0,P|180:320|272:304,1,160,4|0,0:0|0:0,0:0:0:0:
456,348,95129,6,0,P|376:328|360:248,1,160,0|8,0:0|0:1,0:0:0:0:
440,140,95629,1,0,0:0:0:0:
288,168,95796,2,0,P|276:203|272:256,1,80
320,344,96129,2,0,P|248:336|152:332,1,160,4|0,0:0|0:0,0:0:0:0:
32,220,96629,6,0,L|35:180,2,40,0|0|8,0:0|0:0|0:1,0:0:0:0:
80,332,96963,1,0,0:0:0:0:
136,256,97129,2,0,P|140:216|132:168,1,80
224,44,97463,6,0,P|220:84|228:132,1,80,4|0,0:0|0:0,0:0:0:0:
272,288,97796,2,0,P|348:252|432:260,1,160,0|8,0:0|0:1,0:0:0:0:
448,108,98296,1,8,0:3:0:0:
448,108,98379,1,0,0:0:0:0:
448,108,98462,1,4,0:3:0:0:
344,120,98629,1,4,0:3:0:0:
384,28,98796,1,4,0:0:0:0:
464,200,98963,6,0,P|460:240|464:284,2,80,0|8|0,0:0|0:1|0:0,0:0:0:0:
364,220,99463,2,0,P|368:260|365:300,1,80,0|0,1:0|0:0,0:0:0:0:
365,299,99796,1,8,0:0:0:0:
272,352,99963,2,0,P|260:273|273:195,1,160,2|2,0:0|0:0,0:0:0:0:
164,216,100463,2,0,P|167:255|164:295,1,80,8|0,0:1|0:0,0:0:0:0:
64,324,100796,2,0,P|51:245|63:166,1,160,0|2,1:0|0:3,0:0:0:0:
148,124,101296,1,4,0:3:0:0:
216,208,101463,2,0,P|256:216|296:208,1,80,4|0,0:0|0:0,0:0:0:0:
464,152,101796,6,0,L|380:136,1,80,8|0,0:1|0:0,0:0:0:0:
308,48,102129,2,0,P|248:72|156:60,1,160,0|8,1:0|0:0,0:0:0:0:
148,192,102629,2,0,L|180:280,2,80,2|0|2,0:0|0:0|0:0,0:0:0:0:
284,168,103129,2,0,L|376:188,1,80,8|0,0:1|0:0,0:0:0:0:
464,244,103463,5,0,1:0:0:0:
464,244,103546,1,0,0:0:0:0:
464,244,103629,1,0,0:0:0:0:
396,368,103796,1,0,1:0:0:0:
396,368,103879,1,0,0:0:0:0:
396,368,103963,1,0,0:0:0:0:
296,320,104129,6,0,P|260:328|216:320,1,80,4|0,0:0|0:0,0:0:0:0:
132,148,104463,2,0,P|204:148|256:220,1,160,8|0,0:1|1:0,0:0:0:0:
217,320,104963,1,0,0:0:0:0:
120,376,105129,2,0,P|120:332|136:292,1,80,8|0,0:0|0:0,0:0:0:0:
172,224,105463,5,4,0:0:0:0:
172,224,105629,1,0,0:0:0:0:
52,88,105796,2,0,P|44:132|48:180,1,80,8|0,0:1|0:0,0:0:0:0:
184,108,106129,2,0,P|192:68|188:20,1,80,0|0,1:0|0:0,0:0:0:0:
328,76,106463,2,0,P|320:116|324:164,1,80,8|0,0:1|0:0,0:0:0:0:
352,248,106796,5,4,0:2:0:0:
440,284,106963,1,0,0:0:0:0:
500,212,107129,1,2,0:0:0:0:
412,176,107296,1,0,0:0:0:0:
352,248,107463,6,0,P|320:272|272:272,1,80,8|0,3:1|0:0,0:0:0:0:
281,274,107713,1,0,0:0:0:0:
281,274,107796,1,4,0:3:0:0:
152,224,107963,1,0,0:0:0:0:
180,360,108129,2,0,P|200:320|204:272,1,80,8|0,3:1|0:0,0:0:0:0:
75,208,108463,2,0,P|115:224|167:220,1,80,8|0,3:1|0:0,0:0:0:0:
288,196,108796,5,0,3:0:0:0:
307,193,108879,1,0,3:0:0:0:
327,191,108962,1,0,3:0:0:0:
347,188,109045,1,0,3:0:0:0:
367,186,109129,1,0,3:0:0:0:
387,183,109212,1,0,3:0:0:0:
407,181,109295,1,0,3:0:0:0:
426,179,109379,1,0,3:0:0:0:
446,176,109462,1,4,0:2:0:0:
500,344,109796,5,8,0:0:0:0:
408,308,109963,1,0,0:0:0:0:
320,280,110130,2,0,P|276:272|232:284,1,80
88,220,110463,1,8,0:0:0:0:
92,32,110629,2,0,P|112:68|116:116,1,80
31,132,110963,1,0,0:0:0:0:
188,164,111129,2,0,P|228:160|268:140,1,80,8|0,0:0|0:0,0:0:0:0:
220,268,111463,5,0,0:0:0:0:
220,268,111546,1,0,0:0:0:0:
220,268,111629,1,0,0:0:0:0:
96,336,111796,1,8,0:0:0:0:
104,196,111963,1,0,0:0:0:0:
220,268,112130,2,0,P|260:272|308:268,1,80
480,216,112463,5,8,0:0:0:0:
384,152,112629,1,0,0:0:0:0:
384,152,112796,2,0,L|380:248,1,80
372,328,113129,1,8,0:0:0:0:
260,356,113296,1,0,0:0:0:0:
144,320,113463,6,0,P|137:280|141:240,1,80
232,108,113796,1,8,0:0:0:0:
228,264,113963,1,0,0:0:0:0:
144,148,114130,1,0,0:0:0:0:
284,192,114296,1,0,0:0:0:0:
141,240,114463,2,0,P|109:232|61:240,1,80,8|0,0:0|0:0,0:0:0:0:
232,108,114796,6,0,P|234:68|222:30,1,80
48,120,115129,1,8,0:0:0:0:
48,120,115296,1,0,0:0:0:0:
152,40,115463,1,0,0:0:0:0:
180,224,115796,5,8,0:0:0:0:
180,224,115963,1,0,0:0:0:0:
336,144,116130,2,0,P|332:104|336:52,1,80
272,240,116463,2,0,P|276:280|272:332,1,80,8|0,0:0|0:0,0:0:0:0:
388,248,116796,1,0,0:0:0:0:
388,248,116879,1,0,0:0:0:0:
388,248,116963,1,0,0:0:0:0:
336,144,117130,5,8,0:0:0:0:
272,240,117296,1,0,0:0:0:0:
160,88,117463,2,0,P|198:98|238:104,1,80,4|0,0:2|0:0,0:0:0:0:
374,56,117795,1,8,0:0:0:0:
374,56,117962,1,0,0:0:0:0:
376,208,118129,2,0,P|337:197|297:191,1,80,4|0,0:2|0:0,0:0:0:0:
136,248,118463,1,8,0:0:0:0:
136,248,118628,1,0,0:0:0:0:
220,336,118796,6,0,B|244:252|196:252|220:168,1,160,4|8,0:2|0:0,0:0:0:0:
324,164,119296,1,0,0:0:0:0:
380,296,119463,1,0,0:0:0:0:
380,296,119546,1,0,0:0:0:0:
380,296,119629,1,0,0:0:0:0:
468,192,119796,2,0,L|468:104,1,80
388,60,120129,6,0,L|296:48,1,80
188,112,120629,2,0,L|272:124,1,80
312,216,121129,2,0,L|220:204,1,80
136,240,121629,2,0,P|128:276|132:328,1,80
129,318,122129,1,0,0:0:0:0:
328,344,122463,6,0,L|376:340,1,40
440,300,122796,2,0,P|436:236|440:180,2,120
224,192,124129,6,0,L|132:184,2,80
308,196,124963,1,0,0:0:0:0:
308,196,125129,1,0,0:0:0:0:
462,51,125463,6,0,P|414:67|342:55,1,120
346,57,126129,1,0,0:0:0:0:
260,264,126463,2,0,P|248:204|256:140,1,120
168,88,127129,2,0,L|124:80,1,40
32,156,127463,2,0,L|76:148,1,40
184,204,127796,2,0,L|140:196,1,40
64,248,128129,6,0,P|56:288|64:336,1,80
288,340,128796,2,0,P|292:300|284:261,1,80
256,184,129463,1,0,0:0:0:0:
452,80,130796,6,0,L|364:68,1,80,4|0,0:0|0:0,0:0:0:0:
276,192,131129,1,8,0:1:0:0:
400,160,131296,1,0,0:0:0:0:
232,100,131462,2,0,P|192:160|192:252,1,160,2|8,0:0|0:1,0:0:0:0:
376,320,131962,2,0,P|373:276|360:236,2,80,0|2|0,0:0|0:0|0:0,0:0:0:0:
184,352,132463,6,0,L|92:340,1,80,8|0,0:1|0:0,0:0:0:0:
32,200,132796,2,0,L|124:188,1,80,2|0,0:0|0:0,0:0:0:0:
199,257,133129,1,8,0:1:0:0:
199,257,133296,1,0,0:0:0:0:
296,116,133462,2,0,P|256:108|212:116,1,80,2|0,0:0|0:0,0:0:0:0:
184,352,133796,6,0,P|252:336|284:248,1,160,8|2,0:1|0:0,0:0:0:0:
252,184,134296,1,0,0:0:0:0:
376,284,134462,1,8,0:1:0:0:
484,144,134629,1,0,0:0:0:0:
484,144,134796,6,0,P|484:100|456:48,1,80,2|0,0:0|0:0,0:0:0:0:
336,152,135129,2,0,P|368:180|416:192,1,80,8|0,0:1|0:0,0:0:0:0:
264,32,135463,1,2,0:0:0:0:
264,32,135546,1,0,0:0:0:0:
264,32,135629,1,0,0:0:0:0:
232,184,135796,2,0,L|224:264,1,80,8|0,0:1|0:0,0:0:0:0:
200,100,136129,6,0,P|168:108|116:100,1,80,2|0,0:0|0:0,0:0:0:0:
48,40,136463,1,8,0:1:0:0:
112,184,136629,1,0,0:0:0:0:
45,278,136796,2,0,P|33:218|117:186,1,160,2|8,0:0|0:1,0:0:0:0:
220,267,137296,2,0,P|188:296|168:328,2,80,0|2|0,0:0|0:0|0:0,0:0:0:0:
324,44,137796,6,0,P|324:84|348:136,1,80,8|0,0:1|0:0,0:0:0:0:
416,240,138129,2,0,P|444:268|498:288,1,80,2|0,0:0|0:0,0:0:0:0:
424,152,138463,1,8,0:1:0:0:
332,232,138629,1,0,0:0:0:0:
240,176,138796,2,0,L|244:96,1,80,2|0,0:0|0:0,0:0:0:0:
248,268,139129,2,0,P|206:332|130:335,1,160,8|2,0:1|0:0,0:0:0:0:
240,176,139629,1,0,0:0:0:0:
296,352,139796,1,8,0:1:0:0:
168,264,139962,1,0,0:0:0:0:
332,164,140129,6,0,P|336:203|333:243,1,80,2|0,0:0|0:0,0:0:0:0:
156,176,140462,2,0,P|152:136|154:96,1,80,8|0,0:1|0:0,0:0:0:0:
332,56,140796,1,8,0:1:0:0:
332,56,140879,1,0,0:0:0:0:
332,56,140962,1,0,0:0:0:0:
420,108,141129,1,8,0:1:0:0:
332,164,141296,1,8,0:1:0:0:
180,24,141463,6,0,P|136:20|96:40,1,80,4|0,0:0|0:0,0:0:0:0:
24,160,141796,1,8,0:1:0:0:
24,160,141963,1,0,0:0:0:0:
172,264,142129,2,0,P|244:280|340:248,1,160,2|8,0:0|0:1,0:0:0:0:
420,108,142629,2,0,P|428:146|432:186,2,80,0|2|0,0:0|0:0|0:0,0:0:0:0:
200,32,143129,6,0,P|164:44|108:36,1,80,8|0,0:1|0:0,0:0:0:0:
196,156,143463,2,0,P|179:189|133:223,1,80,2|0,0:0|0:0,0:0:0:0:
24,144,143796,1,8,0:1:0:0:
24,144,143963,1,0,0:0:0:0:
88,316,144129,2,0,P|128:324|172:312,1,80,2|0,0:0|0:0,0:0:0:0:
424,256,144463,6,0,P|347:237|270:257,1,160,8|2,0:1|0:0,0:0:0:0:
348,336,144962,1,0,0:0:0:0:
296,160,145129,1,8,0:1:0:0:
180,208,145296,2,0,P|140:216|88:204,2,80,0|2|0,0:0|0:0|0:0,0:0:0:0:
372,88,145796,2,0,P|292:68|208:92,1,160,8|2,0:1|0:0,0:0:0:0:
112,48,146296,1,2,0:0:0:0:
112,48,146462,1,8,0:1:0:0:
48,276,146796,6,0,L|44:104,1,160,4|0,0:0|0:0,0:0:0:0:
128,152,147296,1,0,0:0:0:0:
128,152,147379,1,0,0:0:0:0:
128,152,147463,2,0,P|168:172|216:168,1,80,8|0,0:1|0:0,0:0:0:0:
164,328,147796,1,0,0:0:0:0:
164,328,147879,1,0,0:0:0:0:
164,328,147963,2,0,P|236:312|272:224,1,160,4|0,0:0|0:0,0:0:0:0:
368,352,148463,6,0,P|380:272|368:180,1,160,0|8,0:0|0:1,0:0:0:0:
288,144,148963,1,0,0:0:0:0:
464,220,149129,2,0,L|472:140,1,80
432,56,149463,2,0,P|360:76|268:52,1,160,4|0,0:0|0:0,0:0:0:0:
124,32,149962,6,0,L|84:24,2,40,0|0|8,0:0|0:0|0:1,0:0:0:0:
196,100,150296,1,0,0:0:0:0:
52,148,150463,2,0,P|36:184|36:240,1,80,8|0,0:1|0:0,0:0:0:0:
140,356,150796,2,0,P|132:320|132:268,1,80,4|0,0:0|0:0,0:0:0:0:
232,232,151129,2,0,P|272:220|316:232,1,80
456,260,151463,2,0,L|504:248,2,40,8|0|0,0:1|0:0|0:0,0:0:0:0:
280,304,151796,1,8,0:1:0:0:
384,172,151962,1,8,0:1:0:0:
432,340,152129,1,4,0:0:0:0:
256,192,152296,12,4,154796,0:0:0:0:
72,96,159463,5,8,0:1:0:0:
72,96,159546,1,0,0:0:0:0:
72,96,159629,1,0,0:0:0:0:
148,184,159796,2,8,P|188:192|232:184,1,80,8|8,0:1|0:1,0:1:0:0:
352,112,160129,6,0,P|412:100|480:120,2,120,4|0|0,0:0|0:0|0:0,0:0:0:0:
226,186,160796,1,2,0:0:0:0:
272,32,160963,2,0,P|266:68|268:120,1,80
408,272,161296,2,0,P|340:288|248:272,1,160,4|2,0:0|0:0,0:0:0:0:
28,232,161796,2,0,P|60:216|108:212,1,80,2|0,0:0|0:0,0:0:0:0:
164,288,162129,2,0,L|172:332,2,40,8|0|0,0:1|0:0|0:0,0:0:0:0:
88,124,162463,2,0,L|80:84,2,40,8|0|0,0:1|0:0|0:0,0:0:0:0:
196,175,162796,6,0,P|268:159|292:75,1,160,4|2,0:2|0:0,0:0:0:0:
252,16,163296,1,0,0:0:0:0:
424,108,163463,2,0,L|440:272,1,160,8|0,0:1|0:0,0:0:0:0:
376,336,163963,1,0,0:0:0:0:
252,264,164129,6,0,P|184:256|132:184,1,160,4|4,0:2|0:0,0:0:0:0:
196,96,164629,1,4,0:3:0:0:
40,172,164796,2,0,P|30:260|32:344,2,160,8|4|0,0:1|0:2|0:0,0:0:0:0:
120,48,165629,1,0,0:0:0:0:
276,96,165796,6,0,P|360:104|440:96,2,160,0|8|0,0:0|0:1|0:0,0:0:0:0:
195,175,166629,1,0,0:0:0:0:
336,232,166796,2,0,P|344:272|344:312,1,80
212,352,167129,2,0,L|204:264,1,80
64,100,167463,2,0,P|84:176|76:280,1,160,8|0,0:1|0:0,0:0:0:0:
29,337,167963,1,0,0:0:0:0:
280,344,168129,6,0,P|356:340|408:272,2,160,4|0|8,0:2|0:0|0:1,0:0:0:0:
200,268,168963,1,0,0:0:0:0:
108,336,169129,2,0,P|64:344|16:332,1,80,2|0,0:0|0:0,0:0:0:0:
12,176,169463,2,0,P|56:168|104:180,1,80,4|0,0:2|0:0,0:0:0:0:
200,268,169796,2,0,P|224:224|196:112,1,160,0|8,0:0|0:1,0:0:0:0:
132,48,170296,1,0,0:0:0:0:
288,100,170463,2,0,P|328:104|376:96,1,80,4|0,0:2|0:0,0:0:0:0:
468,40,170796,6,0,L|508:24,2,40,2|0|0,0:3|0:0|0:0,0:0:0:0:
420,176,171129,2,0,P|416:216|420:260,1,80,4|0,0:3|0:0,0:0:0:0:
292,356,171463,2,0,P|308:304|284:192,1,160,8|4,0:1|0:3,0:0:0:0:
289,201,171879,1,0,0:0:0:0:
289,201,171963,1,0,0:0:0:0:
216,320,172129,6,0,L|124:324,1,80,0|0,1:0|1:0,1:0:0:0:
216,320,172463,1,8,0:1:0:0:
164,240,172629,2,0,L|72:244,1,80,0|0,1:0|1:0,1:0:0:0:
164,240,172963,1,8,0:1:0:0:
112,164,173129,2,0,L|60:168,2,40,0|0|0,1:0|0:0|0:0,0:0:0:0:
232,128,173463,6,0,P|240:96|232:44,1,80,4|0,0:2|0:0,0:0:0:0:
336,132,173796,2,0,P|376:140|420:132,1,80
284,212,174129,2,0,P|277:251|286:290,1,80,8|0,0:1|0:0,0:0:0:0:
460,340,174463,1,0,0:0:0:0:
384,244,174629,1,0,0:0:0:0:
384,244,174713,1,0,0:0:0:0:
384,244,174796,1,4,0:2:0:0:
328,360,174963,6,0,P|288:368|240:356,2,80
463,240,175463,2,0,P|424:247|385:244,1,80,8|0,0:1|0:0,0:0:0:0:
280,128,175796,2,0,P|319:131|359:124,1,80
168,80,176129,6,0,P|124:76|76:84,2,80,4|0|0,0:2|0:0|0:0,0:0:0:0:
136,184,176629,2,0,P|94:198|54:226,2,80,4|0|0,0:2|0:0|0:0,0:0:0:0:
224,156,177129,2,0,L|240:192,2,40,4|0|0,0:3|0:0|0:0,0:0:0:0:
160,276,177463,5,8,0:1:0:0:
88,344,177629,1,0,0:0:0:0:
256,272,177796,2,0,P|248:316|260:368,1,80,4|0,0:3|0:0,0:0:0:0:
340,340,178129,2,0,L|424:348,1,80,0|0,1:0|1:0,1:0:0:0:
432,224,178463,2,0,L|516:216,1,80,0|0,1:0|1:0,1:0:0:0:
324,188,178796,6,0,P|332:148|328:104,1,80,4|0,0:2|0:0,0:0:0:0:
460,40,179129,2,0,P|416:44|380:40,1,80,8|0,0:1|0:0,0:0:0:0:
252,68,179463,2,0,P|208:64|172:68,1,80,2|0,0:0|0:0,0:0:0:0:
52,212,179796,2,0,P|46:172|54:133,1,80,8|0,0:1|0:0,0:0:0:0:
92,60,180129,2,0,L|68:24,2,40,2|0|0,0:0|0:0|0:0,0:0:0:0:
172,160,180463,2,0,P|179:199|174:238,1,80,8|0,0:1|0:0,0:0:0:0:
88,288,180796,2,0,L|48:312,2,40,8|0|0,0:0|0:0|0:0,0:0:0:0:
168,348,181129,2,0,P|208:356|252:348,1,80,4|0,0:3|0:0,0:0:0:0:
376,340,181463,6,0,B|368:296|368:296|393:232|393:232|376:180,1,160,4|0,0:2|0:0,0:0:0:0:
460,124,181963,1,0,0:0:0:0:
388,56,182129,1,8,0:1:0:0:
368,57,182212,1,0,0:0:0:0:
348,59,182295,1,0,0:0:0:0:
328,61,182379,1,0,0:0:0:0:
308,63,182462,1,0,0:0:0:0:
216,24,182629,1,0,0:0:0:0:
120,64,182796,2,0,P|132:148|124:228,1,160,4|0,0:2|0:0,0:0:0:0:
160,336,183296,1,0,0:0:0:0:
256,272,183463,6,0,L|256:184,1,80,8|0,0:1|0:0,0:0:0:0:
256,192,184129,1,4,0:0:0:0:
256,192,194129,12,0,194796,0:0:0:0:
444,332,195129,6,0,L|396:324,1,40
320,288,195463,2,0,P|292:324|256:332,1,80,8|0,0:1|0:0,0:0:0:0:
188,288,195963,1,0,0:0:0:0:
120,352,196129,1,0,0:0:0:0:
32,336,196296,1,0,0:0:0:0:
4,252,196463,2,0,L|8:168,1,80,4|0,0:3|0:0,0:0:0:0:
46,73,197129,6,0,L|48:40,2,20
100,156,197463,2,0,P|140:164|180:152,1,80,4|0,0:3|0:0,0:0:0:0:
248,56,197963,1,0,0:0:0:0:
248,56,198129,2,0,L|260:140,1,80,8|0,0:1|0:0,0:0:0:0:
360,244,198796,6,0,L|368:164,1,80,0|4,0:0|0:3,0:0:0:0:
472,108,199463,2,0,L|480:188,1,80,8|0,0:1|0:0,0:0:0:0:
412,332,200129,5,2,0:0:0:0:
392,256,200463,1,2,0:0:0:0:
336,312,200796,1,2,0:0:0:0:
416,288,201129,1,2,0:0:0:0:
356,228,201463,1,2,0:0:0:0:
336,312,201796,1,2,0:0:0:0:
392,256,202129,6,0,P|404:220|392:180,1,80,4|8,0:3|0:1,0:0:0:0:
400,88,202629,1,8,0:1:0:0:
316,124,202796,2,0,L|264:116,1,40,4|0,0:0|0:0,0:0:0:0:
212,72,203129,2,0,P|172:80|128:68,1,80,2|8,0:0|0:1,0:0:0:0:
40,76,203796,1,2,0:0:0:0:
96,224,204129,6,0,P|104:180|96:136,1,80,4|2,0:0|0:0,0:0:0:0:
112,328,204796,2,0,P|156:336|192:328,1,80,8|2,0:1|0:0,0:0:0:0:
300,340,205463,6,0,L|320:256,1,80,0|0,1:0|0:0,0:0:0:0:
436,292,205796,2,0,L|408:200,1,80,0|0,1:0|0:0,0:0:0:0:
256,180,206129,2,0,L|272:76,1,80,0|0,1:0|0:0,0:0:0:0:
448,136,206463,2,0,L|424:44,1,80,0|0,1:0|0:0,0:0:0:0:
320,40,206796,6,0,L|240:44,1,80,4|0,0:0|0:0,0:0:0:0:
236,120,207129,2,0,L|144:124,1,80,4|0,0:0|0:0,0:0:0:0:
156,200,207463,2,0,L|92:204,2,40,4|0|0,0:3|0:0|0:0,0:0:0:0:
80,128,207796,2,0,L|16:132,2,40,4|0|0,0:3|0:0|0:0,0:0:0:0:
116,48,208129,1,4,0:0:0:0:
256,192,208296,12,0,210129,0:0:0:0:
296,192,210796,6,0,L|468:180,1,160,4|0,0:0|0:0,0:0:0:0:
240,272,211463,2,0,P|204:204|236:116,1,160
196,28,211963,2,0,B|164:40|144:64|144:64|96:76|40:56,1,160,4|0,0:0|0:0,0:0:0:0:
64,152,212463,2,0,P|80:216|60:312,2,160
140,352,213463,6,0,L|232:344,1,80,4|0,0:0|0:0,0:0:0:0:
383,282,213796,2,0,L|304:276,1,80,8|0,0:1|0:0,0:0:0:0:
208,196,214129,2,0,L|168:191,2,40,0|0|0,1:0|0:0|0:0,0:0:0:0:
408,148,214463,1,0,1:0:0:0:
325,194,214629,2,0,P|309:134|333:30,1,160,4|0,0:0|0:0,0:0:0:0:
176,108,215129,2,0,P|196:176|184:276,2,160,0|8|0,0:0|0:1|0:0,0:0:0:0:
40,40,216129,6,0,L|32:164,1,120,4|0,0:0|0:0,0:0:0:0:
40,192,216463,1,8,0:1:0:0:
168,336,216629,2,0,P|165:296|149:259,1,80,4|4,0:0|0:3,0:0:0:0:
149,259,216879,1,0,0:0:0:0:
149,259,216963,1,0,0:0:0:0:
248,168,217129,1,0,0:0:0:0:
312,312,217296,2,0,P|360:352|456:344,1,160,4|0,0:0|0:0,0:0:0:0:
464,216,217796,2,0,L|476:52,2,160,8|0|8,0:1|0:0|0:1,0:0:0:0:
292,280,218796,5,4,0:3:0:0:
272,285,218879,1,0,0:0:0:0:
253,291,218962,1,0,0:0:0:0:
364,232,219129,2,0,L|448:240,1,80,8|0,0:1|0:0,0:0:0:0:
320,116,219463,1,4,0:3:0:0:
339,110,219546,1,0,0:0:0:0:
358,104,219629,1,0,0:0:0:0:
248,164,219796,2,0,L|164:156,1,80,8|0,0:1|0:0,0:0:0:0:
64,144,220129,5,8,0:3:0:0:
64,144,220213,1,0,3:0:0:0:
64,144,220296,1,0,3:0:0:0:
64,144,220379,1,0,3:0:0:0:
64,144,220463,1,0,3:0:0:0:
64,144,220546,1,0,3:0:0:0:
64,144,220629,1,0,3:0:0:0:
64,144,220713,1,0,3:0:0:0:
64,144,220796,1,0,3:0:0:0:
96,324,221463,6,0,P|132:332|176:328,1,80,4|0,0:0|0:0,0:0:0:0:
300,208,221796,1,8,0:1:0:0:
256,356,221963,1,0,0:0:0:0:
192,208,222130,2,0,P|200:136|188:40,1,160,2|8,0:0|0:1,0:0:0:0:
384,140,222629,2,0,P|376:180|384:240,2,80,0|2|0,0:0|0:0|0:0,0:0:0:0:
269,60,223129,6,0,L|185:48,1,80,8|0,0:1|0:0,0:0:0:0:
28,144,223463,2,0,L|112:132,1,80,2|0,0:0|0:0,0:0:0:0:
192,208,223796,1,8,0:1:0:0:
269,60,223963,1,0,0:0:0:0:
416,144,224129,2,0,P|376:139|337:147,1,80,2|0,0:0|0:0,0:0:0:0:
200,288,224463,6,0,B|284:324|284:260|372:296,1,160,8|2,0:1|0:0,0:0:0:0:
316,360,224963,1,0,0:0:0:0:
244,216,225130,1,8,0:1:0:0:
116,264,225296,2,0,P|109:304|118:343,2,80,0|2|0,0:0|0:0|0:0,0:0:0:0:
184,64,225797,2,0,P|200:128|120:168,1,160,8|2,0:1|0:0,0:0:0:0:
80,76,226297,1,2,0:0:0:0:
80,76,226463,1,8,0:1:0:0:
292,80,226796,6,0,P|370:85|450:57,1,160,4|2,0:0|0:0,0:0:0:0:
424,260,227296,1,0,0:0:0:0:
424,260,227379,1,0,0:0:0:0:
424,260,227463,2,0,L|420:164,1,80,8|0,0:1|0:0,0:0:0:0:
256,344,227796,1,0,0:0:0:0:
256,344,227880,1,0,0:0:0:0:
256,344,227963,2,0,L|252:176,1,160,4|0,0:0|0:0,0:0:0:0:
80,244,228463,6,0,P|70:164|82:85,1,160,0|8,0:0|0:1,0:0:0:0:
148,20,228963,1,0,0:0:0:0:
180,160,229129,2,0,P|220:172|272:164,1,80
324,96,229463,1,4,0:0:0:0:
440,100,230129,6,0,L|444:48,2,40,2|0|0,0:0|0:0|0:0,0:0:0:0:
472,196,230463,1,0,0:0:0:0:
448,296,230629,1,0,0:0:0:0:
364,348,230796,2,0,B|324:364|268:364|268:364|240:348|240:348|260:324,1,160,4|0,0:0|0:0,0:0:0:0:
80,168,231463,5,0,1:0:0:0:
80,168,231546,1,0,1:0:0:0:
80,168,231629,1,0,1:0:0:0:
56,200,231713,1,0,1:0:0:0:
52,247,231796,1,0,1:0:0:0:
79,285,231879,1,0,1:0:0:0:
125,298,231963,1,0,1:0:0:0:
168,280,232046,1,0,1:0:0:0:
188,236,232129,5,4,0:0:0:0:
256,192,232213,12,0,234796,0:0:0:0:
288,300,234963,6,0,P|332:308|372:296,1,80
436,268,235463,1,8,0:1:0:0:
448,132,235796,6,0,L|356:116,1,80
300,72,236129,1,4,0:0:0:0:
300,72,236296,6,0,P|292:112|292:160,1,80
356,196,236796,1,8,0:1:0:0:
248,248,237129,6,0,L|156:232,1,80
104,192,237463,1,4,0:0:0:0:
104,192,237629,6,0,P|96:232|96:280,1,80
160,312,238129,1,8,0:1:0:0:
328,352,238463,6,0,P|336:316|332:268,1,80
256,252,238796,2,0,P|272:216|308:196,1,80,4|0,0:0|0:0,0:0:0:0:
384,212,239129,2,0,P|428:228|468:220,1,80
484,144,239463,6,0,P|488:104|476:56,1,80,8|0,0:1|0:0,0:0:0:0:
284,36,240129,6,0,P|244:32|204:36,1,80,4|0,0:0|0:0,0:0:0:0:
204,35,240463,1,0,0:0:0:0:
132,76,240629,5,0,0:0:0:0:
132,76,240713,1,0,0:0:0:0:
132,76,240796,2,0,P|120:116|128:156,1,80,8|0,0:1|0:0,0:0:0:0:
40,232,241463,6,0,L|128:240,1,80,0|0,1:0|1:0,1:0:0:0:
148,344,241796,2,0,L|236:336,1,80,0|0,1:0|1:0,1:0:0:0:
336,316,242129,5,0,0:0:0:0:
355,310,242212,1,0,0:0:0:0:
376,308,242295,1,0,0:0:0:0:
395,308,242379,1,0,0:0:0:0:
414,311,242462,1,0,0:0:0:0:
448,304,242546,1,0,0:0:0:0:
460,276,242629,1,0,0:0:0:0:
456,244,242712,1,0,0:0:0:0:
436,216,242796,6,0,P|412:192|356:160,1,80,4|0,0:0|0:0,0:0:0:0:
244,200,243129,2,0,P|256:164|284:108,1,80,8|0,0:1|0:0,0:0:0:0:
472,80,243463,2,0,P|432:84|388:76,1,80,8|0,0:1|0:0,0:0:0:0:
288,28,243796,2,0,P|248:21|208:25,1,80,8|0,0:1|0:0,0:0:0:0:
32,52,244129,2,0,P|60:128|44:208,1,160,4|8,0:3|0:1,0:0:0:0:
28,336,244629,1,0,0:0:0:0:
132,240,244796,2,0,L|220:232,1,80,8|0,0:1|0:0,0:0:0:0:
256,348,245129,2,0,L|335:355,1,80,8|0,0:1|0:0,0:0:0:0:
432,336,245463,5,4,0:0:0:0:
432,336,245546,1,0,0:0:0:0:
432,336,245629,1,0,0:0:0:0:
480,240,245796,2,0,P|484:200|480:156,1,80,8|0,0:1|0:0,0:0:0:0:
416,32,246129,2,0,L|328:40,1,80,8|0,0:1|0:0,0:0:0:0:
272,136,246463,2,0,L|184:128,1,80,8|0,0:1|0:0,0:0:0:0:
76,32,246796,2,0,P|52:100|60:188,1,160,8|8,0:1|0:1,0:0:0:0:
28,312,247296,1,0,0:0:0:0:
200,248,247463,2,0,P|160:256|108:244,1,80,8|0,0:1|0:0,0:0:0:0:
220,352,247796,2,0,P|260:344|312:356,1,80,8|0,0:1|0:0,0:0:0:0:
396,328,248129,5,4,0:0:0:0:
396,328,248213,1,0,0:0:0:0:
396,328,248296,1,0,0:0:0:0:
480,284,248463,2,0,L|476:200,1,80,8|0,0:1|0:0,0:0:0:0:
332,208,248796,2,0,P|324:168|332:128,1,80,8|0,0:1|0:0,0:0:0:0:
456,40,249129,2,0,P|412:44|368:40,1,80,8|0,0:1|0:0,0:0:0:0:
248,68,249463,6,0,P|180:56|112:120,1,160,4|8,0:0|0:1,0:0:0:0:
32,184,249963,1,0,0:0:0:0:
96,272,250129,1,8,0:1:0:0:
96,272,250296,1,8,0:1:0:0:
96,272,250463,2,0,L|92:352,1,80,8|0,0:1|0:0,0:0:0:0:
192,352,250796,6,0,P|228:344|280:352,1,80,4|0,0:0|0:0,0:0:0:0:
392,248,251129,2,0,P|356:256|304:248,1,80,8|0,0:1|0:0,0:0:0:0:
160,164,251463,2,0,P|196:156|248:164,1,80,8|0,0:1|0:0,0:0:0:0:
396,76,251796,2,0,P|360:84|308:76,1,80,8|0,0:1|0:0,0:0:0:0:
116,40,252129,5,4,0:3:0:0:
80,128,252296,1,4,0:3:0:0:
116,220,252463,1,4,0:3:0:0:
72,308,252629,1,4,0:3:0:0:
176,296,252796,5,0,3:0:0:0:
206,304,252879,1,0,3:0:0:0:
238,306,252962,1,0,3:0:0:0:
269,300,253046,1,0,3:0:0:0:
300,291,253129,1,0,3:0:0:0:
332,289,253212,1,0,3:0:0:0:
364,296,253296,1,0,3:0:0:0:
256,192,253463,5,4,0:2:0:0:
256,192,253546,12,0,260129,0:0:0:0:
