osu file format v14

[General]
AudioFilename: coma.mp3
AudioLeadIn: 0
PreviewTime: 76796
Countdown: 0
SampleSet: None
StackLeniency: 0.9
Mode: 0
LetterboxInBreaks: 0
WidescreenStoryboard: 0

[Editor]
Bookmarks: 14296,34796,98796,154796,253463,260129,270963
DistanceSpacing: 0.8
BeatDivisor: 4
GridSize: 4
TimelineZoom: 2

[Metadata]
Title:COMA
TitleUnicode:COMA
Artist:ensou feat. GUMI
ArtistUnicode:ensou feat. GUMI
Creator:I am graduated
Version:Hard
Source:Cytus
Tags:vocaloid filipino megpoid
BeatmapID:1374132
BeatmapSetID:648664

[Difficulty]
HPDrainRate:5
CircleSize:4
OverallDifficulty:6
ApproachRate:7.5
SliderMultiplier:1.3
SliderTickRate:1

[Events]
//Background and Video events
0,0,"bg.jpg",0,0
//Break Periods
2,152329,158638
2,184329,193304
//Storyboard Layer 0 (Background)
//Storyboard Layer 1 (Fail)
//Storyboard Layer 2 (Pass)
//Storyboard Layer 3 (Foreground)
//Storyboard Sound Samples

[TimingPoints]
130,333.333333333333,4,2,1,80,1,0
2796,-100,4,3,1,80,0,1
23463,-100,4,2,1,80,0,0
24129,-133.333333333333,4,2,1,40,0,0
34796,-200,4,2,1,40,0,0
39463,-100,4,3,1,80,0,0
42796,-100,4,2,1,80,0,0
45463,-100,4,2,1,60,0,0
56129,-100,4,1,1,80,0,0
65463,-100,4,2,1,80,0,0
66796,-133.333333333333,4,3,1,80,0,0
77463,-100,4,2,2,80,0,1
98796,-100,4,2,1,80,0,0
109796,-100,4,1,1,80,0,0
120129,-133.333333333333,4,2,1,40,0,0
130796,-100,4,2,2,80,0,1
152129,-100,4,2,1,80,0,0
159463,-100,4,2,1,80,0,0
194796,-133.333333333333,4,2,1,40,0,0
210739,-100,4,2,1,80,0,0
221463,-100,4,2,2,80,0,1
232129,-100,4,2,1,80,0,0
234963,-133.333333333333,4,2,1,80,0,0
241463,-100,4,2,1,80,0,0
242796,-100,4,2,1,80,0,1
253463,-100,4,2,1,80,0,0
260129,-100,4,2,1,5,0,0

[Colours]
Combo1 : 255,200,0
Combo2 : 0,200,0
Combo3 : 130,255,0
Combo4 : 255,130,65

[HitObjects]
256,192,796,12,0,2463,0:0:0:0:
144,72,2796,6,0,L|80:80,2,65
216,32,3296,1,0,0:0:0:0:
292,60,3463,2,0,P|352:76|424:56,1,130,2|4,0:0|0:0,0:0:0:0:
416,60,3879,1,0,0:0:0:0:
416,60,3963,1,0,0:0:0:0:
456,140,4129,2,0,L|452:188,2,32.5,4|0|0,0:0|0:0|0:0,0:0:0:0:
372,200,4463,2,0,P|380:236|372:276,2,65,0|0|2,0:0|0:0|0:0,0:0:0:0:
280,180,4963,2,0,L|276:132,2,32.5,0|0|2,0:0|0:0|0:0,0:0:0:0:
72,204,5463,6,0,L|76:140,2,65
60,296,5963,1,0,0:0:0:0:
132,348,6129,2,0,P|204:336|280:356,1,130,2|0,0:0|0:0,0:0:0:0:
344,336,6629,2,0,L|348:292,2,32.5
440,272,6963,2,0,L|452:348,2,65
428,168,7463,2,0,P|420:132|428:92,2,65,2|0|0,0:0|0:0|0:0,0:0:0:0:
296,52,8129,6,0,P|328:55|359:48,2,65
216,88,8629,1,0,0:0:0:0:
144,36,8796,2,0,P|128:104|140:180,1,130,2|4,0:0|0:0,0:0:0:0:
134,163,9213,1,0,0:0:0:0:
134,163,9296,1,0,0:0:0:0:
88,236,9463,2,0,L|40:224,2,32.5,4|0|0,0:0|0:0|0:0,0:0:0:0:
172,280,9796,2,0,L|240:272,1,65,2|0,0:0|0:0,0:0:0:0:
304,204,10129,2,2,L|296:92,2,97.5
372,272,10796,6,0,P|366:309|376:348,2,65
456,248,11296,1,0,0:0:0:0:
392,180,11463,2,0,P|372:112|400:52,1,130,2|0,0:0|0:0,0:0:0:0:
304,44,11963,2,0,L|296:4,2,32.5
232,112,12296,2,0,L|224:204,2,65
156,56,12796,2,0,L|162:24,2,32.5,2|0|0,0:0|0:0|0:0,0:0:0:0:
76,100,13129,2,0,L|80:196,1,65,2|0,0:0|0:0,0:0:0:0:
40,256,13463,6,0,L|32:340,2,65
132,232,13963,2,0,P|168:240|204:232,1,65,0|2,0:0|0:0,0:0:0:0:
256,300,14296,2,0,L|248:384,2,65,2|0|0,0:0|0:0|0:0,0:0:0:0:
288,204,14796,2,0,P|324:212|360:204,1,65
368,344,15129,2,0,P|404:336|440:344,1,65
468,260,15463,2,0,L|472:108,1,130,2|2,0:0|0:0,0:0:0:0:
408,56,16129,6,0,L|484:36,2,65
340,116,16629,1,0,0:0:0:0:
284,48,16796,2,0,P|224:64|148:44,1,130,2|0,0:0|0:0,0:0:0:0:
76,68,17296,2,0,L|64:28,2,32.5
76,160,17629,2,0,L|4:184,2,65
160,192,18129,2,0,L|232:208,1,65,2|0,0:0|0:0,0:0:0:0:
288,144,18463,2,0,L|360:128,1,65,2|0,0:0|0:0,0:0:0:0:
432,188,18796,6,0,P|438:224|432:268,1,65,2|0,0:0|0:0,0:0:0:0:
404,336,19129,2,0,P|435:343|468:336,2,65
256,344,19629,2,0,P|253:302|256:264,1,65,2|0,0:0|0:0,0:0:0:0:
288,196,19962,2,0,P|256:188|224:196,2,65
368,252,20463,2,0,L|444:244,1,65
472,156,20796,2,0,P|408:140|372:76,1,130,2|0,0:0|0:0,0:0:0:0:
208,44,21463,6,0,L|100:52,2,97.5,2|0|0,0:0|0:0|0:0,0:0:0:0:
208,44,22129,1,4,0:2:0:0:
160,200,22796,6,0,L|268:192,2,97.5,4|4|4,0:0|0:0|0:0,0:0:0:0:
160,200,23462,1,0,0:0:0:0:
32,124,24129,5,4,0:0:0:0:
32,124,24296,1,0,0:0:0:0:
76,240,24629,2,0,L|80:288,1,48.750001859665,0|8,0:0|0:1,0:0:0:0:
180,332,24963,2,0,L|176:284,1,48.750001859665
266,232,25296,2,0,L|264:208,2,24.3750009298325,2|0|0,0:0|0:0|0:0,0:0:0:0:
280,320,25629,2,0,P|320:332|376:320,1,97.50000371933,0|2,0:0|0:0,0:0:0:0:
424,248,26129,2,0,L|484:240,1,48.750001859665,8|0,0:1|0:0,0:0:0:0:
452,156,26463,2,0,L|512:148,1,48.750001859665,8|0,0:1|0:0,0:0:0:0:
472,72,26796,5,4,0:0:0:0:
472,72,26963,1,0,0:0:0:0:
256,36,27296,1,0,0:0:0:0:
256,36,27463,2,0,L|256:136,1,97.50000371933,8|4,0:1|0:3,0:0:0:0:
256,133,27879,1,0,0:0:0:0:
256,133,27963,1,0,0:0:0:0:
256,248,28296,2,0,L|256:304,2,48.750001859665,2|0|0,0:0|0:0|0:0,0:0:0:0:
356,220,28796,2,0,L|356:171,1,48.750001859665,8|2,0:1|0:0,0:0:0:0:
356,171,29129,1,0,0:0:0:0:
168,144,29463,5,4,0:0:0:0:
168,144,29629,1,0,0:0:0:0:
108,272,29963,2,0,L|116:328,1,48.750001859665,0|8,0:0|0:1,0:0:0:0:
199,303,30296,2,0,L|207:359,1,48.750001859665
274,256,30629,2,0,L|272:232,2,24.3750009298325,2|0|0,0:0|0:0|0:0,0:0:0:0:
340,320,30963,2,0,P|392:332|436:320,1,97.50000371933,0|2,0:0|0:0,0:0:0:0:
468,240,31463,2,0,L|476:172,1,48.750001859665,8|0,0:1|0:0,0:0:0:0:
384,180,31796,2,0,L|392:112,1,48.750001859665,8|0,0:1|0:0,0:0:0:0:
296,140,32129,5,4,0:0:0:0:
296,140,32296,1,0,0:0:0:0:
112,64,32629,1,0,0:0:0:0:
204,40,32796,2,0,P|212:88|204:148,1,97.50000371933,8|4,0:1|0:3,0:0:0:0:
207,136,33213,1,0,0:0:0:0:
207,136,33296,1,0,0:0:0:0:
100,324,33629,2,0,L|40:316,2,48.750001859665,8|2|0,0:1|0:0|0:0,0:0:0:0:
216,240,34129,2,0,L|164:248,1,48.750001859665,8|2,0:1|0:0,0:0:0:0:
167,247,34463,1,0,0:0:0:0:
280,356,34796,6,0,P|345:352|412:340,1,130,4|8,0:0|0:1,0:0:0:0:
472,272,35963,2,0,P|440:264|408:260,1,65
256,204,36629,1,0,0:0:0:0:
256,204,36796,2,0,P|320:185|392:172,1,130,8|4,0:1|0:0,0:0:0:0:
476,92,37963,6,0,L|480:124,2,32.5,0|8|0,0:0|0:1|0:0,0:0:0:0:
364,52,38629,2,0,P|332:56|300:52,1,65
228,32,39129,2,0,L|192:36,1,32.5
104,68,39463,5,8,0:1:0:0:
102,77,39629,1,8,0:1:0:0:
100,87,39796,1,8,0:1:0:0:
98,96,39963,1,8,0:1:0:0:
48,184,40129,6,0,L|52:256,1,65,4|0,0:2|0:0,0:0:0:0:
140,316,40463,2,0,L|144:252,1,65,8|0,0:1|0:0,0:0:0:0:
248,232,40796,2,0,L|252:304,1,65,2|0,0:3|0:0,0:0:0:0:
344,340,41129,2,0,L|348:276,1,65,8|0,3:1|0:0,0:0:0:0:
456,240,41463,6,0,P|455:274|460:305,1,65,2|0,0:3|0:0,0:0:0:0:
388,172,41796,2,0,P|391:138|392:100,1,65,8|0,3:1|0:0,0:0:0:0:
348,32,42129,2,0,P|284:48|212:32,1,130,8|4,0:3|0:3,3:0:0:0:
152,88,42629,1,4,0:3:0:0:
72,60,42796,6,0,L|64:148,1,65,4|0,0:0|0:0,0:0:0:0:
120,196,43129,2,0,L|128:284,1,65
64,312,43463,2,0,P|132:304|200:308,1,130,8|0,0:1|0:0,0:0:0:0:
256,352,43963,1,8,0:1:0:0:
328,316,44129,2,0,L|396:312,1,65
484,232,44463,2,0,L|419:235,1,65,8|0,0:1|0:0,0:0:0:0:
336,216,44796,2,0,P|312:160|348:100,2,130,8|0|4,0:1|0:0|0:0,0:0:0:0:
256,264,45796,5,2,0:0:0:0:
184,320,46129,2,0,P|124:320|84:260,1,130,0|2,0:0|0:0,0:0:0:0:
165,114,46796,2,0,P|179:177|164:240,1,130,0|2,0:0|0:0,0:0:0:0:
96,180,47463,2,0,P|48:184|0:256,2,130,0|2|0,0:0|0:0|0:0,0:0:0:0:
165,114,48463,6,0,P|233:126|297:102,1,130,2|0,0:0|0:0,0:0:0:0:
380,48,49129,1,2,0:0:0:0:
448,128,49463,2,0,L|440:264,1,130,0|2,0:0|0:0,0:0:0:0:
362,280,50129,2,0,P|401:330|464:336,2,130,0|2|0,0:0|0:0|0:0,0:0:0:0:
288,216,51129,6,0,B|304:152|304:152|288:76,2,130,2|0|2,0:0|0:0|0:0,0:0:0:0:
248,316,52129,2,0,L|184:320,1,65
104,328,52463,1,2,0:0:0:0:
0,220,52796,2,0,P|52:240|128:228,1,130,0|2,0:0|0:0,0:0:0:0:
148,144,53463,6,0,L|128:16,2,130,0|2|0,0:0|0:0|0:0,0:0:0:0:
216,216,54463,1,2,0:0:0:0:
244,128,54796,2,0,P|292:140|380:124,1,130,0|2,0:0|0:0,0:0:0:0:
444,48,55296,1,0,0:0:0:0:
444,48,55463,2,0,L|456:192,1,130,0|2,0:0|0:0,0:0:0:0:
464,260,55963,1,0,0:0:0:0:
464,260,56129,1,4,0:2:0:0:
356,332,56463,6,0,L|280:324,1,65,8|0,0:0|0:0,0:0:0:0:
216,288,56796,1,0,0:0:0:0:
140,340,56963,1,0,0:0:0:0:
60,292,57129,1,8,0:0:0:0:
136,224,57296,2,0,L|196:200,2,65
40,204,57796,2,0,P|36:168|40:132,1,65,8|0,0:0|0:0,0:0:0:0:
76,64,58129,2,0,P|140:84|204:68,1,130,0|8,0:0|0:0,0:0:0:0:
412,36,58796,6,0,L|420:108,1,65
364,204,59129,1,8,0:0:0:0:
336,120,59296,1,0,0:0:0:0:
448,216,59463,2,0,P|440:252|440:296,1,65
412,356,59796,1,8,0:0:0:0:
336,296,59963,2,0,P|272:280|204:296,1,130
144,344,60463,1,8,0:0:0:0:
72,280,60629,2,0,L|64:136,1,130
92,56,61129,2,0,P|160:64|224:52,1,130,8|0,0:0|0:0,0:0:0:0:
376,12,61796,6,0,L|384:80,1,65,8|0,0:0|0:0,0:0:0:0:
396,160,62129,1,0,0:0:0:0:
208,168,62463,2,0,P|240:160|280:164,1,65,8|0,0:0|0:0,0:0:0:0:
344,244,62796,2,0,P|312:252|272:248,1,65
240,336,63129,2,0,P|315:345|384:328,1,130,8|0,0:0|0:0,0:0:0:0:
440,296,63629,1,0,0:0:0:0:
436,216,63796,2,0,P|428:185|433:154,1,65,8|8,0:0|0:0,0:0:0:0:
384,48,64129,6,0,L|248:52,1,130,4|8,0:2|0:1,0:0:0:0:
254,51,64629,1,0,0:0:0:0:
124,136,64796,2,0,L|260:140,1,130,4|8,0:2|0:0,0:0:0:0:
254,139,65296,1,0,0:0:0:0:
324,196,65463,6,0,P|340:260|192:316,1,260,4|8,0:2|0:3,0:0:0:0:
252,252,66296,1,4,0:3:0:0:
104,340,66796,6,0,L|16:324,2,73.1250027894975,4|0|0,0:0|0:0|0:0,0:0:0:0:
84,248,67463,2,0,P|77:201|88:140,1,97.50000371933,8|0,1:0|0:0,0:0:0:0:
124,60,67963,2,0,L|120:16,2,24.3750009298325,4|0|0,0:0|0:0|0:0,0:0:0:0:
172,160,68296,2,0,L|168:204,2,24.3750009298325,4|0|0,0:0|0:0|0:0,0:0:0:0:
220,64,68629,1,0,0:0:0:0:
220,64,68796,2,0,P|270:63|324:68,1,97.50000371933,2|4,0:0|0:0,0:0:0:0:
464,68,69463,6,0,L|468:128,1,48.750001859665
384,140,69796,2,0,L|388:200,1,48.750001859665
456,256,70129,2,2,P|416:276|356:276,1,97.50000371933,8|0,0:1|0:0,0:1:0:0:
292,328,70629,2,0,L|288:372,2,24.3750009298325,4|0|0,0:0|0:0|0:0,0:0:0:0:
240,248,70963,2,0,L|236:204,2,24.3750009298325,4|0|0,0:0|0:0|0:0,0:0:0:0:
184,320,71296,1,0,0:0:0:0:
120,252,71463,2,0,L|116:212,2,24.3750009298325,8|0|0,0:1|0:0|0:0,0:0:0:0:
64,324,71796,1,8,0:1:0:0:
64,324,71963,1,8,0:1:0:0:
8,240,72129,6,0,P|18:173|4:96,1,146.250005578995,4|0,0:2|0:0,0:0:0:0:
76,36,72796,1,8,0:1:0:0:
180,135,73129,2,0,P|232:139|276:115,1,97.50000371933,4|0,0:2|0:0,0:0:0:0:
320,32,73796,2,0,P|368:28|424:52,2,97.50000371933,0|8|0,0:0|0:1|0:0,0:0:0:0:
272,120,74796,2,0,P|292:168|280:228,1,97.50000371933,4|0,0:2|0:0,0:0:0:0:
264,288,75296,1,0,0:0:0:0:
264,288,75463,1,8,0:1:0:0:
112,352,75796,6,0,L|56:332,1,48.750001859665,8|4,0:3|0:3,0:0:0:0:
112,256,76296,2,0,L|56:236,1,48.750001859665,8|0,0:3|0:3,0:0:0:0:
76,124,77463,6,0,P|140:140|203:126,1,130,4|8,0:0|0:1,0:0:0:0:
416,72,78129,2,0,P|356:84|276:68,1,130,2|8,0:0|0:1,0:0:0:0:
204,40,78629,1,0,0:0:0:0:
204,40,78796,1,2,0:0:0:0:
276,180,79129,2,0,P|296:240|276:308,2,130,8|2|8,0:1|0:0|0:1,0:0:0:0:
172,212,80129,6,0,L|176:344,1,130,2|8,0:0|0:1,0:0:0:0:
72,184,80796,2,0,P|71:148|76:112,1,65,2|0,0:0|0:0,0:0:0:0:
152,84,81129,1,8,0:1:0:0:
152,84,81296,2,0,P|212:112|276:96,1,130,4|0,0:0|0:0,0:0:0:0:
352,44,81796,2,0,P|381:57|424:84,1,65,8|0,0:1|0:0,0:0:0:0:
384,160,82129,2,0,P|399:192|416:240,1,65,2|4,0:0|0:3,0:0:0:0:
409,219,82379,1,0,0:0:0:0:
409,219,82463,1,8,0:1:0:0:
384,332,82796,6,0,P|320:316|252:332,1,130,4|8,0:0|0:1,0:0:0:0:
40,280,83463,2,0,P|104:264|172:280,1,130,2|8,0:0|0:1,0:0:0:0:
248,236,83963,1,0,0:0:0:0:
248,236,84129,1,2,0:0:0:0:
432,232,84463,2,0,L|436:92,2,130,8|2|8,0:1|0:0|0:1,0:0:0:0:
348,168,85463,6,0,P|280:168|212:160,1,130,2|8,0:0|0:1,0:0:0:0:
92,268,86129,2,0,P|152:260|236:268,1,130,2|8,0:0|0:1,0:0:0:0:
312,319,86629,1,0,0:0:0:0:
312,319,86796,1,2,0:0:0:0:
404,260,87129,6,0,L|404:348,1,65,8|0,0:1|0:0,0:0:0:0:
312,352,87463,2,0,L|312:308,2,32.5,8|0|0,0:1|0:0|0:0,0:0:0:0:
224,316,87796,1,8,0:1:0:0:
140,352,87963,1,8,0:1:0:0:
52,308,88129,6,0,P|64:236|44:172,1,130,4|8,0:0|0:1,0:0:0:0:
136,52,88796,2,0,P|124:124|144:188,1,130,2|8,0:0|0:1,0:0:0:0:
156,264,89296,1,0,0:0:0:0:
156,264,89463,1,2,0:0:0:0:
236,148,89796,2,0,L|247:277,2,130,8|2|8,0:1|0:0|0:1,0:0:0:0:
348,52,90796,6,0,P|330:114|342:177,1,130,2|8,0:0|0:1,0:0:0:0:
432,248,91463,2,0,P|449:185|437:122,1,130,2|8,0:0|0:1,0:0:0:0:
348,52,91963,2,0,P|288:64|212:48,1,130,4|0,0:0|0:0,0:0:0:0:
132,64,92463,2,0,L|52:72,1,65,8|0,0:1|0:0,0:0:0:0:
20,152,92963,1,4,0:3:0:0:
20,152,93129,1,8,0:1:0:0:
152,208,93463,6,0,P|136:272|156:344,1,130,4|0,0:0|0:0,0:0:0:0:
260,336,93963,2,0,L|260:384,2,32.5,0|0|8,0:0|0:0|0:1,0:0:0:0:
260,176,94463,2,0,L|260:144,2,32.5,0|0|8,0:0|0:0|0:1,0:0:0:0:
344,304,95129,6,0,P|408:316|476:296,1,130,4|8,0:0|0:1,0:0:0:0:
504,208,95796,1,0,0:0:0:0:
464,112,96129,2,0,P|400:100|328:116,1,130,4|0,0:0|0:0,0:0:0:0:
208,80,96796,2,0,P|225:134|221:211,1,130,8|0,0:1|0:0,0:0:0:0:
112,344,97463,6,0,L|128:196,1,130,4|0,0:0|0:0,0:0:0:0:
208,336,98129,2,0,P|239:327|284:328,1,65,8|4,0:1|0:3,0:0:0:0:
271,326,98379,1,0,0:0:0:0:
271,326,98463,1,4,0:3:0:0:
360,344,98629,1,4,0:3:0:0:
440,292,98796,6,0,L|524:304,2,65,4|0|0,0:2|0:0|1:0,0:0:0:0:
448,188,99463,2,0,L|528:161,2,65,8|0|8,0:1|0:0|0:0,0:0:0:0:
436,60,100129,2,0,L|399:113,1,65,2|0,0:0|0:0,0:0:0:0:
398,113,100463,1,0,1:0:0:0:
272,156,100796,2,0,L|136:144,1,130,8|4,0:1|0:3,0:0:0:0:
71,202,101296,1,0,0:0:0:0:
59,110,101463,6,0,P|60:78|72:48,2,65,4|0|0,0:2|0:0|1:0,0:0:0:0:
15,236,102129,2,0,P|45:222|71:203,2,65,8|0|8,0:1|0:0|0:0,1:0:0:0:
132,280,102796,2,0,P|163:288|195:288,1,65,2|0,0:0|0:0,1:0:0:0:
195,287,103129,1,0,1:0:0:0:
272,200,103463,2,0,L|276:232,2,32.5,8|0|0,0:1|0:0|0:0,0:0:0:0:
456,256,103796,2,0,L|452:224,2,32.5,8|0|0,0:1|0:0|0:0,0:0:0:0:
368,280,104129,6,0,L|384:364,2,65,4|0|0,0:2|0:0|1:0,0:0:0:0:
464,160,104796,2,0,L|452:224,2,65,8|0|8,0:1|0:0|0:0,0:0:0:0:
372,192,105463,2,0,P|338:178|312:148,1,65,4|0,0:0|0:0,0:0:0:0:
318,158,105796,1,0,1:0:0:0:
248,276,106129,2,0,L|240:356,1,65,8|0,0:1|0:0,0:0:0:0:
160,224,106463,2,0,L|152:304,1,65,0|0,1:0|1:0,1:0:0:0:
48,228,106796,6,0,P|72:200|80:168,1,65,4|0,0:2|0:0,0:0:0:0:
116,64,107129,2,0,P|140:92|148:124,1,65,2|0,0:3|0:0,0:0:0:0:
228,160,107463,2,0,P|292:168|360:136,1,130,8|4,0:1|0:3,0:0:0:0:
416,80,107963,1,4,0:3:0:0:
444,172,108129,2,0,L|436:236,1,65,8|0,0:1|0:0,0:0:0:0:
356,248,108463,2,0,L|348:312,1,65,8|0,0:1|0:0,0:0:0:0:
252,328,108796,6,0,L|204:336,3,32.5,8|0|0|0,0:3|0:0|0:0|0:0,0:0:0:0:
180,308,109129,2,0,L|132:300,3,32.5
112,328,109463,2,0,L|32:332,1,65,4|0,0:2|0:0,0:0:0:0:
8,196,109796,6,0,L|96:192,1,65,8|0,0:0|0:0,0:0:0:0:
192,120,110129,2,0,P|196:152|192:200,1,65
72,193,110462,1,8,0:0:0:0:
96,100,110629,2,0,L|80:32,2,65
192,120,111129,2,0,P|228:116|264:120,1,65,8|0,0:0|0:0,0:0:0:0:
360,48,111462,2,0,P|340:112|356:176,1,130,0|8,0:0|0:0,0:0:0:0:
464,332,112129,6,0,L|456:267,1,65
444,180,112462,1,8,0:0:0:0:
376,292,112629,1,0,0:0:0:0:
304,240,112796,2,0,P|268:232|224:232,1,65
212,356,113129,1,8,0:0:0:0:
44,276,113296,2,0,P|108:292|176:276,1,130
104,164,113796,1,8,0:0:0:0:
20,192,113962,2,0,L|12:48,1,130
192,44,114462,2,0,L|188:174,1,130,8|0,0:0|0:0,0:0:0:0:
260,340,115129,6,0,L|324:332,1,65,8|0,0:0|0:0,0:0:0:0:
428,320,115462,1,0,0:0:0:0:
472,176,115796,2,0,P|439:174|408:182,1,65,8|0,0:0|0:0,0:0:0:0:
332,236,116129,2,0,P|324:204|328:164,1,65
376,92,116462,2,0,P|301:83|232:100,1,130,8|0,0:0|0:0,0:0:0:0:
236,196,116962,1,0,0:0:0:0:
160,128,117129,2,0,P|152:97|157:66,1,65,8|0,0:0|0:0,0:0:0:0:
48,144,117463,6,0,L|52:280,1,130,4|8,0:2|0:0,0:0:0:0:
148,352,117962,1,0,0:0:0:0:
148,352,118129,2,0,L|152:216,1,130,4|8,0:2|0:0,0:0:0:0:
256,327,118796,2,0,P|308:339|400:315,1,130,4|8,0:0|0:1,0:0:0:0:
460,192,119296,1,8,0:1:0:0:
481,288,119463,2,0,L|489:340,2,32.5
364,225,119796,2,0,P|324:209|308:121,1,130,0|4,0:0|0:2,0:0:0:0:
204,20,120629,6,0,B|172:52|136:44|136:44|136:84|176:108,1,146.250005578995
68,164,121629,2,0,B|92:176|104:212|104:212|148:228|188:184,1,146.250005578995
172,336,122463,1,0,0:0:0:0:
172,336,122629,1,0,0:0:0:0:
172,336,122796,2,0,B|172:304|184:288|184:288|216:336|264:336,1,146.250005578995
352,312,123796,1,0,0:0:0:0:
440,228,124129,6,0,L|448:116,2,97.50000371933
364,124,125129,1,8,0:1:0:0:
288,187,125463,2,0,B|256:176|256:176|224:184|224:184|183:169|141:182,1,146.250005578995,4|0,0:0|0:0,0:0:0:0:
65,204,126129,1,8,0:1:0:0:
272,292,126463,2,0,P|356:268|380:164,1,195.00000743866
336,88,127463,1,8,0:1:0:0:
256,36,127796,1,0,0:0:0:0:
120,88,128129,6,0,L|116:204,1,97.50000371933,4|0,0:0|0:0,0:0:0:0:
216,292,128796,2,0,L|220:184,1,97.50000371933,8|0,0:1|0:0,0:0:0:0:
324,172,129463,1,0,0:0:0:0:
112,172,130796,6,0,P|96:236|110:299,1,130,4|8,0:2|0:1,0:0:0:0:
320,240,131462,2,0,P|260:252|180:236,1,130,2|8,0:0|0:1,0:0:0:0:
112,172,131962,1,0,0:0:0:0:
112,172,132129,1,2,0:0:0:0:
248,160,132463,2,0,P|228:100|248:32,2,130,8|2|8,0:1|0:0|0:1,0:0:0:0:
448,88,133462,6,0,L|316:92,1,130,2|8,0:0|0:1,0:0:0:0:
428,244,134129,2,0,P|427:208|432:172,1,65,2|0,0:0|0:0,0:0:0:0:
351,294,134462,1,8,0:1:0:0:
351,294,134629,2,0,P|289:307|232:280,1,130,4|0,0:0|0:0,0:0:0:0:
328,156,135129,2,0,P|315:185|288:228,1,65,8|0,0:1|0:0,1:0:0:0:
232,140,135462,2,0,P|200:155|152:172,1,65,2|4,0:0|0:3,0:0:0:0:
172,166,135712,1,0,0:0:0:0:
172,166,135796,1,8,0:1:0:0:
48,220,136129,6,0,P|35:156|51:94,1,130,4|8,0:2|0:1,0:0:0:0:
140,56,136796,2,0,P|204:72|272:56,1,130,2|8,0:0|0:1,0:0:0:0:
352,32,137296,1,0,0:0:0:0:
352,32,137462,1,2,0:0:0:0:
468,132,137796,2,0,B|404:144|404:144|332:128,2,130,8|2|8,0:1|0:0|0:1,0:0:0:0:
212,220,138796,6,0,P|280:212|348:220,1,130,4|8,0:0|0:1,0:0:0:0:
440,304,139463,2,0,P|416:336|328:352,1,130,2|8,0:0|0:1,0:0:0:0:
244,332,139962,1,0,0:0:0:0:
244,332,140129,1,2,0:0:0:0:
128,348,140462,6,0,L|128:283,1,65,8|0,0:1|0:0,0:0:0:0:
56,228,140796,2,0,L|56:184,2,32.5,8|0|0,0:1|0:0|0:0,0:0:0:0:
72,96,141129,1,8,0:1:0:0:
152,152,141296,1,8,0:1:0:0:
200,64,141462,6,0,P|272:76|336:56,1,130,4|8,0:2|0:1,0:0:0:0:
496,180,142129,2,0,P|424:168|360:188,1,130,2|8,0:0|0:1,0:0:0:0:
280,216,142629,1,0,0:0:0:0:
280,216,142796,1,2,0:0:0:0:
291,345,143129,2,0,L|280:216,2,130,8|2|8,0:1|0:0|0:1,0:0:0:0:
184,344,144129,6,0,P|122:326|59:338,1,130,2|8,0:0|0:1,0:0:0:0:
8,188,144796,2,0,P|71:205|134:193,1,130,2|8,0:0|0:1,0:0:0:0:
224,208,145296,2,0,P|212:148|228:72,1,130,4|0,0:0|0:0,0:0:0:0:
296,40,145796,2,0,L|376:48,1,65,8|0,0:1|0:0,0:0:0:0:
140,80,146296,1,4,0:3:0:0:
140,80,146462,1,8,0:1:0:0:
304,148,146796,6,0,P|368:164|440:144,1,130,4|0,0:2|0:0,0:0:0:0:
472,224,147296,2,0,L|472:272,2,32.5,0|0|8,0:0|0:0|0:1,0:0:0:0:
352,344,147796,2,0,L|352:312,2,32.5,0|0|8,0:0|0:0|0:1,0:0:0:0:
248,256,148462,6,0,P|184:244|116:264,1,130,0|8,0:0|0:1,0:0:0:0:
32,304,149129,1,0,0:0:0:0:
48,200,149463,2,0,P|36:136|52:64,1,130,4|0,0:0|0:0,0:0:0:0:
252,36,150129,6,0,L|320:48,1,65,2|0,0:0|0:0,0:0:0:0:
416,124,150463,2,0,L|352:132,1,65,8|0,0:1|0:0,0:0:0:0:
252,136,150796,2,0,L|200:132,2,32.5,4|0|0,0:3|0:0|0:0,0:0:0:0:
280,220,151129,2,0,P|320:228|356:228,1,65,0|0,1:0|0:0,0:0:0:0:
436,240,151463,2,0,L|468:248,2,32.5,8|0|0,0:1|0:0|0:0,0:0:0:0:
380,312,151796,2,0,P|356:332|320:344,1,65,8|8,0:1|0:1,0:0:0:0:
212,332,152129,5,4,0:2:0:0:
408,268,159463,6,0,L|412:216,2,32.5,8|0|0,0:1|0:0|0:0,0:0:0:0:
324,324,159796,2,0,P|292:328|252:320,1,65
116,252,160129,2,0,P|156:244|220:252,2,97.5,4|0|0,0:0|0:0|0:0,0:0:0:0:
60,180,160796,2,0,L|63:116,2,65,2|0|0,0:3|0:0|0:0,0:0:0:0:
32,276,161296,2,0,P|56:328|124:340,1,130,2|0,0:0|0:0,0:0:0:0:
208,304,161796,2,0,L|284:296,1,65
424,340,162129,2,0,L|472:344,2,32.5,0|0|0,1:0|0:0|0:0,0:0:0:0:
368,224,162463,2,0,L|320:228,2,32.5,0|0|0,1:0|0:0|0:0,0:0:0:0:
464,248,162796,6,0,P|484:204|456:112,1,130,4|0,0:0|0:0,0:0:0:0:
416,44,163296,1,0,0:0:0:0:
348,108,163463,2,0,P|288:116|204:71,1,130,8|0,0:1|0:0,0:0:0:0:
71,156,164129,6,0,B|92:142|117:146|117:146|140:188|202:201,1,130,4|4,0:0|0:3,0:0:0:0:
270,196,164629,1,4,0:3:0:0:
377,342,164796,2,0,P|362:289|376:196,1,130,8|0,0:1|0:0,0:0:0:0:
447,58,165796,6,0,P|407:94|332:68,1,130,0|8,0:0|0:1,0:0:0:0:
242,103,166463,2,0,P|184:82|116:115,1,130
39,277,167129,2,0,P|87:293|174:292,1,130,0|8,0:0|0:1,0:0:0:0:
253,254,167796,1,0,0:0:0:0:
337,351,168129,6,0,P|339:280|335:207,1,130,4|0,0:0|0:0,0:0:0:0:
438,101,168796,2,0,P|436:172|440:245,2,130,8|0|0,0:1|0:0|0:0,0:0:0:0:
360,48,169796,1,0,0:0:0:0:
300,128,170129,2,0,P|236:122|189:78,1,130,8|4,0:1|0:0,0:0:0:0:
52,212,170796,6,0,L|56:164,2,32.5
133,263,171129,2,0,L|131:328,1,65,4|0,0:0|0:0,0:0:0:0:
230,312,171463,2,0,P|279:326|368:319,1,130,8|0,0:1|0:0,0:0:0:0:
357,322,171879,1,0,0:0:0:0:
357,322,171963,1,0,0:0:0:0:
472,198,172129,6,0,L|394:210,2,65,8|0|0,0:1|0:0|0:0,0:0:0:0:
358,129,172629,2,0,L|280:141,2,65,8|0|0,0:1|0:0|0:0,0:0:0:0:
249,58,173129,2,0,L|198:66,2,32.5,8|0|0,0:1|0:0|0:0,0:0:0:0:
89,57,173463,6,0,P|79:91|86:133,1,65,4|0,0:0|0:0,0:0:0:0:
149,182,173796,2,0,P|159:216|152:258,1,65,2|0,0:0|0:0,0:0:0:0:
127,337,174129,1,8,0:1:0:0:
127,337,174296,1,0,0:0:0:0:
245,289,174463,2,0,P|280:279|320:282,1,65
394,336,174796,5,4,0:0:0:0:
394,336,174963,1,0,0:0:0:0:
444,244,175129,2,0,P|475:266|514:272,2,65,2|0|8,0:0|0:0|0:1,0:0:0:0:
448,138,175629,1,0,0:0:0:0:
362,197,175796,2,0,P|355:159|366:114,1,65
251,44,176129,6,0,L|246:121,1,65,4|0,0:0|0:0,0:0:0:0:
224,205,176463,1,2,0:0:0:0:
138,152,176629,2,0,L|143:75,1,65,4|0,0:0|0:0,0:0:0:0:
75,29,176963,1,2,0:0:0:0:
44,150,177129,2,0,L|38:196,2,32.5,4|0|0,0:3|0:0|0:0,0:0:0:0:
112,250,177463,6,0,P|143:263|187:260,1,65,8|0,0:1|0:0,0:0:0:0:
259,208,177796,1,4,0:3:0:0:
259,208,177963,1,4,0:3:0:0:
336,271,178129,2,0,P|345:303|341:352,1,65,0|0,1:0|1:0,1:0:0:0:
439,263,178463,2,0,P|430:231|434:182,1,65,0|0,1:0|1:0,1:0:0:0:
423,93,178796,6,0,P|381:116|290:103,1,130,4|8,0:0|0:1,0:0:0:0:
231,34,179463,2,0,P|164:32|91:66,1,130,0|8,0:0|0:1,0:0:0:0:
62,154,180129,2,0,P|103:203|93:290,1,130,4|8,0:0|0:1,0:0:0:0:
191,329,180796,2,0,L|185:372,2,32.5,8|0|0,0:3|0:0|0:0,0:0:0:0:
286,273,181129,2,4,P|323:273|362:264,1,65,4|4,0:3|0:3,0:3:0:0:
441,291,181463,1,4,0:0:0:0:
474,165,181796,2,0,P|422:141|390:103,1,97.5,8|0,0:1|0:0,0:0:0:0:
393,78,182129,2,0,L|401:31,6,32.5,8|0|0|0|0|0|0,0:3|0:0|0:0|0:0|0:0|0:0|0:0,0:0:0:0:
268,94,182796,6,0,P|234:105|196:103,1,65,4|0,0:0|0:0,0:0:0:0:
116,46,183129,2,0,P|105:84|104:123,1,65
61,239,183463,2,0,P|120:270|185:226,2,130,8|0|4,0:1|0:0|0:0,0:0:0:0:
256,192,194129,12,0,194796,0:0:0:0:
442,295,195129,6,0,P|397:290|340:295,1,97.50000371933,0|8,0:0|0:1,0:0:0:0:
239,336,195796,1,0,0:0:0:0:
239,336,195963,2,0,P|176:320|136:244,1,146.250005578995,0|4,0:0|0:3,0:0:0:0:
228,240,196796,1,4,0:3:0:0:
324,208,197129,2,0,P|342:176|347:105,1,97.50000371933,0|4,0:0|0:3,0:0:0:0:
252,144,197796,1,0,0:0:0:0:
116,100,198129,6,0,P|80:118|80:260,1,195.00000743866,8|4,0:1|0:3,0:0:0:0:
144,309,199129,2,0,P|160:272|148:212,1,97.50000371933,4|8,0:3|0:1,0:0:0:0:
74,254,199796,1,0,0:0:0:0:
228,337,200129,6,0,L|339:330,2,97.50000371933,0|4|0,0:0|0:3|0:0,0:0:0:0:
321,244,201129,2,0,L|432:237,2,97.50000371933,0|4|0,0:0|0:3|0:0,0:0:0:0:
385,153,202129,2,0,L|496:146,1,97.50000371933,8|8,0:3|0:1,0:0:0:0:
488,52,202629,1,8,0:1:0:0:
396,46,202796,6,0,P|356:60|301:48,1,97.50000371933,4|0,0:0|0:0,0:0:0:0:
114,128,203463,1,8,0:1:0:0:
114,128,203796,1,0,0:0:0:0:
216,28,204129,2,0,P|206:71|226:132,1,97.50000371933,4|0,0:0|0:0,0:0:0:0:
198,216,204796,1,8,0:1:0:0:
198,216,205129,1,0,0:0:0:0:
248,299,205463,6,0,P|297:297|322:247,2,97.50000371933,4|8|4,0:0|0:1|0:0,0:0:0:0:
157,301,206463,2,0,P|108:299|83:249,2,97.50000371933,8|4|8,0:1|0:0|0:1,0:0:0:0:
198,216,207463,2,0,L|198:176,2,24.3750009298325,0|0|0,1:0|0:0|0:0,0:0:0:0:
198,104,207796,2,0,L|198:64,2,24.3750009298325,0|0|0,1:0|0:0|0:0,0:0:0:0:
290,162,208129,1,4,0:0:0:0:
256,192,208213,12,0,210129,0:0:0:0:
425,121,210796,6,0,P|435:183|426:264,1,130,4|0,0:0|0:0,0:0:0:0:
360,356,211463,1,0,0:0:0:0:
259,278,211796,1,0,0:0:0:0:
259,278,211963,2,0,P|197:288|125:271,1,130,4|0,0:0|0:0,0:0:0:0:
51,158,212463,6,0,L|57:88,1,65
155,124,212796,2,0,L|161:194,1,65
257,80,213129,1,0,0:0:0:0:
332,181,213463,6,0,P|374:189|407:185,1,65,0|0,1:0|0:0,0:0:0:0:
455,109,213796,2,0,P|413:101|380:105,1,65,8|0,0:1|0:0,0:0:0:0:
260,112,214129,2,0,L|255:59,2,32.5,0|0|0,1:0|0:0|0:0,0:0:0:0:
274,252,214463,1,0,1:0:0:0:
190,183,214629,2,0,P|162:209|186:304,1,130,4|0,0:0|0:0,0:0:0:0:
337,251,215129,6,0,P|301:258|266:248,1,65
190,183,215463,2,0,P|228:176|254:159,1,65,8|0,0:1|0:0,0:0:0:0:
309,88,215796,1,0,0:0:0:0:
189,92,216129,6,0,P|127:98|79:41,1,130,4|8,0:0|0:1,0:0:0:0:
35,141,216629,2,0,L|48:274,1,130
56,352,217129,1,8,0:1:0:0:
56,352,217296,1,4,0:0:0:0:
256,272,217796,6,0,P|281:326|353:320,2,130,8|0|8,0:1|0:0|0:1,0:0:0:0:
352,200,218796,2,0,L|391:209,2,32.5,0|0|0,1:0|0:0|0:0,0:0:0:0:
288,132,219129,2,0,L|295:55,1,65,8|0,0:1|0:0,0:0:0:0:
140,89,219463,2,0,L|98:92,2,32.5,0|0|0,1:0|0:0|0:0,0:0:0:0:
186,164,219796,2,0,L|180:228,1,65,8|0,0:1|0:0,0:0:0:0:
254,343,220129,2,0,L|257:309,8,32.5,8|0|0|0|0|0|0|0|0,0:3|0:0|0:0|0:0|0:0|0:0|0:0|0:0|0:0,0:0:0:0:
469,227,221463,6,0,P|406:242|342:229,1,130,4|8,0:0|0:1,0:0:0:0:
234,147,222129,2,0,P|222:219|242:283,1,130,2|8,0:0|0:1,0:0:0:0:
164,341,222630,1,0,0:0:0:0:
164,341,222797,1,2,0:0:0:0:
72,268,223129,2,0,L|61:139,2,130,8|2|8,0:1|0:0|0:1,0:0:0:0:
164,341,224130,6,0,P|226:359|289:347,1,130,4|8,0:0|0:1,0:0:0:0:
466,271,224797,2,0,P|403:254|340:266,1,130,2|8,0:0|0:1,0:0:0:0:
256,256,225296,2,0,P|244:196|260:120,1,130,4|0,0:0|0:0,0:0:0:0:
392,40,225797,2,0,L|396:120,1,65,8|2,0:1|0:0,0:0:0:0:
256,129,226297,1,2,0:0:0:0:
256,129,226463,1,8,0:1:0:0:
99,76,226797,6,0,P|83:140|103:212,1,130,4|0,0:0|0:0,0:0:0:0:
175,273,227296,2,0,L|175:321,2,32.5,0|0|8,0:0|0:0|0:1,0:0:0:0:
250,201,227797,2,0,L|250:169,2,32.5,0|0|8,0:0|0:0|0:1,0:0:0:0:
312,314,228463,6,0,P|376:326|444:306,1,130,0|8,0:0|0:1,0:0:0:0:
373,224,229130,2,0,P|361:160|377:88,1,130,0|4,0:0|0:0,0:0:0:0:
232,96,229963,6,0,L|228:56,2,32.5
216,184,230463,2,0,P|160:196|84:184,1,130,0|4,0:0|0:0,0:0:0:0:
43,85,231129,1,0,0:0:0:0:
19,243,231463,2,0,L|23:293,6,32.5,8|0|0|0|0|0|0,0:1|0:0|0:0|0:0|0:0|0:0|0:0,0:0:0:0:
256,192,232129,12,4,234796,0:0:0:0:
388,104,235129,6,0,P|420:148|420:208,1,97.50000371933
392,308,235796,1,0,0:0:0:0:
276,332,236129,2,0,B|228:320|168:336,1,97.50000371933,4|0,0:0|0:0,0:0:0:0:
72,284,236796,1,8,0:1:0:0:
160,140,237129,6,0,P|141:184|154:251,1,97.50000371933,0|4,0:0|0:0,0:0:0:0:
232,200,237796,2,0,P|276:184|340:192,1,97.50000371933,0|8,0:0|0:1,0:0:0:0:
348,316,238463,1,0,0:0:0:0:
496,256,238796,2,0,P|449:258|395:234,1,97.50000371933,4|0,0:0|0:0,0:0:0:0:
456,160,239463,2,0,L|448:58,2,97.50000371933,8|0|4,0:1|0:0|0:0,0:0:0:0:
402,239,240463,1,0,0:0:0:0:
308,212,240796,2,0,L|314:114,1,97.50000371933
286,335,241463,6,0,L|198:327,1,65,0|0,1:0|1:0,0:0:0:0:
147,267,241796,2,0,L|59:275,1,65,0|0,1:0|1:0,0:0:0:0:
17,192,242129,2,0,L|19:148,6,32.5,8|0|0|0|0|0|0,0:1|0:0|0:0|0:0|0:0|0:0|0:0,0:0:0:0:
256,192,242796,12,4,245463,0:0:0:0:
114,75,245796,6,0,P|155:98|253:76,1,130,8|8,0:1|0:1,0:0:0:0:
306,35,246463,1,8,0:1:0:0:
395,59,246796,2,0,P|429:93|413:183,1,130,8|8,0:1|0:1,0:0:0:0:
324,136,247463,1,8,0:1:0:0:
348,236,247796,2,0,P|356:300|348:372,1,130,8|4,0:1|0:0,0:0:0:0:
244,364,248463,5,8,0:1:0:0:
152,316,248796,2,0,P|126:278|40:268,1,130,8|8,0:1|0:1,0:0:0:0:
4,172,249463,1,8,0:1:0:0:
84,104,249796,2,0,B|132:124|132:124|216:100,1,130,8|8,0:1|0:1,0:0:0:0:
292,80,250296,1,8,0:1:0:0:
292,80,250463,1,8,0:1:0:0:
396,64,250796,6,0,P|410:118|400:196,1,130,4|8,0:0|0:1,0:0:0:0:
432,292,251463,1,8,0:1:0:0:
336,332,251796,2,0,P|300:346|245:277,1,130,8|8,0:1|0:3,0:0:0:0:
248,192,252296,1,8,0:3:0:0:
136,184,252463,2,0,L|148:247,1,65,4|4,0:3|0:3,0:0:0:0:
52,323,252796,2,0,L|57:266,6,32.5,0|0|0|0|0|0|0,1:0|0:0|0:0|0:0|0:0|0:0|0:0,0:0:0:0:
256,192,253463,12,0,260129,0:0:0:0:
