osu file format v14

[General]
AudioFilename: coma.mp3
AudioLeadIn: 0
PreviewTime: 76796
Countdown: 0
SampleSet: None
StackLeniency: 0.9
Mode: 0
LetterboxInBreaks: 0
WidescreenStoryboard: 0

[Editor]
Bookmarks: 120129,260129,270963
DistanceSpacing: 1.1
BeatDivisor: 4
GridSize: 4
TimelineZoom: 2

[Metadata]
Title:COMA
TitleUnicode:COMA
Artist:ensou feat. GUMI
ArtistUnicode:ensou feat. GUMI
Creator:I am graduated
Version:Easy
Source:Cytus
Tags:vocaloid filipino megpoid
BeatmapID:1374130
BeatmapSetID:648664

[Difficulty]
HPDrainRate:2
CircleSize:3
OverallDifficulty:2
ApproachRate:3
SliderMultiplier:0.800000005960464
SliderTickRate:1

[Events]
//Background and Video events
0,0,"bg.jpg",0,0
//Break Periods
2,24329,28023
2,120329,129356
2,154996,158023
2,184329,193356
//Storyboard Layer 0 (Background)
//Storyboard Layer 1 (Fail)
//Storyboard Layer 2 (Pass)
//Storyboard Layer 3 (Foreground)
//Storyboard Sound Samples

[TimingPoints]
130,333.333333333333,4,2,1,80,1,0
2796,-100,4,3,1,80,0,1
24129,-100,4,2,1,80,0,0
29463,-100,4,2,1,40,0,0
40129,-100,4,2,1,80,0,0
45463,-100,4,2,1,60,0,0
56129,-100,4,1,1,80,0,0
66796,-100,4,3,1,80,0,0
77463,-100,4,2,2,80,0,1
98796,-100,4,2,1,80,0,0
109463,-100,4,1,1,80,0,0
130796,-100,4,2,2,80,0,1
152129,-100,4,2,1,80,0,0
159463,-100,4,3,1,80,0,0
194796,-100,4,2,1,40,0,0
202796,-100,4,2,1,80,0,0
221463,-100,4,2,2,80,0,1
232129,-100,4,2,2,80,0,0
242796,-100,4,2,2,80,0,1
253463,-100,4,2,2,80,0,0
260129,-100,4,2,2,5,0,0

[Colours]
Combo1 : 255,200,0
Combo2 : 0,200,0
Combo3 : 130,255,0
Combo4 : 255,130,65

[HitObjects]
176,80,2796,6,0,P|256:72|336:80,1,160.000001192093,0|2,0:0|0:0,0:0:0:0:
404,136,3796,2,0,P|416:216|408:304,1,160.000001192093
332,336,4796,2,0,P|324:300|332:252,1,80.0000005960464,2|0,0:0|0:0,0:0:0:0:
308,172,5463,6,0,P|228:164|140:172,1,160.000001192093,0|2,0:0|0:0,0:0:0:0:
32,232,6629,2,0,P|20:184|32:112,1,120.00000089407
84,44,7463,2,0,P|124:52|172:44,1,80.0000005960464,8|8,0:1|0:1,0:0:0:0:
248,36,8129,6,0,P|296:88|384:84,1,160.000001192093,0|2,0:0|0:0,0:0:0:0:
440,152,9129,2,0,P|412:204|432:308,1,160.000001192093
356,356,10129,1,2,0:0:0:0:
184,316,10796,6,0,P|104:324|28:296,1,160.000001192093,0|2,0:0|0:0,0:0:0:0:
124,204,11963,2,0,P|76:176|56:108,1,120.00000089407
144,120,12796,2,0,P|184:124|228:108,1,80.0000005960464,8|8,0:1|0:1,0:0:0:0:
248,28,13463,6,0,P|304:80|284:172,1,160.000001192093,0|2,0:0|0:0,0:0:0:0:
264,240,14463,2,0,P|292:292|384:328,1,160.000001192093
468,312,15463,2,0,P|460:276|464:228,1,80.0000005960464,2|0,0:0|0:0,0:0:0:0:
476,148,16129,6,0,P|412:148|348:80,1,160.000001192093,0|2,0:0|0:0,0:0:0:0:
220,56,17296,2,0,P|164:60|104:32,1,120.00000089407
76,116,18129,2,0,P|84:160|84:196,1,80.0000005960464,8|8,0:1|0:1,0:0:0:0:
28,288,18796,6,0,P|68:312|184:296,1,160.000001192093,0|2,0:0|0:0,0:0:0:0:
204,216,19796,2,0,P|278:191|353:216,1,160.000001192093,0|2,0:0|0:0,0:0:0:0:
364,304,20796,2,0,P|420:272|436:180,1,160.000001192093,2|0,0:0|0:0,0:0:0:0:
472,104,21796,5,0,0:0:0:0:
384,112,22129,2,0,P|304:120|220:108,1,160.000001192093,2|4,0:0|0:0,0:0:0:0:
156,56,23129,2,0,P|116:72|92:108,1,80.0000005960464
152,268,24129,5,0,0:0:0:0:
84,84,29463,6,0,L|92:244,1,160.000001192093,0|8,0:0|0:1,0:0:0:0:
236,348,30796,2,0,P|272:336|328:336,1,80.0000005960464
400,360,31463,2,8,P|436:348|472:312,1,80.0000005960464,8|8,0:1|0:1,0:1:0:0:
452,232,32129,6,0,P|399:175|324:188,1,160.000001192093,0|8,0:0|0:1,0:0:0:0:
240,164,33129,2,0,P|192:204|92:188,1,160.000001192093
40,128,34129,2,0,P|36:88|48:44,1,80.0000005960464,8|0,0:1|0:0,0:0:0:0:
124,88,34796,6,0,P|196:56|276:84,1,160.000001192093,4|8,0:2|0:1,0:0:0:0:
440,124,36129,2,0,P|408:148|388:196,1,80.0000005960464
464,232,36796,2,0,P|444:272|440:312,1,80.0000005960464,8|8,0:1|0:1,0:1:0:0:
356,332,37463,6,0,P|296:288|204:288,1,160.000001192093,4|8,0:2|0:1,0:0:0:0:
192,372,38463,2,0,P|132:332|140:240,1,160.000001192093
128,164,39463,2,0,P|164:172|208:204,1,80.0000005960464,8|8,0:1|0:1,0:1:0:0:
282,226,40129,6,0,P|284:187|276:148,1,80.0000005960464,4|2,0:2|0:3,0:0:0:0:
228,72,40796,2,0,P|264:64|306:66,1,80.0000005960464,8|2,0:1|0:3,0:0:0:0:
396,64,41463,2,0,P|424:88|444:136,1,80.0000005960464,4|2,0:0|0:3,0:0:0:0:
444,216,42129,1,8,3:1:0:0:
356,216,42463,1,4,0:3:0:0:
288,156,42796,6,0,P|259:178|232:214,2,80.0000005960464,4|0|8,0:0|0:0|0:1,0:0:0:0:
320,240,43796,2,0,P|308:280|308:320,2,80.0000005960464
384,180,44796,2,0,P|404:220|408:268,1,80.0000005960464,8|0,0:1|0:0,0:0:0:0:
392,340,45463,6,0,P|324:368|236:344,1,160.000001192093,4|0,0:0|0:0,0:0:0:0:
156,356,46463,1,2,0:0:0:0:
80,312,46796,2,0,P|68:252|84:152,1,160.000001192093
128,80,47796,1,2,0:0:0:0:
172,160,48129,6,0,P|247:185|327:171,1,160.000001192093
396,120,49129,1,2,0:0:0:0:
372,36,49463,2,0,P|420:35|485:125,1,160.000001192093
444,196,50463,1,2,0:0:0:0:
456,284,50796,6,0,P|416:340|328:348,1,160.000001192093
244,360,51796,1,2,0:0:0:0:
192,288,52129,2,0,P|132:240|44:264,1,160.000001192093
108,324,53129,1,2,0:0:0:0:
55,254,53463,6,0,P|56:192|72:88,1,160.000001192093
140,40,54463,1,2,0:0:0:0:
196,108,54796,2,0,P|227:181|363:141,1,240.000001788139,0|2,0:0|0:0,0:0:0:0:
408,80,56129,5,4,0:2:0:0:
448,156,56463,2,0,P|476:216|464:308,1,160.000001192093
376,320,57463,1,0,0:0:0:0:
292,296,57796,2,0,P|224:276|132:272,1,160.000001192093
48,288,58796,5,0,0:0:0:0:
76,204,59129,2,0,P|100:136|180:116,1,160.000001192093
268,108,60129,1,0,0:0:0:0:
288,196,60463,2,0,P|344:248|424:240,1,160.000001192093
468,168,61463,5,0,0:0:0:0:
404,108,61796,2,0,P|332:96|240:92,1,160.000001192093
164,60,62796,1,0,0:0:0:0:
96,116,63129,2,0,P|88:188|104:284,1,160.000001192093
164,336,64129,6,0,P|224:316|320:344,2,160.000001192093
180,160,66129,1,0,0:0:0:0:
352,148,66796,6,0,P|364:112|440:164,1,160.000001192093,0|2,0:0|0:0,0:0:0:0:
396,228,67796,2,0,P|296:220|284:88,1,240.000001788139,4|2,0:0|0:0,0:0:0:0:
200,56,69129,1,4,0:3:0:0:
156,132,69463,6,0,L|168:296,1,160.000001192093,0|2,0:0|0:0,0:0:0:0:
236,348,70463,2,0,P|280:284|440:304,1,240.000001788139,4|8,0:0|0:1,0:0:0:0:
492,232,71796,1,8,0:1:0:0:
468,148,72129,6,0,P|388:156|304:136,1,160.000001192093,4|8,0:2|0:1,0:0:0:0:
312,52,73129,2,0,P|260:64|232:172,1,160.000001192093,4|0,0:2|0:0,0:0:0:0:
272,232,74129,2,0,P|324:231|368:240,1,80.0000005960464,8|0,0:1|0:0,0:0:0:0:
392,316,74796,2,0,P|324:324|224:352,1,160.000001192093,4|8,0:2|0:1,0:0:0:0:
160,300,75796,1,4,0:0:0:0:
64,96,77463,6,0,P|136:120|228:112,1,160.000001192093,4|2,0:2|0:0,0:0:0:0:
292,64,78463,2,0,P|364:68|408:144,1,160.000001192093,8|8,0:1|0:1,0:1:0:0:
320,148,79463,2,0,P|324:184|320:232,1,80.0000005960464,2|8,0:0|0:1,0:0:0:0:
240,196,80129,6,0,P|172:220|152:304,1,160.000001192093,2|2,0:0|0:0,0:0:0:0:
236,284,81129,2,0,P|312:324|392:296,1,160.000001192093,8|8,0:1|0:1,0:0:0:0:
464,328,82129,2,0,P|464:292|448:236,1,80.0000005960464,2|8,0:0|0:1,0:0:0:0:
508,180,82796,6,0,P|436:160|368:216,1,160.000001192093,4|2,0:2|0:0,0:0:0:0:
304,152,83796,2,0,P|252:164|184:92,1,160.000001192093,8|8,0:1|0:1,0:0:0:0:
116,40,84796,2,0,P|104:72|104:120,1,80.0000005960464,2|8,0:0|0:1,0:0:0:0:
48,184,85463,6,0,L|51:263,1,80.0000005960464,2|8,0:0|0:1,0:0:0:0:
136,280,86129,2,0,L|140:376,2,80.0000005960464,2|8|2,0:0|0:1|0:0,0:0:0:0:
192,212,87129,1,8,0:1:0:0:
252,280,87463,2,0,P|292:272|340:272,1,80.0000005960464,0|0,1:0|1:0,1:0:0:0:
340,360,88129,6,0,P|408:332|416:248,1,160.000001192093,4|2,0:2|0:0,0:0:0:0:
500,208,89129,2,0,P|424:228|368:164,1,160.000001192093,8|8,0:1|0:1,0:0:0:0:
348,92,90129,2,0,P|308:96|268:92,1,80.0000005960464,2|8,0:0|0:1,0:0:0:0:
192,48,90796,6,0,P|136:36|64:116,1,160.000001192093,2|2,0:0|0:0,0:0:0:0:
152,124,91796,2,0,P|180:180|164:288,1,160.000001192093,8|8,0:1|0:1,0:0:0:0:
232,340,92796,2,0,P|260:304|268:268,1,80.0000005960464,2|8,0:0|0:1,0:0:0:0:
276,184,93463,6,0,P|320:136|416:140,1,160.000001192093,4|8,0:2|0:1,0:0:0:0:
500,236,94629,2,0,P|492:284|360:308,1,200.000001490116,4|8,0:2|0:1,0:0:0:0:
328,232,95796,1,0,0:0:0:0:
253,188,96129,2,0,P|177:193|129:256,1,160.000001192093,4|8,0:2|0:1,0:0:0:0:
56,304,97129,1,0,0:0:0:0:
24,220,97463,2,0,P|36:144|24:60,1,160.000001192093,4|8,0:2|0:1,0:0:0:0:
204,36,98796,6,0,L|254:191,1,160.000001192093,4|8,0:2|0:1,0:0:0:0:
277,267,99796,1,8,0:0:0:0:
220,336,100129,2,0,B|181:306|181:306|142:190,1,160.000001192093,4|0,0:0|1:0,0:0:0:0:
119,115,101129,1,8,0:1:0:0:
37,150,101463,6,0,L|62:233,2,80.0000005960464,4|2|8,0:0|0:0|0:1,0:0:0:0:
11,66,102463,1,8,0:0:0:0:
100,80,102796,2,0,P|184:84|268:64,1,160.000001192093,4|8,0:0|0:1,0:0:0:0:
344,56,103796,1,8,0:1:0:0:
420,100,104129,6,0,L|420:272,1,160.000001192093,4|8,0:0|0:1,0:0:0:0:
364,328,105129,1,8,0:0:0:0:
304,264,105463,2,0,L|304:180,2,80.0000005960464,4|0|8,0:0|0:0|0:1,0:0:0:0:
248,332,106463,1,8,0:1:0:0:
176,292,106796,6,0,B|80:232|80:232|80:168,1,160.000001192093,4|8,0:0|0:1,0:0:0:0:
80,96,107796,1,0,0:0:0:0:
152,144,108129,2,0,P|184:168|224:172,1,80.0000005960464,4|4,1:3|0:3,0:0:0:0:
292,116,108796,2,0,P|324:104|372:108,1,80.0000005960464,8|4,3:0|0:3,3:0:0:0:
456,112,109463,5,4,0:2:0:0:
484,196,109796,2,0,P|456:284|380:300,1,160.000001192093,8|0,0:0|0:0,0:0:0:0:
320,264,110796,1,0,0:0:0:0:
248,312,111129,2,0,P|216:300|80:312,1,160.000001192093,8|0,0:0|0:0,0:0:0:0:
16,260,112129,5,0,0:0:0:0:
48,176,112462,2,0,B|96:208|96:208|200:180,1,160.000001192093,8|0,0:0|0:0,0:0:0:0:
252,112,113462,1,0,0:0:0:0:
320,60,113796,2,0,P|396:88|424:156,1,160.000001192093,8|0,0:0|0:0,0:0:0:0:
464,236,114796,5,0,0:0:0:0:
392,288,115129,2,0,P|325:329|246:335,1,160.000001192093,8|0,0:0|0:0,0:0:0:0:
188,268,116129,1,0,0:0:0:0:
116,324,116462,2,0,P|104:244|84:164,1,160.000001192093,8|0,0:0|0:0,0:0:0:0:
164,128,117462,6,0,P|84:144|0:124,2,160.000001192093,4|0|0,0:2|0:0|0:0,0:0:0:0:
216,56,119129,2,0,P|299:60|384:56,1,160.000001192093,8|0,0:1|0:0,0:0:0:0:
432,124,120129,1,4,0:2:0:0:
96,80,130796,6,0,P|72:152|80:244,1,160.000001192093,4|2,0:0|0:0,0:0:0:0:
32,312,131796,2,0,P|112:316|168:244,1,160.000001192093,8|8,0:1|0:1,0:1:0:0:
208,184,132796,2,0,P|204:148|208:100,1,80.0000005960464,2|8,0:0|0:1,0:0:0:0:
268,40,133463,6,0,P|326:50|364:143,1,160.000001192093,2|2,0:0|0:0,0:0:0:0:
452,148,134462,2,0,P|424:208|332:216,1,160.000001192093,8|8,0:1|0:1,0:0:0:0:
276,280,135463,2,0,P|240:272|192:284,1,80.0000005960464,2|8,0:0|0:1,0:0:0:0:
124,324,136129,6,0,P|116:244|132:148,1,160.000001192093,4|2,0:2|0:0,0:0:0:0:
92,84,137129,2,0,P|136:80|212:156,1,160.000001192093,8|8,0:1|0:1,0:0:0:0:
240,240,138129,2,0,P|272:228|320:228,1,80.0000005960464,2|8,0:0|0:1,0:0:0:0:
400,260,138796,5,0,0:0:0:0:
452,188,139129,2,0,P|461:147|452:104,2,80.0000005960464,8|2|8,0:1|0:0|0:1,0:0:0:0:
376,144,140129,1,0,0:0:0:0:
332,68,140462,1,8,0:1:0:0:
248,48,140796,2,0,P|208:56|160:56,1,80.0000005960464,0|0,1:0|1:0,1:0:0:0:
88,92,141462,6,0,P|79:167|104:252,1,160.000001192093,4|2,0:2|0:0,0:0:0:0:
88,336,142463,2,0,P|164:312|188:228,1,160.000001192093,8|8,0:1|0:1,0:0:0:0:
244,172,143462,2,0,P|280:188|312:224,1,80.0000005960464,2|8,0:0|0:1,0:0:0:0:
388,176,144129,6,0,P|400:232|324:304,1,160.000001192093,2|2,0:0|0:0,0:0:0:0:
260,344,145129,2,0,P|212:300|116:296,1,160.000001192093,8|8,0:1|0:1,0:0:0:0:
36,268,146129,2,0,P|32:228|40:188,1,80.0000005960464,2|8,0:0|0:1,0:0:0:0:
72,108,146796,6,0,P|132:92|232:108,1,160.000001192093,4|8,0:2|0:1,0:0:0:0:
348,52,147962,2,0,P|384:112|392:252,1,200.000001490116,0|8,0:0|0:1,0:0:0:0:
424,324,149129,1,0,0:0:0:0:
336,308,149463,2,0,P|260:328|172:320,1,160.000001192093,4|8,0:2|0:1,0:0:0:0:
96,344,150462,1,0,0:0:0:0:
120,260,150796,2,0,P|132:184|120:100,1,160.000001192093,4|8,0:2|0:1,0:0:0:0:
184,40,151796,1,0,0:0:0:0:
256,192,152129,12,0,154796,0:0:0:0:
104,264,159463,5,2,0:3:0:0:
252,360,160129,2,0,P|248:292|256:188,1,160.000001192093,4|8,0:2|0:1,0:0:0:0:
316,84,161296,2,0,P|356:116|332:180,1,120.00000089407
254,200,162129,2,0,L|172:188,1,80.0000005960464,8|8,0:1|0:1,0:0:0:0:
100,144,162796,6,0,P|80:208|88:304,1,160.000001192093,0|4,0:0|0:2,0:0:0:0:
160,348,163796,1,0,0:0:0:0:
228,292,164129,2,0,P|268:288|320:292,1,80.0000005960464
376,344,164796,2,0,P|420:348|472:340,1,80.0000005960464,8|4,0:1|0:2,0:0:0:0:
484,172,165796,6,0,P|444:172|404:152,1,80.0000005960464,4|8,0:0|0:1,0:0:0:0:
332,112,166463,2,0,P|332:72|340:24,2,80.0000005960464,4|0|0,0:0|0:0|0:0,0:0:0:0:
304,196,167463,2,0,P|264:204|212:200,1,80.0000005960464,8|0,0:1|0:0,0:0:0:0:
164,136,168129,5,0,0:0:0:0:
88,180,168463,2,0,L|0:188,2,80.0000005960464,4|8|0,0:0|0:1|0:0,0:0:0:0:
144,248,169463,2,0,P|140:292|148:340,1,80.0000005960464,0|8,0:0|0:1,0:0:0:0:
232,348,170129,1,0,0:0:0:0:
312,308,170463,2,0,B|392:324|392:324|472:308,1,160.000001192093,4|0,0:2|0:0,0:0:0:0:
476,220,171463,2,0,P|480:180|464:128,1,80.0000005960464,8|4,0:1|0:0,0:0:0:0:
396,188,172129,6,0,L|344:184,1,40.0000002980232
276,220,172629,2,0,L|224:216,1,40.0000002980232
172,156,173129,1,0,0:0:0:0:
216,80,173463,6,0,P|256:88|296:84,1,80.0000005960464,4|0,0:2|0:0,0:0:0:0:
368,32,174129,2,0,P|412:32|456:60,1,80.0000005960464,8|0,0:1|0:0,0:0:0:0:
388,116,174796,2,0,P|368:144|360:188,1,80.0000005960464,4|0,0:2|0:0,0:0:0:0:
436,228,175463,2,0,P|444:268|440:312,1,80.0000005960464,8|0,0:1|0:0,0:0:0:0:
356,332,176129,6,0,P|292:288|204:296,1,160.000001192093,4|8,0:2|0:1,0:0:0:0:
128,312,177129,1,4,0:0:0:0:
64,248,177463,2,0,P|68:208|64:160,1,80.0000005960464,2|8,0:0|0:0,0:0:0:0:
92,84,178129,2,0,P|128:72|172:68,1,80.0000005960464
160,156,178796,6,0,P|188:192|196:240,1,80.0000005960464
272,184,179463,2,0,P|312:180|368:184,1,80.0000005960464,8|0,0:1|0:0,0:0:0:0:
428,136,180129,2,0,P|444:208|420:300,1,160.000001192093,2|8,0:0|0:0,0:0:0:0:
376,364,181129,1,4,0:0:0:0:
304,312,181463,2,0,P|248:332|148:300,1,160.000001192093,4|8,0:2|0:1,0:0:0:0:
164,216,182463,1,0,0:0:0:0:
172,128,182796,2,0,L|180:36,2,80.0000005960464,4|0|8,0:2|0:0|0:1,0:0:0:0:
156,304,184129,5,4,0:2:0:0:
256,292,194796,6,0,P|292:260|336:260,1,80.0000005960464
396,308,195463,2,0,P|444:336|512:344,2,120.00000089407,8|0|0,0:1|0:0|0:0,0:0:0:0:
400,220,196796,2,0,P|408:172|400:128,1,80.0000005960464
460,72,197463,2,0,P|400:52|324:104,1,160.000001192093,0|8,0:0|0:1,0:0:0:0:
264,164,198463,1,0,0:0:0:0:
196,108,198796,6,0,P|192:66|196:24,2,80.0000005960464,0|0|8,0:0|0:0|0:1,0:0:0:0:
108,104,199796,1,0,0:0:0:0:
152,180,200129,2,0,P|128:248|132:336,1,160.000001192093
216,352,201129,2,0,P|284:336|384:340,1,160.000001192093
432,272,202129,2,0,P|428:236|432:188,1,80.0000005960464,0|8,0:0|0:1,0:0:0:0:
476,116,202796,5,4,0:0:0:0:
420,48,203129,2,0,P|384:48|340:56,1,80.0000005960464,0|8,0:0|0:1,0:0:0:0:
288,124,203796,1,0,0:0:0:0:
216,72,204129,2,0,P|180:76|128:60,1,80.0000005960464,4|0,0:0|0:0,0:0:0:0:
56,96,204796,2,0,L|60:176,1,80.0000005960464,8|0,0:1|0:0,0:0:0:0:
96,260,205463,6,0,P|105:305|104:348,2,80.0000005960464,4|4|8,0:0|0:0|0:1,0:0:0:0:
172,212,206463,1,8,0:1:0:0:
240,268,206796,2,0,P|230:313|232:356,2,80.0000005960464,4|4|8,0:0|0:0|0:1,0:0:0:0:
304,204,207796,1,8,0:1:0:0:
380,252,208129,5,4,0:2:0:0:
256,192,208296,12,0,209796,0:0:0:0:
256,72,210796,5,4,0:0:0:0:
136,200,211463,2,0,P|180:180|252:188,1,120.00000089407,0|4,0:0|0:2,0:0:0:0:
316,300,212463,2,0,P|384:348|464:324,1,160.000001192093
476,248,213463,2,0,L|480:164,1,80.0000005960464,8|8,0:1|0:1,0:0:0:0:
392,184,214129,2,0,P|336:176|284:120,1,120.00000089407,0|4,0:0|0:2,0:0:0:0:
192,48,215129,6,0,B|164:56|136:76|136:76|88:56|36:76,1,160.000001192093
76,156,216129,1,4,0:0:0:0:
208,144,216629,2,4,P|230:217|232:312,1,160.000001192093,0|4,0:0|0:0,0:0:0:0:
364,328,217796,6,0,L|460:340,2,80.0000005960464,8|0|8,0:1|0:0|0:1,0:0:0:0:
336,244,218796,2,0,L|344:84,1,160.000001192093,4|0,0:0|0:0,0:0:0:0:
268,40,219796,1,8,0:1:0:0:
180,60,220129,1,0,0:0:0:0:
244,236,221463,6,0,P|316:260|404:232,1,160.000001192093,4|2,0:2|0:0,0:0:0:0:
484,252,222464,2,0,P|460:176|376:152,1,160.000001192093,8|8,0:1|0:1,0:0:0:0:
304,128,223463,2,0,P|264:130|219:114,1,80.0000005960464,2|8,0:0|0:1,0:0:0:0:
188,40,224130,6,0,P|140:96|160:184,1,160.000001192093,2|2,0:0|0:0,0:0:0:0:
92,240,225130,2,0,P|148:268|232:220,1,160.000001192093,8|8,0:1|0:1,0:0:0:0:
312,248,226130,2,0,P|308:288|316:328,1,80.0000005960464,2|8,0:0|0:1,0:0:0:0:
392,284,226797,6,0,P|408:224|392:124,1,160.000001192093,4|8,0:2|0:1,0:0:0:0:
288,52,227963,2,0,P|220:96|88:96,1,200.000001490116,0|8,0:0|0:1,0:0:0:0:
32,48,229130,1,0,0:0:0:0:
24,136,229464,2,0,P|4:212|12:300,1,160.000001192093,4|8,0:2|0:1,0:0:0:0:
80,344,230463,1,0,0:0:0:0:
152,292,230797,2,0,P|228:280|312:292,1,160.000001192093,4|8,0:2|0:1,0:0:0:0:
396,300,231797,1,0,0:0:0:0:
256,192,232129,12,4,234796,0:0:0:0:
412,176,236129,6,0,P|420:212|412:264,1,80.0000005960464
332,280,236796,2,0,P|268:264|172:292,1,160.000001192093,8|4,0:1|0:0,0:0:0:0:
24,200,238129,6,0,P|104:208|160:144,1,160.000001192093,8|0,0:1|0:0,0:0:0:0:
204,80,239129,2,0,P|232:72|288:80,1,80.0000005960464,0|8,0:0|0:1,0:0:0:0:
460,80,240129,6,0,P|400:116|396:216,1,160.000001192093,4|8,0:0|0:1,0:0:0:0:
288,344,241463,2,0,P|216:336|172:256,1,160.000001192093,4|8,0:0|0:3,0:0:0:0:
260,256,242463,1,4,0:3:0:0:
256,192,242796,12,0,245463,0:0:0:0:
72,148,246796,6,0,L|80:308,1,160.000001192093,8|8,0:1|0:1,0:0:0:0:
156,352,247796,1,8,0:1:0:0:
160,264,248129,2,0,P|244:248|328:264,1,160.000001192093,8|8,0:1|0:1,0:0:0:0:
360,336,249129,1,8,0:1:0:0:
412,264,249463,2,0,P|396:204|416:104,1,160.000001192093,8|8,0:1|0:1,0:0:0:0:
360,36,250463,1,8,0:1:0:0:
320,116,250796,6,0,P|248:144|156:124,1,160.000001192093,8|8,0:1|0:1,0:0:0:0:
128,52,251796,1,8,0:1:0:0:
76,128,252129,2,0,L|96:300,1,160.000001192093,8|8,0:1|0:1,0:0:0:0:
160,344,253129,1,8,0:1:0:0:
256,192,253463,12,0,260129,0:0:0:0:
