osu file format v14

[General]
AudioFilename: [Rhythmix OST] encX - One Day.mp3
AudioLeadIn: 0
PreviewTime: 39545
Countdown: 0
SampleSet: Soft
StackLeniency: 0.7
Mode: 3
LetterboxInBreaks: 0
SpecialStyle: 0
WidescreenStoryboard: 0

[Editor]
DistanceSpacing: 0.8
BeatDivisor: 8
GridSize: 32
TimelineZoom: 1.8

[Metadata]
Title:One Day
TitleUnicode:One Day
Artist:encX
ArtistUnicode:encX
Creator:nowsmart
Version:Normal
Source:Rhythmix
Tags:thapster drum&bass starlab game sinoze
BeatmapID:444797
BeatmapSetID:186052

[Difficulty]
HPDrainRate:7.5
CircleSize:7
OverallDifficulty:7
ApproachRate:5
SliderMultiplier:1.4
SliderTickRate:1

[Events]
//Background and Video events
0,0,"bgcrop.jpg",0,0
//Break Periods
//Storyboard Layer 0 (Background)
//Storyboard Layer 1 (Fail)
//Storyboard Layer 2 (Pass)
//Storyboard Layer 3 (Foreground)
//Storyboard Sound Samples

[TimingPoints]
5663,352.941176470588,4,2,0,10,1,0
16957,352.941176470588,4,2,0,20,1,0
107309,-100,4,2,0,20,0,1
118604,-100,4,2,0,20,0,0

[HitObjects]
36,192,5663,5,0,0:0:0:20:soft-hitwhistle.wav
402,192,6015,1,0,0:0:0:30:normal-hitclap.wav
36,192,6192,1,0,0:0:0:20:soft-hitwhistle.wav
475,192,6545,1,0,0:0:0:30:normal-hitclap.wav
36,192,7251,1,0,0:0:0:20:soft-hitwhistle.wav
402,192,7427,1,0,0:0:0:30:normal-hitclap.wav
36,192,7604,1,0,0:0:0:20:soft-hitwhistle.wav
256,192,8133,1,0,0:0:0:30:normal-hitclap.wav
475,192,8310,1,0,0:0:0:30:normal-hitclap.wav
109,192,8486,1,0,0:0:0:20:soft-hitwhistle.wav
402,192,8839,1,0,0:0:0:30:normal-hitclap.wav
109,192,9015,1,0,0:0:0:20:soft-hitwhistle.wav
475,192,9368,1,0,0:0:0:30:normal-hitclap.wav
109,192,10074,1,0,0:0:0:20:soft-hitwhistle.wav
402,192,10251,1,0,0:0:0:30:normal-hitclap.wav
109,192,10427,1,0,0:0:0:20:soft-hitwhistle.wav
256,192,10957,1,0,0:0:0:30:normal-hitclap.wav
475,192,11133,1,0,0:0:0:30:normal-hitclap.wav
182,192,11310,1,0,0:0:0:20:soft-hitwhistle.wav
402,192,11662,1,0,0:0:0:30:normal-hitclap.wav
182,192,11839,1,0,0:0:0:20:soft-hitwhistle.wav
475,192,12192,1,0,0:0:0:30:normal-hitclap.wav
182,192,12898,1,0,0:0:0:20:soft-hitwhistle.wav
402,192,13074,1,0,0:0:0:30:normal-hitclap.wav
182,192,13251,1,0,0:0:0:20:soft-hitwhistle.wav
256,192,13780,1,0,0:0:0:30:normal-hitclap.wav
475,192,13957,1,0,0:0:0:30:normal-hitclap.wav
36,192,14133,1,0,0:0:0:20:soft-hitwhistle.wav
402,192,14486,1,0,0:0:0:0:
256,192,14662,1,0,0:0:0:20:soft-hitwhistle.wav
475,192,15015,1,0,0:0:0:0:
109,192,15545,1,4,0:0:0:20:soft-hitwhistle.wav
329,192,15545,128,0,16251:0:0:0:0:
36,192,16251,1,0,0:0:0:40:normal-hitclap.wav
402,192,16251,1,0,0:0:0:0:
109,192,16604,1,0,0:0:0:40:normal-hitclap.wav
475,192,16604,1,0,0:0:0:0:
256,192,16957,1,0,0:0:0:40:soft-hitwhistle.wav
182,192,16957,1,0,0:0:0:0:
329,192,17309,1,0,0:0:0:0:
475,192,17309,1,0,0:0:0:40:normal-hitclap.wav
36,192,17486,1,0,0:0:0:40:soft-hitwhistle.wav
402,192,17839,1,0,0:0:0:0:
475,192,17839,1,0,0:0:0:40:normal-hitclap.wav
182,192,18015,1,0,0:0:0:40:soft-hitwhistle.wav
256,192,18368,1,0,0:0:0:40:soft-hitwhistle.wav
36,192,18545,1,0,0:0:0:40:soft-hitwhistle.wav
182,192,18633,1,0,0:0:0:40:soft-hitwhistle.wav
329,192,18721,1,0,0:0:0:0:
475,192,18721,1,0,0:0:0:40:normal-hitclap.wav
109,192,18898,1,0,0:0:0:40:soft-hitwhistle.wav
256,192,19251,1,0,0:0:0:40:soft-hitwhistle.wav
402,192,19427,1,0,0:0:0:0:
475,192,19427,1,0,0:0:0:40:normal-hitclap.wav
109,192,19515,1,0,0:0:0:40:soft-hitwhistle.wav
182,192,19780,1,0,0:0:0:40:soft-hitwhistle.wav
329,192,20133,1,0,0:0:0:0:
475,192,20133,1,0,0:0:0:40:normal-hitclap.wav
36,192,20309,1,0,0:0:0:40:soft-hitwhistle.wav
402,192,20662,1,0,0:0:0:0:
475,192,20662,1,0,0:0:0:40:normal-hitclap.wav
182,192,20839,1,0,0:0:0:40:soft-hitwhistle.wav
256,192,21192,1,0,0:0:0:40:soft-hitwhistle.wav
36,192,21368,1,0,0:0:0:40:soft-hitwhistle.wav
182,192,21456,1,0,0:0:0:40:soft-hitwhistle.wav
329,192,21545,1,0,0:0:0:0:
475,192,21545,1,0,0:0:0:40:normal-hitclap.wav
109,192,21721,1,0,0:0:0:40:soft-hitwhistle.wav
256,192,22074,1,0,0:0:0:40:soft-hitwhistle.wav
402,192,22251,1,0,0:0:0:0:
475,192,22251,1,0,0:0:0:40:normal-hitclap.wav
109,192,22339,1,0,0:0:0:40:soft-hitwhistle.wav
36,192,22604,1,0,0:0:0:40:soft-hitwhistle.wav
329,192,22956,1,0,0:0:0:0:
475,192,22956,1,0,0:0:0:40:normal-hitclap.wav
109,192,23133,1,0,0:0:0:40:soft-hitwhistle.wav
402,192,23486,1,0,0:0:0:0:
475,192,23486,1,0,0:0:0:40:normal-hitclap.wav
182,192,23662,1,0,0:0:0:40:soft-hitwhistle.wav
256,192,24015,1,0,0:0:0:40:soft-hitwhistle.wav
36,192,24192,1,0,0:0:0:40:soft-hitwhistle.wav
182,192,24280,1,0,0:0:0:40:soft-hitwhistle.wav
329,192,24368,1,0,0:0:0:0:
475,192,24368,1,0,0:0:0:40:normal-hitclap.wav
109,192,24545,1,0,0:0:0:40:soft-hitwhistle.wav
256,192,24898,1,0,0:0:0:40:soft-hitwhistle.wav
475,192,25074,1,0,0:0:0:40:normal-hitclap.wav
402,192,25074,1,0,0:0:0:0:
109,192,25162,1,0,0:0:0:40:soft-hitwhistle.wav
182,192,25427,1,0,0:0:0:40:soft-hitwhistle.wav
329,192,25780,1,0,0:0:0:0:
475,192,25780,1,0,0:0:0:40:normal-hitclap.wav
36,192,25956,1,0,0:0:0:40:soft-hitwhistle.wav
402,192,26309,1,0,0:0:0:0:
475,192,26309,1,0,0:0:0:40:normal-hitclap.wav
182,192,26486,1,0,0:0:0:40:soft-hitwhistle.wav
109,192,26839,1,0,0:0:0:40:soft-hitwhistle.wav
256,192,26839,128,0,28251:0:0:0:0:
329,192,27192,1,0,0:0:0:0:
475,192,27192,1,0,0:0:0:40:normal-hitclap.wav
36,192,27368,1,0,0:0:0:40:soft-hitwhistle.wav
182,192,27721,1,0,0:0:0:40:soft-hitwhistle.wav
402,192,27898,1,0,0:0:0:0:
475,192,27898,1,0,0:0:0:40:normal-hitclap.wav
109,192,27986,1,0,0:0:0:40:soft-hitwhistle.wav
329,192,28251,1,0,0:0:0:0:
402,192,28251,1,0,0:0:0:40:soft-hitwhistle.wav
36,192,28604,1,0,0:0:0:40:normal-hitclap.wav
182,192,28604,1,0,0:0:0:0:
402,192,28780,1,0,0:0:0:40:soft-hitwhistle.wav
109,192,29133,1,0,0:0:0:0:
36,192,29133,1,0,0:0:0:40:normal-hitclap.wav
475,192,29309,1,0,0:0:0:40:soft-hitwhistle.wav
256,192,29662,1,0,0:0:0:40:soft-hitwhistle.wav
475,192,29839,1,0,0:0:0:40:soft-hitwhistle.wav
329,192,29927,1,0,0:0:0:40:soft-hitwhistle.wav
182,192,30015,1,0,0:0:0:0:
36,192,30015,1,0,0:0:0:40:normal-hitclap.wav
402,192,30192,1,0,0:0:0:40:soft-hitwhistle.wav
256,192,30545,1,0,0:0:0:40:soft-hitwhistle.wav
36,192,30721,1,0,0:0:0:40:normal-hitclap.wav
109,192,30721,1,0,0:0:0:40:normal-hitclap.wav
402,192,30809,1,0,0:0:0:40:soft-hitwhistle.wav
329,192,31074,1,0,0:0:0:40:soft-hitwhistle.wav
182,192,31427,1,0,0:0:0:0:
36,192,31427,1,0,0:0:0:40:normal-hitclap.wav
329,192,31604,1,0,0:0:0:40:soft-hitwhistle.wav
36,192,31956,1,0,0:0:0:40:normal-hitclap.wav
109,192,31956,1,0,0:0:0:0:
475,192,32089,1,0,0:0:0:40:normal-hitclap.wav
402,192,32089,1,0,0:0:0:0:
109,192,32221,1,0,0:0:0:40:normal-hitclap.wav
36,192,32221,1,0,0:0:0:0:
475,192,32354,1,0,0:0:0:40:normal-hitclap.wav
402,192,32354,1,0,0:0:0:0:
36,192,32486,1,0,0:0:0:40:normal-hitclap.wav
109,192,32486,1,0,0:0:0:0:
475,192,32618,1,0,0:0:0:40:normal-hitclap.wav
402,192,32618,1,0,0:0:0:0:
36,192,32751,1,0,0:0:0:40:normal-hitclap.wav
109,192,32751,1,0,0:0:0:0:
402,192,33015,1,0,0:0:0:40:soft-hitwhistle.wav
256,192,33368,1,0,0:0:0:40:soft-hitwhistle.wav
36,192,33545,1,0,0:0:0:40:normal-hitclap.wav
109,192,33545,1,0,0:0:0:0:
475,192,33633,1,0,0:0:0:40:soft-hitwhistle.wav
329,192,33898,1,0,0:0:0:40:soft-hitwhistle.wav
182,192,34251,1,0,0:0:0:0:
36,192,34251,1,0,0:0:0:40:normal-hitclap.wav
402,192,34427,1,0,0:0:0:40:soft-hitwhistle.wav
36,192,34780,1,0,0:0:0:40:normal-hitclap.wav
109,192,34780,1,0,0:0:0:0:
329,192,34956,1,0,0:0:0:40:soft-hitwhistle.wav
256,192,35309,1,0,0:0:0:40:soft-hitwhistle.wav
475,192,35486,1,0,0:0:0:40:soft-hitwhistle.wav
329,192,35574,1,0,0:0:0:40:soft-hitwhistle.wav
182,192,35662,1,0,0:0:0:0:
36,192,35662,1,0,0:0:0:40:normal-hitclap.wav
402,192,35839,1,0,0:0:0:40:soft-hitwhistle.wav
256,192,36192,1,0,0:0:0:40:soft-hitwhistle.wav
36,192,36368,1,0,0:0:0:40:normal-hitclap.wav
109,192,36368,1,0,0:0:0:0:
475,192,36456,1,0,0:0:0:40:soft-hitwhistle.wav
329,192,36721,1,0,0:0:0:40:soft-hitwhistle.wav
182,192,37074,1,0,0:0:0:0:
36,192,37074,1,0,0:0:0:40:normal-hitclap.wav
402,192,37251,1,0,0:0:0:40:soft-hitwhistle.wav
36,192,37604,1,0,0:0:0:40:normal-hitclap.wav
109,192,37604,1,0,0:0:0:0:
475,192,37780,1,0,0:0:0:40:soft-hitwhistle.wav
256,192,38133,1,0,0:0:0:40:soft-hitwhistle.wav
402,192,38309,1,0,0:0:0:40:soft-hitwhistle.wav
329,192,38398,1,0,0:0:0:40:soft-hitwhistle.wav
182,192,38486,1,0,0:0:0:0:
36,192,38486,1,0,0:0:0:40:normal-hitclap.wav
475,192,38662,1,0,0:0:0:40:soft-hitwhistle.wav
329,192,39015,1,0,0:0:0:40:soft-hitwhistle.wav
109,192,39192,1,0,0:0:0:0:
36,192,39192,1,0,0:0:0:40:normal-hitclap.wav
402,192,39280,1,0,0:0:0:40:soft-hitwhistle.wav
256,192,39545,1,4,0:0:0:40:soft-hitwhistle.wav
36,192,39545,1,0,0:0:0:0:
182,192,39721,1,0,0:0:0:0:
329,192,39898,1,0,0:0:0:0:
475,192,39898,1,0,0:0:0:40:normal-hitclap.wav
109,192,40074,1,0,0:0:0:40:soft-hitwhistle.wav
402,192,40427,1,0,0:0:0:40:soft-hitwhistle.wav
475,192,40427,1,0,0:0:0:40:normal-hitclap.wav
182,192,40780,1,0,0:0:0:0:
36,192,41133,1,0,0:0:0:40:soft-hitwhistle.wav
329,192,41309,1,0,0:0:0:0:
475,192,41309,1,0,0:0:0:40:normal-hitclap.wav
109,192,41486,1,0,0:0:0:40:soft-hitwhistle.wav
256,192,42015,1,0,0:0:0:0:
329,192,42015,1,0,0:0:0:40:normal-hitclap.wav
402,192,42192,1,0,0:0:0:40:normal-hitclap.wav
475,192,42192,1,0,0:0:0:0:
109,192,42368,1,0,0:0:0:40:soft-hitwhistle.wav
182,192,42545,1,0,0:0:0:0:
329,192,42721,1,0,0:0:0:0:
475,192,42721,1,0,0:0:0:40:normal-hitclap.wav
36,192,42898,1,0,0:0:0:40:soft-hitwhistle.wav
402,192,43251,1,0,0:0:0:40:soft-hitwhistle.wav
475,192,43251,1,0,0:0:0:40:normal-hitclap.wav
182,192,43604,1,0,0:0:0:0:
109,192,43956,1,0,0:0:0:40:soft-hitwhistle.wav
329,192,44133,1,0,0:0:0:0:
475,192,44133,1,0,0:0:0:40:normal-hitclap.wav
36,192,44309,1,0,0:0:0:40:soft-hitwhistle.wav
256,192,44839,1,0,0:0:0:0:
402,192,44839,1,0,0:0:0:40:normal-hitclap.wav
256,192,45015,1,0,0:0:0:0:
402,192,45015,1,0,0:0:0:40:normal-hitclap.wav
36,192,45192,1,0,0:0:0:40:soft-hitwhistle.wav
182,192,45368,1,0,0:0:0:0:
329,192,45545,1,0,0:0:0:0:
475,192,45545,1,0,0:0:0:40:normal-hitclap.wav
109,192,45721,1,0,0:0:0:40:soft-hitwhistle.wav
402,192,46074,1,0,0:0:0:40:soft-hitwhistle.wav
475,192,46074,1,0,0:0:0:40:normal-hitclap.wav
256,192,46427,128,0,46780:0:0:0:0:
36,192,46780,1,0,0:0:0:40:soft-hitwhistle.wav
329,192,46956,1,0,0:0:0:0:
475,192,46956,1,0,0:0:0:40:normal-hitclap.wav
109,192,47133,1,0,0:0:0:40:soft-hitwhistle.wav
329,192,47662,1,0,0:0:0:40:normal-hitclap.wav
256,192,47662,1,0,0:0:0:0:
402,192,47839,1,0,0:0:0:40:normal-hitclap.wav
475,192,47839,1,0,0:0:0:0:
109,192,48015,1,0,0:0:0:40:soft-hitwhistle.wav
182,192,48192,1,0,0:0:0:0:
329,192,48368,1,0,0:0:0:0:
475,192,48368,1,0,0:0:0:40:normal-hitclap.wav
36,192,48545,1,0,0:0:0:40:soft-hitwhistle.wav
402,192,48898,1,0,0:0:0:40:soft-hitwhistle.wav
475,192,48898,1,0,0:0:0:40:normal-hitclap.wav
182,192,49251,1,0,0:0:0:0:
109,192,49604,1,0,0:0:0:40:soft-hitwhistle.wav
329,192,49780,1,0,0:0:0:0:
475,192,49780,1,0,0:0:0:40:normal-hitclap.wav
36,192,49956,1,0,0:0:0:40:soft-hitwhistle.wav
256,192,50486,1,0,0:0:0:40:normal-hitclap.wav
329,192,50486,1,0,0:0:0:0:
182,192,50662,1,0,0:0:0:40:normal-hitclap.wav
109,192,50662,1,0,0:0:0:0:
475,192,50839,1,0,0:0:0:40:soft-hitwhistle.wav
329,192,51015,1,0,0:0:0:0:
182,192,51192,1,0,0:0:0:0:
36,192,51192,1,0,0:0:0:40:normal-hitclap.wav
402,192,51368,1,0,0:0:0:40:soft-hitwhistle.wav
109,192,51721,1,0,0:0:0:40:soft-hitwhistle.wav
36,192,51721,1,0,0:0:0:40:normal-hitclap.wav
329,192,52074,1,0,0:0:0:0:
475,192,52427,1,0,0:0:0:40:soft-hitwhistle.wav
182,192,52604,1,0,0:0:0:0:
36,192,52604,1,0,0:0:0:40:normal-hitclap.wav
402,192,52780,1,0,0:0:0:40:soft-hitwhistle.wav
256,192,53309,1,0,0:0:0:0:
182,192,53309,1,0,0:0:0:40:normal-hitclap.wav
109,192,53486,1,0,0:0:0:40:normal-hitclap.wav
36,192,53486,1,0,0:0:0:0:
402,192,53662,1,0,0:0:0:40:soft-hitwhistle.wav
329,192,53839,1,0,0:0:0:0:
182,192,54015,1,0,0:0:0:0:
36,192,54015,1,0,0:0:0:40:normal-hitclap.wav
475,192,54192,1,0,0:0:0:40:soft-hitwhistle.wav
109,192,54545,1,0,0:0:0:40:soft-hitwhistle.wav
36,192,54545,1,0,0:0:0:40:normal-hitclap.wav
329,192,54898,1,0,0:0:0:0:
402,192,55251,1,0,0:0:0:40:soft-hitwhistle.wav
182,192,55427,1,0,0:0:0:0:
36,192,55427,1,0,0:0:0:40:normal-hitclap.wav
475,192,55604,1,0,0:0:0:40:soft-hitwhistle.wav
109,192,56133,1,0,0:0:0:40:normal-hitclap.wav
256,192,56133,1,0,0:0:0:0:
256,192,56309,1,0,0:0:0:0:
109,192,56309,1,0,0:0:0:40:normal-hitclap.wav
475,192,56486,1,0,0:0:0:40:soft-hitwhistle.wav
329,192,56662,1,0,0:0:0:0:
182,192,56839,1,0,0:0:0:0:
36,192,56839,1,0,0:0:0:40:normal-hitclap.wav
402,192,57015,1,0,0:0:0:40:soft-hitwhistle.wav
109,192,57368,1,0,0:0:0:40:soft-hitwhistle.wav
36,192,57368,1,0,0:0:0:40:normal-hitclap.wav
329,192,57721,1,0,0:0:0:0:
475,192,58074,1,0,0:0:0:40:soft-hitwhistle.wav
182,192,58251,1,0,0:0:0:0:
36,192,58251,1,0,0:0:0:40:normal-hitclap.wav
402,192,58427,1,0,0:0:0:40:soft-hitwhistle.wav
256,192,58956,1,0,0:0:0:0:
182,192,58956,1,0,0:0:0:40:normal-hitclap.wav
109,192,59133,1,0,0:0:0:40:normal-hitclap.wav
36,192,59133,1,0,0:0:0:0:
402,192,59309,1,0,0:0:0:40:soft-hitwhistle.wav
329,192,59486,1,0,0:0:0:0:
182,192,59662,1,0,0:0:0:0:
36,192,59662,1,0,0:0:0:40:normal-hitclap.wav
475,192,59839,1,0,0:0:0:40:soft-hitwhistle.wav
109,192,60192,1,0,0:0:0:40:soft-hitwhistle.wav
36,192,60192,1,0,0:0:0:40:normal-hitclap.wav
329,192,60545,1,0,0:0:0:0:
402,192,60898,1,0,0:0:0:40:soft-hitwhistle.wav
182,192,61074,1,0,0:0:0:0:
36,192,61074,1,0,0:0:0:40:normal-hitclap.wav
475,192,61251,1,0,0:0:0:40:soft-hitwhistle.wav
109,192,61780,1,0,0:0:0:40:normal-hitclap.wav
402,192,61956,1,0,0:0:0:40:normal-hitclap.wav
36,192,62133,1,0,0:0:0:40:soft-hitwhistle.wav
475,192,62133,128,0,64956:0:0:0:0:
329,192,64956,128,0,67780:0:0:0:0:
256,192,67780,128,0,70604:0:0:0:0:
109,192,70604,128,0,73427:0:0:0:0:
256,192,73427,1,0,0:0:0:40:soft-hitwhistle.wav
475,192,73604,128,0,73780:0:0:0:0:
36,192,73956,128,0,74133:0:0:0:0:
475,192,74309,128,0,74486:0:0:0:0:
36,192,74662,128,0,74839:0:0:0:0:
475,192,75015,128,0,75192:0:0:0:0:
36,192,75368,128,0,75545:0:0:0:0:
475,192,75721,128,0,75898:0:0:0:0:
36,192,76074,128,0,76251:0:0:0:0:
402,192,76427,128,0,76604:0:0:0:0:
182,192,76780,128,0,76956:0:0:0:0:
402,192,77133,128,0,77309:0:0:0:0:
182,192,77486,128,0,77662:0:0:0:0:
402,192,77839,128,0,78015:0:0:0:0:
182,192,78192,128,0,78368:0:0:0:0:
402,192,78545,128,0,78721:0:0:0:0:
182,192,78898,128,0,79074:0:0:0:0:
329,192,79251,128,0,79427:0:0:0:0:
109,192,79604,128,0,79780:0:0:0:0:
329,192,79956,128,0,80133:0:0:0:0:
109,192,80309,128,0,80486:0:0:0:0:
329,192,80662,128,0,80839:0:0:0:0:
109,192,81015,128,0,81192:0:0:0:0:
329,192,81368,128,0,81545:0:0:0:0:
109,192,81721,128,0,81898:0:0:0:0:
475,192,82074,128,0,82251:0:0:0:0:
256,192,82427,128,0,82604:0:0:0:0:
475,192,82780,128,0,82956:0:0:0:0:
256,192,83133,128,0,83309:0:0:0:0:
36,192,83309,1,0,0:0:0:0:
109,192,83427,1,0,0:0:0:0:
182,192,83545,1,0,0:0:0:0:
475,192,83662,1,0,0:0:0:0:
402,192,83780,1,0,0:0:0:0:
329,192,83898,1,0,0:0:0:0:
36,192,84015,1,0,0:0:0:0:
109,192,84133,1,0,0:0:0:0:
182,192,84251,1,0,0:0:0:0:
475,192,84368,1,0,0:0:0:0:
402,192,84486,1,0,0:0:0:0:
329,192,84604,1,0,0:0:0:0:
36,192,84721,1,0,0:0:0:0:
256,192,84721,1,0,0:0:0:40:soft-hitwhistle.wav
109,192,84898,1,0,0:0:0:0:
329,192,85074,1,0,0:0:0:0:
475,192,85074,1,0,0:0:0:40:normal-hitclap.wav
182,192,85251,1,0,0:0:0:40:soft-hitwhistle.wav
402,192,85604,1,0,0:0:0:40:soft-hitwhistle.wav
475,192,85604,1,0,0:0:0:40:normal-hitclap.wav
109,192,85956,1,0,0:0:0:0:
182,192,86309,1,0,0:0:0:40:soft-hitwhistle.wav
329,192,86486,1,0,0:0:0:0:
475,192,86486,1,0,0:0:0:40:normal-hitclap.wav
36,192,86662,1,0,0:0:0:40:soft-hitwhistle.wav
256,192,87192,1,0,0:0:0:0:
329,192,87192,1,0,0:0:0:40:normal-hitclap.wav
402,192,87368,1,0,0:0:0:40:normal-hitclap.wav
475,192,87368,1,0,0:0:0:0:
182,192,87545,1,0,0:0:0:40:soft-hitwhistle.wav
109,192,87721,1,0,0:0:0:0:
329,192,87898,1,0,0:0:0:0:
475,192,87898,1,0,0:0:0:40:normal-hitclap.wav
36,192,88074,1,0,0:0:0:40:soft-hitwhistle.wav
402,192,88427,1,0,0:0:0:40:soft-hitwhistle.wav
475,192,88427,1,0,0:0:0:40:normal-hitclap.wav
109,192,88780,1,0,0:0:0:0:
36,192,89133,1,0,0:0:0:40:soft-hitwhistle.wav
329,192,89309,1,0,0:0:0:0:
475,192,89309,1,0,0:0:0:40:normal-hitclap.wav
182,192,89486,1,0,0:0:0:40:soft-hitwhistle.wav
402,192,90015,1,0,0:0:0:40:normal-hitclap.wav
256,192,90015,1,0,0:0:0:0:
402,192,90192,1,0,0:0:0:40:normal-hitclap.wav
256,192,90192,1,0,0:0:0:0:
36,192,90368,1,0,0:0:0:40:soft-hitwhistle.wav
109,192,90545,1,0,0:0:0:0:
329,192,90721,1,0,0:0:0:0:
475,192,90721,1,0,0:0:0:40:normal-hitclap.wav
182,192,90898,1,0,0:0:0:40:soft-hitwhistle.wav
402,192,91251,1,0,0:0:0:40:soft-hitwhistle.wav
475,192,91251,1,0,0:0:0:40:normal-hitclap.wav
109,192,91604,1,0,0:0:0:0:
182,192,91956,1,0,0:0:0:40:soft-hitwhistle.wav
329,192,92133,1,0,0:0:0:0:
475,192,92133,1,0,0:0:0:40:normal-hitclap.wav
36,192,92309,1,0,0:0:0:40:soft-hitwhistle.wav
256,192,92839,1,0,0:0:0:40:SD0010.mp3
329,192,92839,1,0,0:0:0:40:normal-hitclap.wav
402,192,93015,1,0,0:0:0:40:normal-hitclap.wav
475,192,93015,1,0,0:0:0:0:
182,192,93192,1,0,0:0:0:40:soft-hitwhistle.wav
109,192,93368,1,0,0:0:0:0:
329,192,93545,1,0,0:0:0:0:
475,192,93545,1,0,0:0:0:40:normal-hitclap.wav
36,192,93721,1,0,0:0:0:40:soft-hitwhistle.wav
402,192,94074,1,0,0:0:0:40:soft-hitwhistle.wav
475,192,94074,1,0,0:0:0:40:normal-hitclap.wav
109,192,94427,1,0,0:0:0:0:
36,192,94780,1,0,0:0:0:40:soft-hitwhistle.wav
329,192,94956,1,0,0:0:0:0:
475,192,94956,1,0,0:0:0:40:normal-hitclap.wav
182,192,95133,1,0,0:0:0:40:soft-hitwhistle.wav
256,192,95662,1,0,0:0:0:40:normal-hitclap.wav
329,192,95662,1,0,0:0:0:0:
182,192,95839,1,0,0:0:0:40:normal-hitclap.wav
109,192,95839,1,0,0:0:0:0:
475,192,96015,1,0,0:0:0:40:soft-hitwhistle.wav
402,192,96192,1,0,0:0:0:0:
182,192,96368,1,0,0:0:0:0:
36,192,96368,1,0,0:0:0:40:normal-hitclap.wav
329,192,96545,1,0,0:0:0:40:soft-hitwhistle.wav
109,192,96898,1,0,0:0:0:40:soft-hitwhistle.wav
36,192,96898,1,0,0:0:0:40:normal-hitclap.wav
402,192,97251,1,0,0:0:0:0:
329,192,97604,1,0,0:0:0:40:soft-hitwhistle.wav
182,192,97780,1,0,0:0:0:0:
36,192,97780,1,0,0:0:0:40:normal-hitclap.wav
475,192,97956,1,0,0:0:0:40:soft-hitwhistle.wav
182,192,98486,1,0,0:0:0:40:normal-hitclap.wav
256,192,98486,1,0,0:0:0:0:
36,192,98662,1,0,0:0:0:0:
109,192,98662,1,0,0:0:0:40:normal-hitclap.wav
329,192,98839,1,0,0:0:0:40:soft-hitwhistle.wav
402,192,99015,1,0,0:0:0:0:
182,192,99192,1,0,0:0:0:0:
36,192,99192,1,0,0:0:0:40:normal-hitclap.wav
475,192,99368,1,0,0:0:0:40:soft-hitwhistle.wav
109,192,99721,1,0,0:0:0:40:soft-hitwhistle.wav
36,192,99721,1,0,0:0:0:40:normal-hitclap.wav
402,192,100074,1,0,0:0:0:0:
475,192,100427,1,0,0:0:0:40:soft-hitwhistle.wav
36,192,100604,1,0,0:0:0:40:normal-hitclap.wav
182,192,100604,1,0,0:0:0:0:
329,192,100780,1,0,0:0:0:40:soft-hitwhistle.wav
109,192,101309,1,0,0:0:0:40:normal-hitclap.wav
256,192,101309,1,0,0:0:0:0:
109,192,101486,1,0,0:0:0:40:normal-hitclap.wav
256,192,101486,1,0,0:0:0:0:
475,192,101662,1,0,0:0:0:40:soft-hitwhistle.wav
402,192,101839,1,0,0:0:0:0:
36,192,102015,1,0,0:0:0:40:normal-hitclap.wav
182,192,102015,1,0,0:0:0:0:
329,192,102192,1,0,0:0:0:40:soft-hitwhistle.wav
36,192,102545,1,0,0:0:0:40:normal-hitclap.wav
109,192,102545,1,0,0:0:0:40:soft-hitwhistle.wav
402,192,102898,1,0,0:0:0:0:
329,192,103251,1,0,0:0:0:40:soft-hitwhistle.wav
36,192,103427,1,0,0:0:0:40:normal-hitclap.wav
182,192,103427,1,0,0:0:0:0:
475,192,103604,1,0,0:0:0:40:soft-hitwhistle.wav
182,192,104133,1,0,0:0:0:40:normal-hitclap.wav
256,192,104133,1,0,0:0:0:0:
109,192,104309,1,0,0:0:0:40:normal-hitclap.wav
36,192,104309,1,0,0:0:0:0:
329,192,104486,1,0,0:0:0:40:soft-hitwhistle.wav
402,192,104662,1,0,0:0:0:0:
36,192,104839,1,0,0:0:0:40:normal-hitclap.wav
182,192,104839,1,0,0:0:0:0:
475,192,105015,1,0,0:0:0:40:soft-hitwhistle.wav
36,192,105368,1,0,0:0:0:40:normal-hitclap.wav
109,192,105368,1,0,0:0:0:40:soft-hitwhistle.wav
402,192,105721,1,0,0:0:0:0:
475,192,106074,1,0,0:0:0:40:soft-hitwhistle.wav
36,192,106251,1,0,0:0:0:40:normal-hitclap.wav
182,192,106251,1,0,0:0:0:0:
329,192,106427,1,0,0:0:0:40:soft-hitwhistle.wav
182,192,106956,1,0,0:0:0:0:
256,192,106956,1,0,0:0:0:40:normal-hitclap.wav
329,192,107133,1,0,0:0:0:40:normal-hitclap.wav
402,192,107133,1,0,0:0:0:0:
36,192,107309,1,0,0:0:0:40:soft-hitwhistle.wav
182,192,107662,1,0,0:0:0:40:normal-hitclap.wav
475,192,107662,1,0,0:0:0:0:
109,192,108015,1,0,0:0:0:40:soft-hitwhistle.wav
329,192,108368,1,0,0:0:0:40:normal-hitclap.wav
36,192,108368,1,0,0:0:0:0:
402,192,108545,1,0,0:0:0:0:
256,192,108721,1,0,0:0:0:40:soft-hitwhistle.wav
475,192,109074,1,0,0:0:0:40:normal-hitclap.wav
109,192,109074,1,0,0:0:0:0:
329,192,109427,1,0,0:0:0:40:soft-hitwhistle.wav
402,192,109780,1,0,0:0:0:0:
36,192,109780,1,0,0:0:0:40:normal-hitclap.wav
109,192,109956,1,0,0:0:0:0:
256,192,110133,1,0,0:0:0:40:soft-hitwhistle.wav
182,192,110486,1,0,0:0:0:40:normal-hitclap.wav
475,192,110486,1,0,0:0:0:0:
109,192,110839,1,0,0:0:0:40:soft-hitwhistle.wav
329,192,111192,1,0,0:0:0:40:normal-hitclap.wav
36,192,111192,1,0,0:0:0:0:
402,192,111368,1,0,0:0:0:0:
256,192,111545,1,0,0:0:0:40:soft-hitwhistle.wav
109,192,111898,1,0,0:0:0:0:
475,192,111898,1,0,0:0:0:40:normal-hitclap.wav
329,192,112251,1,0,0:0:0:40:soft-hitwhistle.wav
182,192,112427,1,0,0:0:0:0:
329,192,112604,1,0,0:0:0:0:
402,192,112604,1,0,0:0:0:40:normal-hitclap.wav
182,192,112780,1,0,0:0:0:0:
109,192,112780,1,0,0:0:0:40:normal-hitclap.wav
475,192,112956,1,0,0:0:0:40:soft-hitwhistle.wav
256,192,113309,1,0,0:0:0:40:normal-hitclap.wav
36,192,113309,1,0,0:0:0:0:
109,192,113662,1,0,0:0:0:40:soft-hitwhistle.wav
256,192,114015,1,0,0:0:0:40:normal-hitclap.wav
402,192,114015,1,0,0:0:0:0:
182,192,114192,1,0,0:0:0:0:
475,192,114368,1,0,0:0:0:40:soft-hitwhistle.wav
256,192,114721,1,0,0:0:0:40:normal-hitclap.wav
109,192,114721,1,0,0:0:0:0:
36,192,115074,1,0,0:0:0:40:soft-hitwhistle.wav
256,192,115427,1,0,0:0:0:40:normal-hitclap.wav
475,192,115427,1,0,0:0:0:0:
329,192,115604,1,0,0:0:0:0:
402,192,115780,1,0,0:0:0:40:soft-hitwhistle.wav
256,192,116133,1,0,0:0:0:40:normal-hitclap.wav
36,192,116133,1,0,0:0:0:40:soft-hitwhistle.wav
109,192,116486,1,0,0:0:0:40:soft-hitwhistle.wav
256,192,116839,1,0,0:0:0:40:normal-hitclap.wav
402,192,116839,1,0,0:0:0:40:soft-hitwhistle.wav
182,192,117015,1,0,0:0:0:0:
36,192,117192,1,0,0:0:0:40:soft-hitwhistle.wav
256,192,117368,1,0,0:0:0:0:
475,192,117545,128,0,117898:0:0:0:0:
329,192,117898,1,0,0:0:0:0:
182,192,118074,1,0,0:0:0:0:
36,192,118251,1,0,0:0:0:0:
329,192,118427,1,0,0:0:0:0:
475,192,118604,1,0,0:0:0:40:soft-hitwhistle.wav
109,192,118604,128,0,121427:0:0:0:0:
