osu file format v14

[General]
AudioFilename: Client_FOVE.mp3
AudioLeadIn: 0
PreviewTime: 24008
Countdown: 0
SampleSet: Soft
StackLeniency: 0.4
Mode: 0
LetterboxInBreaks: 0
WidescreenStoryboard: 1

[Editor]
Bookmarks: 10675,16008,24008
DistanceSpacing: 0.5
BeatDivisor: 4
GridSize: 16
TimelineZoom: 2.6

[Metadata]
Title:FOVE
TitleUnicode:FOVE
Artist:elephant design
ArtistUnicode:elephant design
Creator:Crowie
Version:()
Source:
Tags:Chaos AlphaNature [A_L_P_H_A] FoxyGrandpa strickluke
BeatmapID:1402313
BeatmapSetID:662482

[Difficulty]
HPDrainRate:6
CircleSize:5
OverallDifficulty:8
ApproachRate:9
SliderMultiplier:0.999999999999999
SliderTickRate:1

[Events]
//Background and Video events
0,0,"14213934_p0.jpg",0,0
//Break Periods
//Storyboard Layer 0 (Background)
//Storyboard Layer 1 (Fail)
//Storyboard Layer 2 (Pass)
//Storyboard Layer 3 (Foreground)
//Storyboard Sound Samples

[TimingPoints]
9,333.333333333333,4,2,2,10,1,0
8675,-100,4,2,2,5,0,0
10675,-100,4,2,1,30,0,0
15842,-71.4285714285714,4,2,1,30,0,0
16008,-55.5555555555556,4,2,1,50,0,0
18675,-55.5555555555556,4,2,2,50,0,0
19342,-55.5555555555556,4,2,1,50,0,0
21675,-55.5555555555556,4,2,2,50,0,0
22008,-55.5555555555556,4,2,1,50,0,0
24008,-55.5555555555556,4,2,1,50,0,1
24342,-83.3333333333333,4,2,1,50,0,1
24675,-50,4,2,1,50,0,1
26675,-55.5555555555556,4,2,1,50,0,1
26842,-55.5555555555556,4,2,2,50,0,1
27342,-55.5555555555556,4,2,1,50,0,1
28675,-50,4,2,1,50,0,1
29342,-55.5555555555556,4,2,1,50,0,1
29675,-55.5555555555556,4,2,2,50,0,1
30008,-55.5555555555556,4,2,1,50,0,1
31008,-50,4,2,1,50,0,1
31675,-66.6666666666667,4,2,1,50,0,1
32008,-83.3333333333333,4,2,1,50,0,0
33342,-71.4285714285714,4,2,1,50,0,0
34008,-166.666666666667,4,2,2,50,0,0
34342,-62.5,4,2,1,50,0,0
34675,-55.5555555555556,4,2,2,50,0,1
35675,-133.333333333333,4,2,1,50,0,1
36008,-111.111111111111,4,2,1,50,0,0
36342,-111.111111111111,4,2,1,10,0,0
36675,-111.111111111111,4,2,2,5,0,0

[Colours]
Combo1 : 128,255,255
Combo2 : 128,128,255
Combo3 : 191,128,255
Combo4 : 255,128,255
Combo5 : 255,128,128
Combo6 : 255,191,128
Combo7 : 191,255,128

[HitObjects]
56,205,9,6,0,L|100:215,2,33.3333333333333,4|0|0,0:0|0:0|0:0,0:0:0:0:
161,204,342,2,0,L|164:243,1,33.3333333333333
175,232,620,1,0,0:0:0:0:
512,283,2675,6,0,L|476:288,2,33.3333333333333
401,340,3008,2,0,L|412:269,1,66.6666666666666,4|0,0:0|0:0,0:0:0:0:
226,12,5342,6,0,L|233:74,2,50,4|0|0,0:0|0:0|0:0,0:0:0:0:
282,114,5786,2,0,L|277:154,2,33.3333333333333,0|0|0,0:0|0:0|0:0,0:0:0:0:
190,384,8008,6,0,P|191:357|208:328,1,50,4|0,0:0|0:0,0:0:0:0:
168,280,8258,1,0,0:0:0:0:
157,275,8342,2,0,P|149:253|137:240,3,33.3333333333333
256,192,8758,12,0,10508,0:0:0:0:
70,217,10675,6,0,L|184:207,1,99.9999999999999,6|0,0:0|0:0,0:0:0:0:
221,247,11175,1,0,0:0:0:0:
229,183,11342,1,0,0:0:0:0:
461,231,11675,6,0,P|436:192|443:136,2,99.9999999999999,2|0|2,0:0|0:0|0:1,0:0:0:0:
511,173,12508,1,0,0:0:0:0:
363,200,12675,2,0,B|343:215|343:215|319:209,1,50,0|0,0:0|0:0,0:0:0:0:
274,217,13008,2,0,B|294:202|294:202|319:209,1,50
125,337,13342,6,0,L|139:230,1,99.9999999999999,2|0,0:0|0:0,0:0:0:0:
116,47,14008,1,0,0:0:0:0:
112,58,14342,6,0,L|169:50,1,50,2|0,0:0|0:0,0:0:0:0:
355,14,14675,1,0,0:0:0:0:
351,25,15008,2,0,L|301:31,1,50,0|0,0:0|0:0,0:0:0:0:
246,112,15342,2,0,B|248:84|248:84|225:27|225:27|228:0,1,116.666666666667,0|0,0:0|0:0,0:1:0:0:
287,124,15842,6,0,P|263:125|241:103,1,46.666665242513,0|0,0:0|0:0,0:0:0:0:
142,244,16008,6,0,L|152:141,1,89.999997253418,6|0,0:0|0:0,0:0:0:0:
245,257,16342,1,2,0:0:0:0:
94,300,16508,1,0,0:0:0:0:
224,191,16675,2,0,B|259:180|288:202|288:202|317:224|352:213,1,134.999995880127,8|0,0:0|0:0,0:0:0:0:
423,233,17008,1,2,0:0:0:0:
424,245,17175,2,0,P|443:219|434:193,1,44.999998626709,0|0,0:0|0:0,0:0:0:0:
335,29,17342,6,0,L|340:79,1,44.999998626709,2|0,0:0|0:0,0:0:0:0:
330,147,17508,1,0,0:0:0:0:
418,140,17675,2,2,B|389:147|389:147|360:140|360:140|331:147,1,89.999997253418,2|0,0:0|0:0,0:0:0:0:
103,209,18008,1,8,0:0:0:0:
132,75,18175,1,0,0:0:0:0:
140,86,18342,1,2,0:0:0:0:
262,177,18508,6,0,L|162:160,1,89.999997253418,0|2,0:0|0:0,0:0:0:0:
158,165,18758,1,0,0:0:0:0:
151,161,18842,1,0,0:0:0:0:
359,281,19008,1,2,0:0:0:0:
330,147,19175,1,2,0:0:0:0:
213,250,19342,2,0,P|224:310|270:269,1,134.999995880127,8|0,0:0|0:0,0:0:0:0:
213,250,19675,2,0,B|178:271|184:350|245:312|247:368,1,134.999995880127,2|0,0:0|0:0,0:0:0:0:
213,250,20008,6,0,P|172:276|119:258,1,89.999997253418,0|0,0:0|0:0,0:0:0:0:
10,160,20342,1,2,0:1:0:0:
22,164,20508,1,2,0:0:0:0:
0,330,20675,2,0,L|14:217,1,89.999997253418,8|2,0:0|0:0,0:0:0:0:
131,96,21008,2,0,B|97:110|66:90|66:90|35:71|1:85,1,134.999995880127,2|0,0:0|0:0,0:0:0:0:
1,85,21342,6,0,B|31:104|65:90|65:90|99:77|130:96,1,134.999995880127,2|0,0:0|0:0,0:0:0:0:
207,91,21675,1,2,0:0:0:0:
216,98,21842,2,0,P|231:126|210:158,1,44.999998626709,0|0,0:0|0:0,0:0:0:0:
271,201,22008,2,0,P|254:227|216:225,1,44.999998626709,8|0,0:0|0:0,0:0:0:0:
154,197,22175,1,0,0:0:0:0:
323,123,22342,1,2,0:0:0:0:
412,158,22508,1,0,0:0:0:0:
209,300,22675,6,0,P|177:298|160:264,1,44.999998626709,2|0,0:0|0:0,0:0:0:0:
154,197,22842,1,0,0:0:0:0:
66,202,23008,2,2,B|95:204|95:204|123:193|123:193|153:196,1,89.999997253418,2|0,0:0|0:0,0:0:0:0:
360,236,23342,1,8,0:0:0:0:
323,123,23508,1,0,0:0:0:0:
227,308,23675,1,2,0:0:0:0:
241,231,23841,1,0,0:0:0:0:
397,349,24008,5,6,0:0:0:0:
510,312,24175,1,0,0:0:0:0:
380,184,24342,2,0,P|358:211|362:243,1,59.9999981689453,2|2,0:0|0:0,0:0:0:0:
359,235,24675,2,0,B|309:210|265:243|265:243|220:275|171:251,1,200,8|2,0:0|0:0,0:0:0:0:
111,213,25175,1,0,0:0:0:0:
204,367,25342,1,0,0:0:0:0:
216,374,25508,1,0,0:0:0:0:
209,143,25675,6,0,B|210:162|210:162|208:172|208:172|209:192,1,50,2|0,0:1|0:0,0:0:0:0:
170,250,25842,1,2,0:0:0:0:
326,368,26008,2,0,P|339:317|316:361,1,150,8|0,0:0|0:0,0:0:0:0:
216,374,26342,2,0,L|330:356,1,99.9999999999999,2|0,0:0|0:0,0:0:0:0:
88,300,26675,6,0,L|-11:315,1,89.999997253418,2|0,0:0|0:0,0:0:0:0:
157,233,27008,1,2,0:0:0:0:
170,250,27092,1,0,0:0:0:0:
176,271,27175,2,0,P|172:297|142:328,1,44.999998626709
78,221,27342,6,0,P|59:200|57:156,1,44.999998626709,8|0,0:0|0:0,0:0:0:0:
47,221,27508,2,0,P|41:194|61:155,1,44.999998626709
0,115,27675,2,0,P|50:78|128:102,1,134.999995880127,2|0,0:0|0:0,0:0:0:0:
132,87,28008,6,0,L|124:131,1,44.999998626709,2|0,0:0|0:0,0:0:0:0:
157,233,28175,1,0,0:0:0:0:
244,224,28342,2,2,B|214:222|214:222|186:234|186:234|157:232,1,89.999997253418,2|0,0:0|0:0,0:0:0:0:
341,91,28675,2,0,P|381:116|333:98,1,150,8|0,0:0|0:0,0:0:0:0:
232,94,29008,2,0,L|355:105,1,99.9999999999999,2|0,0:0|0:0,0:0:0:0:
512,221,29342,5,2,0:0:0:0:
382,288,29508,1,0,0:0:0:0:
437,337,29675,1,2,0:0:0:0:
451,320,29758,1,0,0:0:0:0:
457,298,29842,2,0,P|454:268|438:244,1,44.999998626709,2|0,0:0|0:0,0:0:0:0:
386,214,30008,5,8,0:0:0:0:
273,270,30175,1,0,0:0:0:0:
153,229,30342,1,2,0:0:0:0:
57,312,30508,1,0,0:0:0:0:
51,326,30675,5,0,0:0:0:0:
146,318,30842,1,0,0:0:0:0:
232,358,31008,2,0,B|233:338|233:338|231:328|231:328|232:308,1,50,2|0,0:1|0:0,0:0:0:0:
269,249,31175,1,2,0:0:0:0:
138,130,31342,6,0,L|154:241,1,99.9999999999999,8|2,0:0|0:0,0:0:0:0:
292,181,31675,2,0,P|255:159|212:163,1,75.000002861023,2|0,0:0|0:0,0:0:0:0:
57,312,32008,6,0,B|6:278|64:192|64:192|3:201|-14:139|-2:81|48:26|121:35|148:82|108:131|81:148|46:102|65:91,1,419.999987182617,6|0,0:0|0:0,0:0:0:0:
121,12,33342,6,0,B|155:23|173:68|173:68|219:9|268:16|279:56,1,209.999993591309,2|2,0:0|0:0,0:0:0:0:
347,64,34008,6,0,L|344:73,3,9.99999969482422,8|0|0|0,0:0|0:0|0:0|0:0,0:0:0:0:
255,117,34342,2,0,L|265:200,1,79.9999999999999,0|0,0:0|0:0,0:0:0:0:
418,384,34675,5,6,0:0:0:0:
463,330,34842,1,0,0:0:0:0:
429,272,35009,1,0,0:0:0:0:
363,286,35175,1,0,0:0:0:0:
357,353,35342,6,0,P|382:363|420:360,1,44.999998626709,8|0,0:0|0:0,0:0:0:0:
429,272,35508,6,0,P|446:251|455:214,1,44.999998626709
374,178,35675,6,0,P|359:155|328:136,1,56.2500021457672,2|0,0:1|0:0,0:0:0:0:
266,199,36008,6,0,P|221:209|182:232,2,89.999997253418,0|0|0,0:0|0:0|0:0,0:0:0:0:
