osu file format v14

[General]
AudioFilename: audio.mp3
AudioLeadIn: 0
PreviewTime: 47934
Countdown: 0
SampleSet: Soft
StackLeniency: 0.3
Mode: 2
LetterboxInBreaks: 0
WidescreenStoryboard: 1

[Editor]
Bookmarks: 29149,79617
DistanceSpacing: 0.9
BeatDivisor: 12
GridSize: 8
TimelineZoom: 2.2

[Metadata]
Title:Koko de Iki o Shite (TV Size)
TitleUnicode:ここで息をして (TV Size)
Artist:eill
ArtistUnicode:eill
Creator:Secre
Version:Salad
Source:東京リベンジャーズ
Tags:chickenbible Emiru Ikuno 11 Ryo LEFTY Miyata Ryo’LEFTY’Miyata 東京卍會 wo manji-kai manji kai Tokyo Revengers single ver jp japanese anime pop jpop j-pop ed ending
BeatmapID:3133248
BeatmapSetID:1514469

[Difficulty]
HPDrainRate:3
CircleSize:3.3
OverallDifficulty:6.7
ApproachRate:6.7
SliderMultiplier:2.5
SliderTickRate:1

[Events]
//Background and Video events
Video,1680,"video.mp4"
0,0,"me and noki lookin like dad and bird.jpg",0,0
//Break Periods
//Storyboard Layer 0 (Background)
//Storyboard Layer 1 (Fail)
//Storyboard Layer 2 (Pass)
//Storyboard Layer 3 (Foreground)
//Storyboard Layer 4 (Overlay)
//Storyboard Sound Samples

[TimingPoints]
2234,560.747663551402,4,2,1,60,1,0
11205,-100,4,2,1,50,0,0
31392,-100,4,2,1,60,0,0
49336,-100,4,2,1,70,0,1
69102,-100,4,2,1,70,0,1
69243,-100,4,2,1,70,0,0
71766,-100,4,2,2,40,0,0
79617,-100,4,2,2,60,0,0
87467,-100,4,2,2,40,0,0
89149,-100,4,2,2,60,0,0

[Colours]
Combo1 : 103,131,133
Combo2 : 157,186,187
Combo3 : 181,179,145
Combo4 : 104,130,168

[HitObjects]
341,209,2234,5,2,0:0:0:0:
112,137,2794,2,0,L|196:133,1,83.3333333333333
328,115,3262,2,0,P|323:66|256:39,1,125
59,178,3916,2,0,L|238:174,1,125
311,108,4476,6,0,L|320:269,1,125,2|0,0:0|0:0,0:0:0:0:
195,269,5037,2,0,L|65:266,1,125
150,192,5505,1,0,0:0:0:0:
324,128,6159,1,0,0:0:0:0:
126,188,6719,5,2,0:0:0:0:
346,165,7280,2,0,L|255:160,1,83.3333333333333
154,109,7748,2,0,P|159:59|233:36,1,125
392,182,8401,2,0,L|213:178,1,125
154,109,8962,6,0,L|145:270,1,125,2|0,0:0|0:0,0:0:0:0:
270,270,9523,2,0,L|406:273,2,125
143,170,10364,1,0,0:0:0:0:
274,95,10645,2,0,L|413:95,1,125,0|0,3:0|3:0,0:0:0:0:
146,285,11205,6,0,P|76:262|156:153,1,250,0|0,3:0|1:0,0:0:0:0:
379,189,12327,2,0,L|241:188,2,125,0|2|0,3:0|3:2|1:0,0:0:0:0:
157,256,13448,6,0,L|407:252,1,250,0|0,3:0|1:0,0:0:0:0:
170,166,14570,2,0,L|32:163,2,125,0|2|0,3:0|3:2|1:0,0:0:0:0:
411,253,15691,6,0,L|146:252,1,250,0|0,3:0|1:0,0:0:0:0:
395,197,16813,2,0,L|257:195,2,125,0|0|0,3:0|3:0|1:0,0:0:0:0:
173,261,17934,6,0,P|116:243|191:133,1,250,0|0,3:0|1:0,0:0:0:0:
403,142,19056,2,0,L|410:6,1,125,2|2,3:2|3:2,0:0:0:0:
281,28,19617,2,0,L|147:27,1,125,0|2,1:0|0:0,0:0:0:0:
412,255,20177,6,0,P|471:228|394:105,1,250,2|0,3:0|1:0,0:0:0:0:
164,158,21299,2,0,L|293:158,2,125,0|2|0,3:0|3:2|1:0,0:0:0:0:
388,235,22420,6,0,L|134:233,1,250,0|0,3:0|1:0,0:0:0:0:
378,199,23542,2,0,L|245:198,2,125,0|2|0,3:0|3:2|1:0,0:0:0:0:
136,278,24663,6,0,L|404:277,1,250,0|0,3:0|1:0,0:0:0:0:
138,155,25785,2,0,L|6:157,2,125,0|0|0,3:0|3:0|1:0,0:0:0:0:
379,245,26906,6,0,P|441:222|371:99,1,250,0|0,3:0|1:0,0:0:0:0:
141,170,28028,2,0,L|134:37,1,125,2|2,3:2|3:2,0:0:0:0:
257,37,28589,2,0,L|383:37,1,125,0|2,1:0|0:0,0:0:0:0:
131,247,29149,6,0,L|126:109,1,125,0|2,3:0|0:3,0:0:0:0:
249,138,29710,2,0,L|246:1,1,125,0|2,1:0|0:3,0:0:0:0:
373,143,30271,2,0,L|376:7,1,125,0|2,3:0|3:0,0:0:0:0:
115,248,30832,2,0,L|109:133,1,83.3333333333333,0|0,1:0|3:0,0:0:0:0:
160,126,31112,1,0,3:0:0:0:
387,236,31392,6,0,P|460:218|369:119,1,250,4|2,3:2|0:0,0:0:0:0:
138,224,32514,2,0,L|426:219,1,250,4|2,3:2|0:0,0:0:0:0:
122,310,33635,6,0,L|108:45,1,250,4|2,3:2|0:0,0:0:0:0:
332,97,34757,2,0,L|74:97,1,250,4|0,3:2|1:0,0:0:0:0:
465,230,35878,6,0,L|466:83,1,125,0|2,3:0|0:0,0:0:0:0:
340,109,36439,2,0,L|475:104,1,125,0|2,1:0|0:0,0:0:0:0:
339,220,37000,2,0,L|194:220,2,125,0|2|0,3:0|0:0|1:0,0:0:0:0:
209,224,37841,6,0,P|145:194|237:86,1,250,2|2,0:0|0:0,0:0:0:0:
339,86,38682,2,0,L|342:250,1,125,0|8,1:0|0:1,0:0:0:0:
211,274,39243,2,0,L|383:267,1,125,2|8,3:2|0:1,0:0:0:0:
85,231,39804,2,0,L|74:110,1,83.3333333333333,0|8,1:0|3:0,0:0:0:0:
127,103,40084,1,4,3:0:0:0:
369,197,40364,6,0,P|427:181|359:50,1,250,4|2,3:2|0:0,0:0:0:0:
144,197,41486,2,0,L|408:199,1,250,4|2,3:2|0:0,0:0:0:0:
130,283,42607,6,0,P|57:253|154:157,1,250,4|2,3:2|0:0,0:0:0:0:
401,94,43729,2,0,L|412:372,1,250,4|0,3:2|3:0,0:0:0:0:
35,276,44850,6,0,L|185:268,1,125,0|0,3:0|0:0,0:0:0:0:
285,260,45411,2,0,L|294:111,1,125,0|2,3:0|0:3,0:0:0:0:
165,140,45972,2,0,L|159:6,1,125,0|2,3:0|0:3,0:0:0:0:
288,32,46533,2,0,L|431:33,1,125,0|2,3:0|0:3,0:0:0:0:
151,265,47093,6,0,P|81:230|185:137,1,250,4|0,3:2|0:0,0:0:0:0:
256,192,47934,12,2,49056,0:0:0:0:
208,190,49336,6,0,L|200:28,1,125,6|8,3:2|0:1,0:0:0:0:
438,52,49897,2,0,L|444:205,1,125,8|2,1:0|0:0,0:0:0:0:
318,251,50458,2,0,L|451:250,1,125,2|0,3:2|3:0,0:0:0:0:
320,168,51019,1,8,1:0:0:0:
235,137,51205,2,0,L|230:58,1,41.6666666666667,2|2,0:0|0:3,0:0:0:0:
316,50,51486,1,2,0:0:0:0:
365,41,51579,6,0,L|375:201,1,125,0|0,3:0|0:0,0:0:0:0:
128,257,52140,2,0,L|123:97,1,125,8|2,1:0|0:0,0:0:0:0:
256,137,52701,2,0,L|105:128,1,125,2|0,3:2|0:0,0:0:0:0:
255,138,53262,1,8,1:0:0:0:
337,102,53448,2,0,L|339:35,1,41.6666666666667,2|2,0:0|0:0,0:0:0:0:
255,138,53729,1,2,0:0:0:0:
208,137,53822,6,0,L|46:139,1,125,2|2,3:2|0:0,0:0:0:0:
208,137,54383,2,0,L|46:139,1,125,8|2,1:0|0:0,0:0:0:0:
345,207,54944,2,0,L|508:206,3,125,2|2|8|2,3:2|3:2|1:0|0:0,0:0:0:0:
184,286,56065,6,0,P|101:257|189:157,1,250,0|8,3:0|1:0,0:0:0:0:
301,120,56906,1,0,0:0:0:0:
39,180,57187,2,0,L|164:183,1,125,2|0,3:2|3:0,0:0:0:0:
296,147,57748,1,8,1:0:0:0:
208,103,57934,2,0,L|205:39,1,41.6666666666667,2|2,0:0|0:0,0:0:0:0:
291,32,58215,1,2,0:0:0:0:
337,23,58308,6,0,L|469:30,1,125,2|0,3:2|0:0,0:0:0:0:
206,234,58869,2,0,L|206:75,1,125,8|2,1:0|0:0,0:0:0:0:
336,100,59430,2,0,L|181:100,1,125,0|0,3:0|0:0,0:0:0:0:
336,101,59991,1,8,1:0:0:0:
249,152,60177,2,0,L|247:92,1,41.6666666666667,2|2,0:0|0:0,0:0:0:0:
336,101,60458,1,2,0:0:0:0:
294,108,60551,6,0,L|153:107,1,125,0|2,3:0|0:0,0:0:0:0:
437,115,61112,2,0,L|445:268,1,125,8|2,1:0|0:0,0:0:0:0:
315,275,61673,2,0,L|452:277,1,125,2|0,3:2|0:0,0:0:0:0:
316,276,62234,1,8,1:0:0:0:
236,184,62420,2,0,L|234:121,1,41.6666666666667,0|2,0:0|0:3,0:0:0:0:
315,110,62701,1,0,0:0:0:0:
270,110,62794,6,0,L|129:108,1,125,0|2,3:0|0:0,0:0:0:0:
271,109,63355,2,0,L|409:111,1,125,8|2,1:0|0:0,0:0:0:0:
145,237,63916,2,0,L|283:237,2,125,2|2|8,3:2|3:2|1:0,0:0:0:0:
383,232,64757,1,2,0:0:0:0:
148,216,65037,6,0,L|143:54,1,125,0|2,3:0|0:0,0:0:0:0:
269,70,65598,2,0,L|434:71,1,125,8|2,1:0|0:0,0:0:0:0:
272,70,66159,2,0,L|143:70,1,125,0|0,3:0|3:0,0:0:0:0:
271,71,66719,2,0,L|271:209,1,125,8|2,1:0|0:0,0:0:0:0:
37,268,67280,6,0,L|195:268,3,125,0|0|0|2,3:0|0:0|3:0|0:3,0:0:0:0:
398,215,68402,2,0,L|399:69,1,125,0|2,3:0|0:3,0:0:0:0:
166,58,68962,2,0,L|24:56,1,125,0|2,3:0|0:3,0:0:0:0:
331,199,69523,5,4,3:2:0:0:
256,192,69804,12,2,71486,0:0:0:0:
255,186,71766,6,0,L|253:98,1,62.5
129,104,72187,2,0,L|120:15,1,62.5
249,126,72607,2,0,L|247:52,1,62.5
374,93,73028,2,0,L|379:17,1,62.5
131,173,73448,1,4,3:2:0:0:
334,163,74009,6,0,L|338:92,1,62.5
220,101,74430,2,0,L|215:24,1,62.5
339,78,74850,2,0,L|343:-7,1,62.5
216,55,75271,2,0,L|210:-36,1,62.5
454,142,75691,1,4,3:2:0:0:
249,218,76252,6,0,L|249:136,1,62.5
133,133,76673,2,0,L|127:54,1,62.5
252,80,77093,2,0,L|254:3,1,62.5
381,75,77514,2,0,L|386:-13,1,62.5
143,147,77934,1,4,3:2:0:0:
316,146,78495,6,0,L|321:59,1,62.5
202,75,78916,2,0,L|201:-18,1,62.5
323,40,79336,2,0,L|326:-36,1,62.5
198,196,79617,5,0,1:0:0:0:
141,182,79757,1,0,1:0:0:0:
139,125,79897,1,0,1:0:0:0:
195,108,80037,1,0,1:0:0:0:
258,105,80177,2,0,L|419:106,1,125,0|0,1:0|1:0,0:0:0:0:
126,240,80738,6,0,L|46:242,1,62.5,0|2,3:0|2:1,0:0:0:0:
186,273,81159,2,0,L|265:272,1,62.5,2|0,2:1|1:0,0:0:0:0:
369,278,81579,2,0,L|373:206,1,62.5,2|2,2:1|2:1,0:0:0:0:
248,169,82000,2,0,L|168:168,1,62.5,2|2,2:1|2:1,0:0:0:0:
432,144,82420,1,0,1:0:0:0:
262,176,82981,6,0,L|175:172,1,62.5,0|2,3:0|2:1,0:0:0:0:
322,113,83402,2,0,L|406:112,1,62.5,2|0,2:1|1:0,0:0:0:0:
266,47,83822,2,0,L|187:43,1,62.5,2|2,2:1|2:1,0:0:0:0:
326,49,84243,2,0,L|398:45,1,62.5,2|2,2:1|2:1,0:0:0:0:
140,166,84663,1,0,1:0:0:0:
309,173,85224,6,0,L|227:170,1,62.5,0|2,3:0|2:1,0:0:0:0:
123,160,85645,2,0,L|195:161,1,62.5,2|0,2:1|1:0,0:0:0:0:
305,121,86065,2,0,L|376:122,1,62.5,2|2,2:1|2:1,0:0:0:0:
248,182,86486,2,0,L|151:180,1,62.5,2|2,2:1|2:1,0:0:0:0:
422,197,86906,1,0,1:0:0:0:
212,230,87467,6,0,L|215:159,1,62.5
108,145,87888,2,0,L|100:72,1,62.5
216,93,88308,2,0,L|221:11,1,62.5
333,84,88729,2,0,L|337:8,1,62.5
222,202,89149,6,0,L|221:132,3,62.5,0|0|0|2,1:0|1:0|1:0|3:0,0:0:0:0:
