osu file format v14

[General]
AudioFilename: audio.mp3
AudioLeadIn: 0
PreviewTime: 47934
Countdown: 0
SampleSet: Soft
StackLeniency: 0.3
Mode: 2
LetterboxInBreaks: 0
WidescreenStoryboard: 1

[Editor]
Bookmarks: 29149,79617
DistanceSpacing: 0.9
BeatDivisor: 6
GridSize: 8
TimelineZoom: 2.2

[Metadata]
Title:Koko de Iki o Shite (TV Size)
TitleUnicode:ここで息をして (TV Size)
Artist:eill
ArtistUnicode:eill
Creator:Secre
Version:Platter
Source:東京リベンジャーズ
Tags:chickenbible Emiru Ikuno 11 Ryo LEFTY Miyata Ryo’LEFTY’Miyata 東京卍會 wo manji-kai manji kai Tokyo Revengers single ver jp japanese anime pop jpop j-pop ed ending
BeatmapID:3114681
BeatmapSetID:1514469

[Difficulty]
HPDrainRate:4
CircleSize:3.6
OverallDifficulty:7.7
ApproachRate:7.7
SliderMultiplier:2.7
SliderTickRate:1

[Events]
//Background and Video events
Video,1680,"video.mp4"
0,0,"me and noki lookin like dad and bird.jpg",0,0
//Break Periods
//Storyboard Layer 0 (Background)
//Storyboard Layer 1 (Fail)
//Storyboard Layer 2 (Pass)
//Storyboard Layer 3 (Foreground)
//Storyboard Layer 4 (Overlay)
//Storyboard Sound Samples

[TimingPoints]
2234,560.747663551402,4,2,1,60,1,0
11205,-100,4,2,1,50,0,0
31392,-100,4,2,1,60,0,0
49336,-100,4,2,1,70,0,1
69102,-100,4,2,1,70,0,1
69243,-100,4,2,1,70,0,0
71766,-100,4,2,2,40,0,0
79617,-100,4,2,2,60,0,0
87467,-100,4,2,2,40,0,0
89149,-100,4,2,2,60,0,0

[Colours]
Combo1 : 103,131,133
Combo2 : 157,186,187
Combo3 : 181,179,145
Combo4 : 104,130,168

[HitObjects]
294,293,2234,5,2,0:0:0:0:
149,234,2654,1,0,0:0:0:0:
218,215,2794,2,0,L|216:119,1,90
62,267,3262,1,0,0:0:0:0:
109,264,3355,1,0,0:0:0:0:
299,175,3542,6,0,P|348:192|274:265,1,180
211,318,4103,2,0,L|207:252,1,45
296,203,4383,1,0,0:0:0:0:
348,197,4476,6,0,L|354:49,1,135,2|0,0:0|0:0,0:0:0:0:
223,68,5037,1,0,0:0:0:0:
121,64,5224,2,0,L|114:143,1,45
312,160,5505,5,0,0:0:0:0:
143,141,6159,1,0,0:0:0:0:
356,248,6719,5,2,0:0:0:0:
211,187,7139,1,0,0:0:0:0:
280,168,7280,2,0,L|278:72,1,90
124,220,7747,1,0,0:0:0:0:
171,217,7840,1,0,0:0:0:0:
361,128,8028,6,0,P|410:145|336:218,1,180
273,271,8588,2,0,L|269:205,1,45
358,156,8868,1,0,0:0:0:0:
303,206,8962,6,0,L|309:58,1,135,2|0,0:0|0:0,0:0:0:0:
178,77,9522,1,0,0:0:0:0:
76,73,9710,2,0,L|69:152,1,45
267,169,9991,6,0,L|271:95,1,45
177,86,10271,2,0,L|171:9,1,45
417,47,10645,2,0,L|423:204,1,135,0|0,3:0|3:0,0:0:0:0:
352,200,11065,1,0,0:0:0:0:
109,241,11205,6,0,P|99:167|208:117,1,180,0|0,3:0|0:0,0:0:0:0:
346,100,11766,2,0,L|350:262,1,135,0|0,1:0|0:0,0:0:0:0:
130,278,12327,6,0,L|295:274,2,135,0|2|0,3:0|3:2|1:0,0:0:0:0:
130,278,13168,1,0,0:0:0:0:
392,266,13448,6,0,P|449:207|315:105,1,270,0|0,3:0|1:0,0:0:0:0:
50,202,14570,2,0,L|231:200,2,135,0|2|0,3:0|3:2|1:0,0:0:0:0:
185,186,15411,1,2,0:0:0:0:
399,289,15691,6,0,L|79:277,1,270,0|0,3:0|1:0,0:0:0:0:
488,203,16813,2,0,L|326:214,2,135,0|0|0,3:0|3:0|1:0,0:0:0:0:
351,203,17654,1,2,0:0:0:0:
92,270,17934,6,0,P|36:224|166:120,1,270,0|0,3:0|1:0,0:0:0:0:
377,81,19056,2,0,L|383:241,1,135,2|2,3:2|3:2,0:0:0:0:
174,214,19617,2,0,L|31:211,1,135,0|2,1:0|0:0,0:0:0:0:
394,287,20177,6,0,P|466:260|371:148,1,270,2|0,3:0|1:0,0:0:0:0:
149,238,21299,2,0,L|145:51,1,135,0|2,3:0|3:2,0:0:0:0:
348,94,21860,2,0,L|503:90,1,135,0|2,1:0|0:0,0:0:0:0:
240,257,22420,6,0,P|170:221|269:110,1,270,0|0,3:0|1:0,0:0:0:0:
390,93,23262,1,0,0:0:0:0:
181,123,23542,2,0,L|28:125,1,135,0|2,3:0|3:2,0:0:0:0:
261,222,24103,2,0,L|395:216,1,135,0|2,1:0|0:0,0:0:0:0:
49,279,24663,6,0,P|31:203|193:126,1,270,0|0,3:0|1:0,0:0:0:0:
299,167,25505,1,2,0:0:0:0:
96,191,25785,2,0,L|85:41,1,135,0|0,3:0|3:0,0:0:0:0:
278,57,26346,2,0,L|448:50,1,135,0|2,1:0|0:0,0:0:0:0:
181,208,26906,6,0,P|192:134|382:115,1,270,0|0,3:0|1:0,0:0:0:0:
228,149,27748,1,0,0:0:0:0:
446,100,28028,2,0,L|451:248,1,135,2|2,3:2|3:2,0:0:0:0:
235,238,28589,2,0,L|416:235,1,135,0|2,1:0|0:0,0:0:0:0:
18,268,29149,6,0,L|16:74,1,135,0|2,3:0|0:3,0:0:0:0:
223,180,29710,2,0,L|222:9,1,135,0|2,1:0|0:3,0:0:0:0:
437,176,30271,2,0,L|433:-5,1,135,0|2,3:0|3:0,0:0:0:0:
55,215,30832,2,0,L|53:69,1,90,0|0,1:0|3:0,0:0:0:0:
106,88,31112,1,0,3:0:0:0:
465,103,31392,6,0,P|505:193|371:274,1,270,4|2,3:2|0:0,0:0:0:0:
35,252,32514,2,0,P|131:193|6:118,1,270,4|2,3:2|0:0,0:0:0:0:
436,116,33635,6,0,L|89:122,1,270,4|2,3:2|0:0,0:0:0:0:
477,59,34757,2,0,P|497:162|413:340,1,270,4|0,3:2|1:0,0:0:0:0:
34,250,35878,6,0,L|190:244,1,135,0|2,3:0|0:0,0:0:0:0:
304,225,36439,2,0,L|151:224,1,135,0|2,1:0|0:0,0:0:0:0:
396,163,37000,2,0,L|237:158,2,135,0|2|0,3:0|0:0|1:0,0:0:0:0:
157,270,37841,6,0,P|90:240|181:129,1,270,2|2,0:0|0:0,0:0:0:0:
402,174,38682,2,0,L|406:18,1,135,0|8,1:0|0:1,0:0:0:0:
192,69,39243,2,0,L|22:78,1,135,2|8,3:2|0:1,0:0:0:0:
303,187,39804,1,0,1:0:0:0:
398,125,39991,2,0,L|402:44,1,45,8|4,3:0|3:0,0:0:0:0:
57,251,40364,6,0,P|38:187|196:98,1,270,4|2,3:2|0:0,0:0:0:0:
490,190,41486,2,0,P|415:150|476:0,1,270,4|2,3:2|0:0,0:0:0:0:
72,229,42607,6,0,P|131:150|21:31,1,270,4|2,3:2|0:0,0:0:0:0:
399,144,43729,2,0,L|95:144,1,270,4|0,3:2|3:0,0:0:0:0:
129,144,44570,1,2,0:0:0:0:
483,93,44850,6,0,L|486:236,1,135,0|0,3:0|0:0,0:0:0:0:
280,245,45411,2,0,L|276:73,1,135,0|2,3:0|0:3,0:0:0:0:
41,141,45972,2,0,L|33:-23,1,135,0|2,3:0|0:3,0:0:0:0:
269,72,46533,2,0,L|126:70,1,135,0|2,3:0|0:3,0:0:0:0:
490,217,47093,6,0,P|503:136|340:53,1,270,4|0,3:2|0:0,0:0:0:0:
216,118,47934,1,2,0:0:0:0:
457,258,48215,2,0,P|485:209|341:102,1,270,2|2,0:0|0:0,0:0:0:0:
439,195,48962,2,0,L|490:192,1,45,2|2,0:0|0:0,0:0:0:0:
120,228,49336,6,0,L|120:118,1,90,6|0,3:2|0:0,0:0:0:0:
179,107,49617,1,8,0:1:0:0:
446,183,49897,2,0,L|302:181,1,135,8|2,1:0|0:0,0:0:0:0:
89,288,50458,6,0,P|37:258|101:183,1,180,2|0,3:2|0:0,0:0:0:0:
244,202,51019,2,0,L|241:97,1,90,8|2,1:0|0:0,0:0:0:0:
184,100,51299,1,2,0:3:0:0:
444,218,51579,6,0,P|488:168|346:59,1,270,0|8,3:0|1:0,0:0:0:0:
151,123,52420,1,2,0:0:0:0:
411,180,52701,6,0,L|207:146,1,180,2|0,3:2|0:0,0:0:0:0:
332,102,53262,2,0,L|334:226,1,90,8|2,1:0|0:0,0:0:0:0:
285,229,53542,1,2,0:0:0:0:
31,248,53822,6,0,L|27:80,1,135,2|2,3:2|0:0,0:0:0:0:
269,102,54383,2,0,L|103:101,1,135,8|2,1:0|0:0,0:0:0:0:
501,168,54944,6,0,L|348:170,3,135,2|2|8|2,3:2|3:2|1:0|0:0,0:0:0:0:
15,245,56065,6,0,P|18:153|118:129,1,180,0|0,3:0|0:0,0:0:0:0:
270,203,56626,2,0,P|269:137|149:98,1,180,8|0,1:0|0:0,0:0:0:0:
481,96,57187,6,0,L|491:264,1,135,2|0,3:2|3:0,0:0:0:0:
254,255,57748,2,0,L|375:247,1,90,8|2,1:0|0:0,0:0:0:0:
386,214,58028,1,2,0:0:0:0:
10,232,58308,6,0,P|14:175|145:122,1,180,2|0,3:2|0:0,0:0:0:0:
289,192,58869,1,8,1:0:0:0:
64,157,59149,1,2,0:0:0:0:
414,235,59430,6,0,P|458:207|391:113,1,180,0|0,3:0|0:0,0:0:0:0:
238,125,59991,1,8,1:0:0:0:
383,65,60177,2,0,L|442:65,1,45,2|2,0:0|0:0,0:0:0:0:
87,250,60551,6,0,L|81:90,1,135,0|2,3:0|0:0,0:0:0:0:
317,139,61112,2,0,L|151:139,1,135,8|2,1:0|0:0,0:0:0:0:
427,275,61673,6,0,P|433:218|331:147,1,180,2|0,3:2|0:0,0:0:0:0:
159,140,62234,1,8,1:0:0:0:
72,106,62420,2,0,L|71:35,1,45,0|2,0:0|0:3,0:0:0:0:
441,77,62794,6,0,L|444:246,1,135,0|2,3:0|0:0,0:0:0:0:
176,265,63355,2,0,L|350:268,1,135,8|2,1:0|0:0,0:0:0:0:
59,165,63916,6,0,L|212:168,2,135,2|2|8,3:2|3:2|1:0,0:0:0:0:
404,181,64757,1,2,0:0:0:0:
55,204,65037,6,0,L|49:40,1,135,0|2,3:0|0:0,0:0:0:0:
287,66,65598,2,0,L|126:68,1,135,8|2,1:0|0:0,0:0:0:0:
493,78,66159,6,0,L|498:255,1,135,0|0,3:0|3:0,0:0:0:0:
259,278,66719,2,0,L|431:271,1,135,8|2,1:0|0:0,0:0:0:0:
35,247,67280,6,0,L|31:80,1,135,0|0,3:0|0:0,0:0:0:0:
250,119,67841,2,0,L|252:-50,1,135,0|2,3:0|0:3,0:0:0:0:
500,46,68402,6,0,L|506:190,1,135,0|2,3:0|0:3,0:0:0:0:
152,186,68962,2,0,L|-1:183,1,135,0|2,3:0|0:3,0:0:0:0:
86,123,69383,1,0,0:0:0:0:
314,231,69523,6,0,P|358:207|268:69,1,270,4|2,3:2|0:0,0:0:0:0:
151,108,70364,1,0,0:0:0:0:
298,81,70645,2,0,L|303:231,1,135,2|2,0:0|0:0,0:0:0:0:
87,269,71205,2,0,L|79:129,1,135,2|2,0:0|0:0,0:0:0:0:
464,68,71766,6,0,L|470:162,1,67.5
332,176,72187,2,0,L|326:94,1,67.5
197,111,72607,2,0,L|196:38,1,67.5
65,61,73028,2,0,L|58:-10,1,67.5
403,119,73448,5,4,3:2:0:0:
222,109,73869,1,0,0:0:0:0:
156,109,74009,2,0,L|149:33,1,67.5
281,60,74430,2,0,L|283:-17,1,67.5
416,105,74850,2,0,L|421:22,1,67.5
301,140,75271,2,0,L|385:136,1,67.5
27,229,75691,5,4,3:2:0:0:
202,156,76112,1,0,0:0:0:0:
267,137,76252,2,0,L|267:56,1,67.5
130,89,76673,2,0,L|126:13,1,67.5
255,44,77093,2,0,L|256:-32,1,67.5
112,71,77514,2,0,L|103:-10,1,67.5
449,116,77934,5,4,3:2:0:0:
257,118,78355,1,0,0:0:0:0:
194,93,78495,2,0,L|189:8,1,67.5
317,53,78916,2,0,L|322:-31,1,67.5
193,51,79336,2,0,L|185:-43,1,67.5
333,194,79617,5,0,1:0:0:0:
392,173,79757,1,0,1:0:0:0:
390,110,79897,1,0,1:0:0:0:
329,94,80037,1,0,1:0:0:0:
114,212,80177,1,0,1:0:0:0:
54,194,80317,1,0,1:0:0:0:
60,132,80457,1,0,1:0:0:0:
121,126,80597,1,0,1:0:0:0:
330,153,80738,6,0,L|414:151,1,67.5,0|2,3:0|2:1,0:0:0:0:
273,214,81159,2,0,L|188:218,1,67.5,2|0,2:1|1:0,0:0:0:0:
335,148,81579,2,0,L|336:67,1,67.5,2|2,2:1|2:1,0:0:0:0:
211,59,82000,2,0,L|106:64,1,67.5,2|2,2:1|2:1,0:0:0:0:
403,62,82420,6,0,L|413:230,1,135,0|0,1:0|0:0,0:0:0:0:
172,251,82981,2,0,L|282:245,1,67.5,0|2,3:0|2:1,0:0:0:0:
366,240,83402,2,0,L|286:243,1,67.5,2|0,2:1|1:0,0:0:0:0:
173,165,83822,2,0,L|92:164,1,67.5,2|2,2:1|2:1,0:0:0:0:
239,208,84243,2,0,L|325:207,1,67.5,2|2,2:1|2:1,0:0:0:0:
51,263,84663,6,0,L|44:69,1,135,0|0,1:0|0:0,0:0:0:0:
275,102,85224,2,0,L|178:104,1,67.5,0|2,3:0|2:1,0:0:0:0:
330,166,85645,2,0,L|334:85,1,67.5,2|0,2:1|1:0,0:0:0:0:
471,122,86065,2,0,L|478:38,1,67.5,2|2,2:1|2:1,0:0:0:0:
344,54,86486,2,0,L|424:54,1,67.5,2|2,2:1|2:1,0:0:0:0:
172,176,86906,6,0,L|24:177,1,135,0|0,1:0|1:0,0:0:0:0:
167,212,87467,2,0,L|170:142,1,67.5
283,142,87888,2,0,L|286:65,1,67.5
399,95,88308,2,0,L|404:9,1,67.5
278,60,88729,2,0,L|276:-25,1,67.5
401,43,89149,6,0,L|311:42,3,67.5,0|0|0|2,1:0|1:0|1:0|3:0,0:0:0:0:
