osu file format v14

[General]
AudioFilename: audio.mp3
AudioLeadIn: 0
PreviewTime: 47934
Countdown: 0
SampleSet: Soft
StackLeniency: 0.3
Mode: 2
LetterboxInBreaks: 0
WidescreenStoryboard: 1

[Editor]
Bookmarks: 29149,79617
DistanceSpacing: 0.9
BeatDivisor: 6
GridSize: 8
TimelineZoom: 2.2

[Metadata]
Title:Koko de Iki o Shite (TV Size)
TitleUnicode:ここで息をして (TV Size)
Artist:eill
ArtistUnicode:eill
Creator:Secre
Version:My Hero
Source:東京リベンジャーズ
Tags:chickenbible Emiru Ikuno 11 Ryo LEFTY Miyata Ryo’LEFTY’Miyata 東京卍會 wo manji-kai manji kai Tokyo Revengers single ver jp japanese anime pop jpop j-pop ed ending
BeatmapID:3100681
BeatmapSetID:1514469

[Difficulty]
HPDrainRate:5
CircleSize:4
OverallDifficulty:8.7
ApproachRate:8.7
SliderMultiplier:3
SliderTickRate:1

[Events]
//Background and Video events
Video,1680,"video.mp4"
0,0,"me and noki lookin like dad and bird.jpg",0,0
//Break Periods
//Storyboard Layer 0 (Background)
//Storyboard Layer 1 (Fail)
//Storyboard Layer 2 (Pass)
//Storyboard Layer 3 (Foreground)
//Storyboard Layer 4 (Overlay)
//Storyboard Sound Samples

[TimingPoints]
2234,560.747663551402,4,2,1,60,1,0
11205,-100,4,2,1,50,0,0
31392,-100,4,2,1,60,0,0
49336,-100,4,2,1,70,0,1
69102,-100,4,2,1,70,0,1
69243,-100,4,2,1,70,0,0
71766,-100,4,2,2,40,0,0
79617,-100,4,2,2,60,0,0
87467,-100,4,2,2,40,0,0
89149,-100,4,2,2,60,0,0

[Colours]
Combo1 : 103,131,133
Combo2 : 157,186,187
Combo3 : 181,179,145
Combo4 : 104,130,168

[HitObjects]
370,189,2234,5,2,0:0:0:0:
179,172,2654,2,0,L|176:111,1,37.5
226,98,2794,2,0,L|230:218,1,100
77,216,3262,1,0,0:0:0:0:
179,175,3355,1,0,0:0:0:0:
370,108,3542,2,0,P|411:142|343:203,1,150
299,201,3916,2,0,L|292:73,1,100
364,70,4196,2,0,L|369:212,1,100
167,218,4476,6,0,L|159:38,1,150,2|0,0:0|0:0,0:0:0:0:
392,72,5037,2,0,L|257:62,1,100
292,64,5318,1,0,0:0:0:0:
468,213,5505,1,0,0:0:0:0:
222,193,6159,1,0,0:0:0:0:
438,141,6719,5,2,0:0:0:0:
274,141,7140,2,0,L|271:78,1,37.5
329,63,7280,2,0,L|333:186,1,100
192,212,7748,1,0,0:0:0:0:
291,175,7841,1,0,0:0:0:0:
121,107,8028,2,0,P|80:141|148:202,1,150
192,200,8402,2,0,L|199:72,1,100
127,69,8682,2,0,L|122:211,1,100
324,217,8962,6,0,L|332:37,1,150,2|0,0:0|0:0,0:0:0:0:
99,71,9523,2,0,L|234:61,1,100
198,63,9804,1,0,0:0:0:0:
23,212,9991,2,0,L|17:147,1,50
165,149,10271,2,0,L|167:77,1,50
392,217,10645,1,0,3:0:0:0:
250,128,10925,2,0,L|367:124,1,75,0|0,3:0|0:0,0:0:0:0:
72,186,11205,6,0,P|10:125|89:58,1,200,0|0,3:0|0:0,0:0:0:0:
328,141,11766,2,0,B|485:150|485:150|493:199,1,200,0|2,1:0|0:0,0:0:0:0:
212,232,12327,2,0,P|160:191|203:151,1,100,0|0,3:0|0:0,0:0:0:0:
276,162,12607,2,0,P|330:129|315:70,1,100,2|0,3:2|0:0,0:0:0:0:
123,24,12888,2,0,P|80:65|61:199,1,200,0|2,1:0|0:0,0:0:0:0:
397,290,13448,6,0,P|447:253|394:200,1,150,0|2,3:0|0:0,0:0:0:0:
9,205,14009,2,0,L|239:198,1,200,0|0,1:0|0:0,0:0:0:0:
455,190,14570,2,0,P|464:254|438:297,1,100,0|0,3:0|0:0,0:0:0:0:
338,275,14850,2,0,P|291:240|285:171,1,100,2|0,3:2|0:0,0:0:0:0:
463,117,15131,2,0,P|479:156|459:300,1,150,0|2,1:0|0:0,0:0:0:0:
115,281,15691,6,0,L|339:221,1,200,0|0,3:0|0:0,0:0:0:0:
54,226,16252,2,0,P|5:184|74:132,1,150,0|2,1:0|0:0,0:0:0:0:
389,110,16813,2,0,P|435:154|437:202,1,100,0|0,3:0|0:0,0:0:0:0:
316,247,17093,2,0,P|271:224|269:161,1,100,0|0,3:0|0:0,0:0:0:0:
429,149,17374,1,0,1:0:0:0:
328,144,17561,2,0,L|325:72,1,50,2|2,0:0|0:0,0:0:0:0:
412,67,17841,1,2,0:0:0:0:
181,168,17934,6,0,P|131:136|133:72,1,100,0|0,3:0|0:0,0:0:0:0:
290,51,18215,2,0,P|344:78|351:124,1,100,2|2,0:0|0:0,0:0:0:0:
168,196,18495,2,0,L|39:186,1,100,0|2,1:0|0:0,0:0:0:0:
68,188,18962,1,0,0:0:0:0:
226,213,19056,2,0,L|234:84,1,100,2|0,3:2|0:0,0:0:0:0:
384,210,19336,2,0,L|391:63,1,100,2|0,3:2|0:0,0:0:0:0:
221,105,19617,2,0,L|65:101,1,150,0|2,1:0|0:0,0:0:0:0:
448,260,20177,6,0,P|490:237|425:131,1,200,2|0,3:0|0:0,0:0:0:0:
190,117,20738,2,0,L|5:213,1,200,0|2,1:0|0:0,0:0:0:0:
300,232,21299,2,0,P|352:191|309:151,1,100,0|0,3:0|0:0,0:0:0:0:
243,168,21579,2,0,P|189:135|204:76,1,100,2|0,3:2|0:0,0:0:0:0:
426,54,21860,2,0,L|436:255,1,150,0|2,1:0|0:0,0:0:0:0:
94,292,22420,6,0,P|44:255|97:202,1,150,0|2,3:0|0:0,0:0:0:0:
494,206,22981,2,0,L|265:201,1,200,0|2,1:0|0:0,0:0:0:0:
48,177,23542,2,0,P|39:241|65:284,1,100,0|0,3:0|0:0,0:0:0:0:
167,266,23822,2,0,P|214:231|224:182,1,100,2|0,3:2|0:0,0:0:0:0:
27,101,24103,2,0,L|26:309,1,150,0|2,1:0|0:0,0:0:0:0:
401,284,24663,6,0,L|177:224,1,200,0|0,3:0|0:0,0:0:0:0:
458,226,25224,2,0,P|507:184|438:132,1,150,0|2,1:0|0:0,0:0:0:0:
115,102,25785,2,0,P|65:135|57:193,1,100,0|0,3:0|0:0,0:0:0:0:
169,227,26065,2,0,P|214:204|216:141,1,100,0|0,3:0|0:0,0:0:0:0:
62,150,26346,1,0,1:0:0:0:
158,149,26533,2,0,L|161:77,1,50,2|2,0:0|0:0,0:0:0:0:
59,64,26813,1,2,0:0:0:0:
255,197,26906,6,0,P|305:165|303:101,1,100,0|2,3:0|0:0,0:0:0:0:
207,53,27187,2,0,P|153:80|146:126,1,100,2|0,0:0|0:0,0:0:0:0:
344,196,27467,2,0,L|473:186,1,100,0|2,1:0|0:0,0:0:0:0:
444,188,27934,1,0,0:0:0:0:
287,227,28028,2,0,L|279:98,1,100,2|0,3:2|0:0,0:0:0:0:
124,195,28308,2,0,L|117:48,1,100,2|0,3:2|0:0,0:0:0:0:
291,105,28589,2,0,L|447:101,1,150,0|2,1:0|0:0,0:0:0:0:
80,257,29149,6,0,L|71:88,1,150,0|2,3:0|0:3,0:0:0:0:
225,117,29570,2,0,L|229:178,1,37.5
76,245,29710,2,0,L|66:65,1,150,0|2,1:0|0:3,0:0:0:0:
428,86,30271,2,0,L|438:260,1,150,0|2,3:0|3:0,0:0:0:0:
145,262,30832,2,0,L|261:255,1,100,0|0,1:0|3:0,0:0:0:0:
184,193,31112,2,0,L|302:190,1,100,0|0,3:0|0:0,0:0:0:0:
56,313,31392,6,0,P|27:258|209:176,1,300,4|2,3:2|0:0,0:0:0:0:
51,183,32234,1,2,0:0:0:0:
500,241,32514,2,0,L|200:180,1,300,4|2,3:2|0:0,0:0:0:0:
412,152,33355,1,2,0:0:0:0:
70,231,33635,6,0,L|402:218,1,300,4|2,3:2|0:0,0:0:0:0:
120,155,34476,1,2,0:0:0:0:
482,266,34757,2,0,P|488:199|281:141,1,300,4|0,3:2|1:0,0:0:0:0:
435,201,35598,1,2,0:0:0:0:
91,243,35878,6,0,L|271:231,1,150,0|2,3:0|0:0,0:0:0:0:
476,254,36439,2,0,L|288:238,1,150,0|2,1:0|0:0,0:0:0:0:
46,174,37000,2,0,L|229:176,2,150,0|2|0,3:0|0:0|1:0,0:0:0:0:
412,292,37841,6,0,P|490:258|384:131,1,300,2|2,0:0|0:0,0:0:0:0:
33,269,38682,2,0,L|24:75,1,150,0|8,1:0|0:1,0:0:0:0:
372,147,39243,2,0,L|186:144,1,150,2|8,3:2|0:1,0:0:0:0:
222,144,39617,1,0,0:0:0:0:
492,137,39804,2,0,L|494:262,1,100,0|8,1:0|3:0,0:0:0:0:
304,274,40084,2,0,L|291:135,1,100,4|0,3:0|0:0,0:0:0:0:
86,214,40364,6,0,P|70:158|271:88,1,300,4|2,3:2|0:0,0:0:0:0:
434,105,41205,1,2,0:0:0:0:
48,190,41486,2,0,L|352:131,1,300,4|2,3:2|0:0,0:0:0:0:
116,101,42327,1,2,0:0:0:0:
496,240,42607,6,0,L|169:327,1,300,4|2,3:2|0:0,0:0:0:0:
426,138,43448,1,2,0:0:0:0:
24,259,43729,2,0,P|8:197|190:172,1,300,4|0,3:2|3:0,0:0:0:0:
54,206,44570,1,2,0:0:0:0:
456,258,44850,6,0,L|461:75,1,150,0|0,3:0|0:0,0:0:0:0:
117,201,45411,2,0,L|108:31,1,150,0|2,3:0|0:3,0:0:0:0:
238,26,45832,1,0,0:0:0:0:
474,56,45972,2,0,L|487:231,1,150,0|2,3:0|0:3,0:0:0:0:
141,196,46533,1,0,3:0:0:0:
368,162,46813,1,2,0:3:0:0:
18,140,47093,6,0,P|30:62|229:129,1,300,4|0,3:2|0:0,0:0:0:0:
105,123,47934,1,2,0:0:0:0:
355,191,48215,2,0,P|407:134|340:73,1,150,2|0,0:0|0:0,0:0:0:0:
111,116,48776,1,2,0:0:0:0:
273,105,48962,2,0,L|276:27,1,50,2|2,0:0|0:0,0:0:0:0:
178,37,49243,1,0,0:0:0:0:
446,214,49336,6,0,L|450:106,1,100,6|0,3:2|0:0,0:0:0:0:
392,143,49617,2,0,L|388:277,1,100,8|0,0:1|0:0,0:0:0:0:
203,172,49897,1,8,1:0:0:0:
110,99,50084,2,0,L|195:97,1,50,2|2,0:0|0:0,0:0:0:0:
321,109,50364,1,2,0:0:0:0:
119,253,50458,2,0,P|77:211|137:159,1,150,2|0,3:2|3:0,0:0:0:0:
481,186,51019,2,0,L|335:183,1,100,8|2,1:0|0:0,0:0:0:0:
313,168,51299,2,0,L|421:157,1,100,2|2,0:3|0:0,0:0:0:0:
171,230,51579,6,0,P|57:170|38:98,1,200,0|0,3:0|0:0,0:0:0:0:
404,85,52140,2,0,P|470:102|489:179,1,150,8|2,1:0|0:0,0:0:0:0:
146,235,52701,2,0,L|391:211,1,200,2|0,3:2|0:0,0:0:0:0:
81,136,53262,1,8,1:0:0:0:
219,126,53448,2,0,L|223:52,1,50,2|2,0:0|0:0,0:0:0:0:
362,72,53729,1,2,0:0:0:0:
183,184,53822,6,0,L|11:177,1,150,2|2,3:2|0:0,0:0:0:0:
325,272,54383,2,0,L|500:270,1,150,8|2,1:0|0:0,0:0:0:0:
13,192,54944,2,0,L|202:187,3,150,2|2|8|2,3:2|3:2|1:0|0:0,0:0:0:0:
504,238,56065,6,0,L|240:206,1,250,0|0,3:0|0:0,0:0:0:0:
52,260,56626,2,0,P|10:231|127:133,1,250,8|0,1:0|0:0,0:0:0:0:
329,128,57187,2,0,L|492:122,1,150,2|0,3:2|3:0,0:0:0:0:
127,220,57748,2,0,L|268:207,1,100,8|2,1:0|0:0,0:0:0:0:
154,162,58028,2,0,L|145:45,1,100,2|2,0:0|0:0,0:0:0:0:
379,53,58308,6,0,P|457:73|461:186,1,200,2|0,3:2|0:0,0:0:0:0:
407,191,58776,1,0,0:0:0:0:
221,180,58869,2,0,L|216:76,1,100,8|2,1:0|0:0,0:0:0:0:
145,77,59149,2,0,L|136:-32,1,100,2|2,0:0|0:0,0:0:0:0:
379,31,59430,2,0,P|458:51|488:145,1,150,0|0,3:0|0:0,0:0:0:0:
148,228,59991,2,0,L|284:225,1,100,8|2,1:0|0:0,0:0:0:0:
176,171,60271,2,0,L|173:54,1,100,2|2,0:0|0:0,0:0:0:0:
431,46,60551,6,0,L|455:221,1,150,0|2,3:0|0:0,0:0:0:0:
303,195,60972,2,0,L|241:196,1,37.5
411,111,61112,2,0,L|426:216,1,100,8|2,1:0|0:0,0:0:0:0:
348,248,61392,2,0,L|463:243,1,100,2|2,0:0|0:0,0:0:0:0:
209,285,61673,1,2,3:2:0:0:
103,224,61860,2,0,P|42:207|42:96,1,150
257,96,62234,2,0,L|382:94,1,100,8|0,1:0|0:0,0:0:0:0:
170,164,62514,2,0,L|38:155,1,100,2|0,0:3|0:0,0:0:0:0:
308,227,62794,6,0,L|314:42,1,150,0|2,3:0|0:0,0:0:0:0:
56,121,63355,2,0,L|248:117,1,150,8|2,1:0|0:0,0:0:0:0:
471,201,63916,2,0,L|295:197,1,150,2|2,3:2|3:2,0:0:0:0:
86,122,64476,1,8,1:0:0:0:
353,93,64757,1,2,0:0:0:0:
12,192,65037,6,0,L|205:186,1,150,0|2,3:0|0:0,0:0:0:0:
86,122,65458,1,0,0:0:0:0:
371,215,65598,2,0,L|200:214,1,150,8|2,1:0|0:0,0:0:0:0:
298,152,66019,1,0,0:0:0:0:
59,241,66159,2,0,L|56:48,1,150,0|0,3:0|3:0,0:0:0:0:
303,95,66719,2,0,L|117:93,1,150,8|2,1:0|0:0,0:0:0:0:
153,93,67140,1,0,0:0:0:0:
443,253,67280,6,0,P|476:184|294:138,1,300,0|0,3:0|3:0,0:0:0:0:
447,202,68121,1,2,0:3:0:0:
31,244,68402,2,0,L|24:62,1,150,0|2,3:0|0:3,0:0:0:0:
377,80,68962,1,0,3:0:0:0:
150,83,69243,1,2,0:3:0:0:
496,122,69523,6,0,P|501:209|305:264,1,300,4|2,3:2|0:0,0:0:0:0:
428,198,70364,1,0,0:0:0:0:
301,192,70645,2,0,L|293:37,1,150,2|2,0:0|0:0,0:0:0:0:
434,36,71205,2,0,L|439:212,1,150,2|2,0:0|0:0,0:0:0:0:
41,274,71766,6,0,L|36:174,1,75
182,160,72187,2,0,L|184:64,1,75
331,97,72607,2,0,L|334:3,1,75
475,117,73028,2,0,L|479:18,1,75
61,123,73448,1,4,3:2:0:0:
229,122,73869,6,0,L|314:121,2,75
82,183,74430,2,0,L|195:181,1,75
293,179,74850,2,0,L|391:178,1,75
217,93,75271,2,0,L|123:94,1,75
508,149,75691,1,4,3:2:0:0:
319,190,76112,6,0,L|214:190,2,75
194,104,76673,2,0,L|106:104,1,75
265,98,77093,2,0,L|354:97,1,75
481,139,77514,2,0,L|396:140,1,75
47,201,77934,1,4,3:2:0:0:
251,146,78355,6,0,L|359:141,2,75
110,150,78916,2,0,L|100:42,1,75
233,54,79336,2,0,L|343:55,1,75
108,175,79617,6,0,L|102:73,1,75,0|0,1:0|1:0,0:0:0:0:
315,118,79897,2,0,L|321:21,1,75,0|0,1:0|1:0,0:0:0:0:
274,26,80107,1,0,1:0:0:0:
123,66,80177,2,0,L|33:67,1,75,0|0,1:0|1:0,0:0:0:0:
286,205,80458,2,0,L|381:204,1,75,0|0,1:0|1:0,0:0:0:0:
87,195,80738,6,0,L|75:107,1,75,0|2,3:0|2:1,0:0:0:0:
320,98,81159,2,0,L|211:100,1,75,2|0,2:1|1:0,0:0:0:0:
473,238,81579,2,0,L|478:147,1,75,2|2,2:1|2:1,0:0:0:0:
223,158,82000,2,0,L|133:157,1,75,2|2,2:1|2:1,0:0:0:0:
499,83,82420,2,0,L|501:245,1,150,0|0,1:0|0:0,0:0:0:0:
147,174,82981,6,0,L|249:171,1,75,0|2,3:0|2:1,0:0:0:0:
458,224,83402,2,0,L|363:223,1,75,2|0,2:1|1:0,0:0:0:0:
126,193,83822,2,0,L|118:82,1,75,2|2,2:1|2:1,0:0:0:0:
362,86,84243,2,0,L|455:83,1,75,2|2,2:1|2:1,0:0:0:0:
64,286,84663,2,0,L|59:107,1,150,0|0,1:0|0:0,0:0:0:0:
452,156,85224,6,0,L|341:157,1,75,0|2,3:0|2:1,0:0:0:0:
127,185,85645,2,0,L|122:87,1,75,2|0,2:1|1:0,0:0:0:0:
367,113,86065,2,0,L|372:12,1,75,2|2,2:1|2:1,0:0:0:0:
122,49,86486,2,0,L|42:51,1,75,2|2,2:1|2:1,0:0:0:0:
434,102,86906,2,0,L|447:278,1,150,0|0,1:0|1:0,0:0:0:0:
233,279,87467,6,0,L|222:176,1,75
99,162,87888,2,0,L|88:66,1,75
228,101,88308,2,0,L|231:17,1,75
373,87,88729,2,0,L|377:-5,1,75
111,216,89149,6,0,L|199:215,3,75,0|0|0|2,1:0|1:0|1:0|3:0,0:0:0:0:
