osu file format v14

[General]
AudioFilename: audio.mp3
AudioLeadIn: 0
PreviewTime: 80065
Countdown: 0
SampleSet: Soft
StackLeniency: 0.7
Mode: 3
LetterboxInBreaks: 0
SpecialStyle: 0
WidescreenStoryboard: 0

[Editor]
Bookmarks: 17565,20065,30065,40065,50065,60065,70065,80065,90065,95065,99440,100065,110065,117565,130065,135065,138815
DistanceSpacing: 1
BeatDivisor: 3
GridSize: 8
TimelineZoom: 2.2

[Metadata]
Title:R.I.P.
TitleUnicode:R.I.P.
Artist:eicateve
ArtistUnicode:eicateve
Creator:Pengdoll
Version:Asha's 4K Hyper
Source:CHUNITHM CRYSTAL
Tags:electronic video game instrumental BMS RIP G2R2018 -GO BACK 2 YOUR ROOTS 2018 climax- 旅立った彼女へ Her requiem えいか eicaTV シ 死 hrchem TOHRU MiTSUHASHi Ticle _Asha
BeatmapID:2182193
BeatmapSetID:1036613

[Difficulty]
HPDrainRate:7.7
CircleSize:4
OverallDifficulty:7.7
ApproachRate:5
SliderMultiplier:1.4
SliderTickRate:1

[Events]
//Background and Video events
0,0,"BG.jpg",0,0
//Break Periods
//Storyboard Layer 0 (Background)
//Storyboard Layer 1 (Fail)
//Storyboard Layer 2 (Pass)
//Storyboard Layer 3 (Foreground)
//Storyboard Layer 4 (Overlay)
//Storyboard Sound Samples
Sample,29830,0,"impact.wav",50
Sample,29986,0,"impact.wav",50
Sample,34908,0,"impact.wav",50
Sample,34986,0,"impact.wav",50
Sample,39023,0,"impact.wav",50
Sample,39335,0,"impact.wav",50
Sample,39648,0,"impact.wav",50
Sample,48658,0,"impact2.wav",50
Sample,48736,0,"impact2.wav",50
Sample,48815,0,"impact2.wav",50
Sample,58502,0,"impact2.wav",50
Sample,58658,0,"impact2.wav",50
Sample,60065,0,"shinden.wav",70

[TimingPoints]
65,312.5,4,2,1,40,1,0
60065,-100,4,2,1,20,0,0
95065,-100,4,2,1,40,0,0
120065,-100,4,2,1,40,0,1
140065,-100,4,2,1,40,0,0

[HitObjects]
64,192,65,5,0,0:0:0:50:crash.wav
448,192,65,1,0,0:0:0:0:
192,192,221,1,0,0:0:0:0:
320,192,377,1,0,0:0:0:0:
64,192,533,1,0,0:0:0:0:
192,192,690,1,0,0:0:0:0:
320,192,846,1,0,0:0:0:0:
64,192,1002,1,0,0:0:0:0:
192,192,1158,1,0,0:0:0:0:
320,192,1315,1,0,0:0:0:0:
64,192,1471,1,0,0:0:0:0:
192,192,1627,1,0,0:0:0:0:
320,192,1783,1,0,0:0:0:0:
64,192,1940,1,0,0:0:0:0:
192,192,2096,1,0,0:0:0:0:
320,192,2252,1,0,0:0:0:0:
192,192,2408,1,0,0:0:0:0:
64,192,2565,1,0,0:0:0:30:crash.wav
448,192,2565,1,0,0:0:0:0:
320,192,2721,1,0,0:0:0:0:
192,192,2877,1,0,0:0:0:0:
448,192,3033,1,0,0:0:0:0:
320,192,3190,1,0,0:0:0:0:
192,192,3346,1,0,0:0:0:0:
448,192,3502,1,0,0:0:0:0:
320,192,3658,1,0,0:0:0:0:
192,192,3815,1,0,0:0:0:0:
448,192,3971,1,0,0:0:0:0:
320,192,4127,1,0,0:0:0:0:
192,192,4283,1,0,0:0:0:0:
448,192,4440,1,0,0:0:0:0:
320,192,4596,1,0,0:0:0:0:
192,192,4752,1,0,0:0:0:0:
320,192,4908,1,0,0:0:0:0:
64,192,5065,1,0,0:0:0:30:crash.wav
448,192,5065,1,0,0:0:0:0:
192,192,5221,1,0,0:0:0:0:
448,192,5377,1,0,0:0:0:0:
64,192,5533,1,0,0:0:0:0:
192,192,5690,1,0,0:0:0:0:
448,192,5846,1,0,0:0:0:0:
64,192,6002,1,0,0:0:0:0:
192,192,6158,1,0,0:0:0:0:
448,192,6315,1,0,0:0:0:0:
64,192,6471,1,0,0:0:0:0:
192,192,6627,1,0,0:0:0:0:
448,192,6783,1,0,0:0:0:0:
64,192,6940,1,0,0:0:0:0:
192,192,7096,1,0,0:0:0:0:
448,192,7252,1,0,0:0:0:0:
320,192,7408,1,0,0:0:0:0:
64,192,7565,1,0,0:0:0:30:crash.wav
192,192,7565,1,0,0:0:0:0:
320,192,7721,1,0,0:0:0:0:
448,192,7877,1,0,0:0:0:0:
64,192,8033,1,0,0:0:0:0:
320,192,8190,1,0,0:0:0:0:
448,192,8346,1,0,0:0:0:0:
192,192,8502,1,0,0:0:0:0:
320,192,8658,1,0,0:0:0:0:
64,192,8815,1,0,0:0:0:0:
192,192,8815,1,0,0:0:0:0:
448,192,8971,1,0,0:0:0:0:
192,192,9127,1,0,0:0:0:0:
64,192,9283,1,0,0:0:0:0:
448,192,9440,1,0,0:0:0:0:
192,192,9596,1,0,0:0:0:0:
64,192,9752,1,0,0:0:0:0:
320,192,9908,1,0,0:0:0:0:
192,192,10065,1,0,0:0:0:70:kick.wav
448,192,10065,1,0,0:0:0:50:crash.wav
64,192,10221,1,0,0:0:0:0:
320,192,10377,1,0,0:0:0:0:
192,192,10533,1,0,0:0:0:0:
64,192,10690,1,0,0:0:0:0:
320,192,10846,1,0,0:0:0:0:
192,192,11002,1,0,0:0:0:0:
64,192,11158,1,0,0:0:0:0:
320,192,11315,1,0,0:0:0:0:
192,192,11471,1,0,0:0:0:0:
64,192,11627,1,0,0:0:0:0:
320,192,11783,1,0,0:0:0:0:
64,192,11940,1,0,0:0:0:70:kick.wav
192,192,11940,1,0,0:0:0:0:
320,192,12096,1,0,0:0:0:0:
448,192,12252,1,0,0:0:0:0:
192,192,12408,1,0,0:0:0:0:
320,192,12565,1,0,0:0:0:70:kick.wav
448,192,12565,1,0,0:0:0:0:
64,192,12721,1,0,0:0:0:0:
192,192,12877,1,0,0:0:0:0:
320,192,13033,1,0,0:0:0:0:
64,192,13190,1,0,0:0:0:0:
192,192,13346,1,0,0:0:0:0:
320,192,13502,1,0,0:0:0:0:
64,192,13658,1,0,0:0:0:0:
192,192,13815,1,0,0:0:0:0:
320,192,13971,1,0,0:0:0:0:
64,192,14127,1,0,0:0:0:0:
192,192,14283,1,0,0:0:0:0:
320,192,14440,1,0,0:0:0:70:kick.wav
448,192,14440,1,0,0:0:0:0:
64,192,14596,1,0,0:0:0:70:kick.wav
192,192,14596,1,0,0:0:0:0:
448,192,14752,1,0,0:0:0:0:
320,192,14908,1,0,0:0:0:0:
64,192,15065,1,0,0:0:0:70:kick.wav
192,192,15065,1,0,0:0:0:0:
448,192,15221,1,0,0:0:0:0:
64,192,15377,1,0,0:0:0:0:
320,192,15533,1,0,0:0:0:0:
448,192,15690,1,0,0:0:0:0:
64,192,15846,1,0,0:0:0:0:
320,192,16002,1,0,0:0:0:0:
448,192,16158,1,0,0:0:0:0:
64,192,16315,1,0,0:0:0:0:
320,192,16471,1,0,0:0:0:0:
448,192,16627,1,0,0:0:0:0:
64,192,16783,1,0,0:0:0:0:
192,192,16940,1,0,0:0:0:70:kick.wav
320,192,16940,1,0,0:0:0:0:
448,192,17096,1,0,0:0:0:0:
64,192,17252,1,0,0:0:0:0:
320,192,17408,1,0,0:0:0:0:
64,192,17565,1,0,0:0:0:50:snare.wav
192,192,17565,1,0,0:0:0:0:
64,192,17721,1,0,0:0:0:50:snare.wav
192,192,17721,1,0,0:0:0:0:
320,192,17877,1,0,0:0:0:50:snare.wav
448,192,17877,1,0,0:0:0:0:
320,192,18033,1,0,0:0:0:50:snare.wav
448,192,18033,1,0,0:0:0:0:
64,192,18190,1,0,0:0:0:50:snare.wav
192,192,18190,1,0,0:0:0:0:
64,192,18346,1,0,0:0:0:50:snare.wav
192,192,18346,1,0,0:0:0:0:
320,192,18502,1,0,0:0:0:50:snare.wav
448,192,18502,1,0,0:0:0:0:
320,192,18658,1,0,0:0:0:50:snare.wav
448,192,18658,1,0,0:0:0:0:
64,192,18815,1,0,0:0:0:50:snare2.wav
192,192,18815,1,0,0:0:0:0:
448,192,18893,1,0,0:0:0:50:snare2.wav
320,192,18971,1,0,0:0:0:50:snare2.wav
64,192,19049,1,0,0:0:0:50:snare2.wav
320,192,19127,1,0,0:0:0:50:snare2.wav
448,192,19127,1,0,0:0:0:0:
64,192,19205,1,0,0:0:0:50:snare2.wav
448,192,19283,1,0,0:0:0:50:snare2.wav
320,192,19361,1,0,0:0:0:50:snare2.wav
192,192,19440,128,0,19596:0:0:0:25:kick.wav
448,192,19596,128,0,19752:0:0:0:25:kick.wav
64,192,19752,1,0,0:0:0:25:kick.wav
320,192,19830,1,0,0:0:0:0:
192,192,19908,1,0,0:0:0:0:
448,192,19986,1,0,0:0:0:0:
64,192,20065,128,0,20143:0:0:0:70:kick.wav
320,192,20065,1,0,0:0:0:50:crash.wav
64,192,20221,128,0,20377:0:0:0:0:
320,192,20377,1,0,0:0:0:50:snare.wav
448,192,20377,1,0,0:0:0:0:
448,192,20533,128,0,20690:0:0:0:0:
192,192,20690,1,0,0:0:0:0:
192,192,20846,128,0,21002:0:0:0:70:kick.wav
448,192,20846,1,0,0:0:0:0:
64,192,21002,1,0,0:0:0:50:snare.wav
320,192,21002,1,0,0:0:0:0:
320,192,21158,128,0,21315:0:0:0:0:
192,192,21236,1,0,0:0:0:0:
64,192,21315,1,0,0:0:0:70:kick.wav
448,192,21315,1,0,0:0:0:0:
64,192,21471,128,0,21627:0:0:0:0:
320,192,21627,1,0,0:0:0:50:snare.wav
448,192,21627,1,0,0:0:0:0:
448,192,21783,128,0,21940:0:0:0:0:
320,192,21940,1,0,0:0:0:0:
192,192,22018,1,0,0:0:0:0:
64,192,22096,1,0,0:0:0:70:kick.wav
448,192,22174,1,0,0:0:0:0:
192,192,22252,1,0,0:0:0:50:snare.wav
320,192,22330,1,0,0:0:0:0:
448,192,22408,1,0,0:0:0:0:
64,192,22486,1,0,0:0:0:0:
192,192,22565,128,0,22643:0:0:0:70:kick.wav
320,192,22565,1,0,0:0:0:0:
192,192,22721,128,0,22877:0:0:0:0:
320,192,22877,1,0,0:0:0:50:snare.wav
448,192,22877,1,0,0:0:0:0:
320,192,23033,128,0,23190:0:0:0:0:
64,192,23190,1,0,0:0:0:0:
64,192,23346,128,0,23502:0:0:0:70:kick.wav
192,192,23346,1,0,0:0:0:0:
320,192,23502,1,0,0:0:0:50:snare.wav
448,192,23502,1,0,0:0:0:0:
448,192,23658,128,0,23815:0:0:0:0:
64,192,23736,1,0,0:0:0:0:
192,192,23815,1,0,0:0:0:70:kick.wav
320,192,23815,1,0,0:0:0:0:
192,192,23971,128,0,24127:0:0:0:70:kick.wav
448,192,23971,1,0,0:0:0:0:
64,192,24127,1,0,0:0:0:50:snare.wav
320,192,24127,1,0,0:0:0:0:
192,192,24283,1,0,0:0:0:0:
320,192,24361,1,0,0:0:0:50:snare.wav
448,192,24361,1,0,0:0:0:0:
64,192,24440,1,0,0:0:0:0:
192,192,24518,1,0,0:0:0:0:
320,192,24596,1,0,0:0:0:70:kick.wav
448,192,24674,1,0,0:0:0:0:
64,192,24752,1,0,0:0:0:50:snare.wav
192,192,24830,1,0,0:0:0:0:
320,192,24908,1,0,0:0:0:70:kick.wav
448,192,24986,1,0,0:0:0:70:kick.wav
64,192,25065,1,0,0:0:0:70:kick.wav
192,192,25065,128,0,25143:0:0:0:0:
192,192,25221,128,0,25377:0:0:0:0:
320,192,25377,1,0,0:0:0:50:snare.wav
448,192,25377,1,0,0:0:0:0:
320,192,25533,128,0,25690:0:0:0:0:
64,192,25690,1,0,0:0:0:0:
64,192,25846,128,0,26002:0:0:0:70:kick.wav
320,192,25846,1,0,0:0:0:0:
192,192,26002,1,0,0:0:0:50:snare.wav
448,192,26002,1,0,0:0:0:0:
448,192,26158,128,0,26315:0:0:0:0:
320,192,26236,1,0,0:0:0:0:
64,192,26315,1,0,0:0:0:70:kick.wav
192,192,26315,1,0,0:0:0:0:
192,192,26471,128,0,26627:0:0:0:0:
64,192,26627,1,0,0:0:0:50:snare.wav
320,192,26627,1,0,0:0:0:0:
320,192,26783,128,0,26940:0:0:0:0:
192,192,26940,1,0,0:0:0:0:
320,192,27018,1,0,0:0:0:0:
64,192,27096,1,0,0:0:0:70:kick.wav
192,192,27174,1,0,0:0:0:0:
320,192,27252,1,0,0:0:0:50:snare.wav
448,192,27252,1,0,0:0:0:0:
64,192,27408,1,0,0:0:0:0:
192,192,27565,1,0,0:0:0:70:kick.wav
448,192,27565,128,0,27643:0:0:0:0:
448,192,27721,128,0,27877:0:0:0:0:
64,192,27877,1,0,0:0:0:50:snare.wav
320,192,27877,1,0,0:0:0:0:
192,192,28033,1,0,0:0:0:0:
320,192,28111,1,0,0:0:0:50:snare.wav
448,192,28111,1,0,0:0:0:0:
64,192,28190,1,0,0:0:0:0:
320,192,28346,1,0,0:0:0:50:snare.wav
448,192,28346,1,0,0:0:0:0:
192,192,28424,1,0,0:0:0:50:snare.wav
64,192,28502,1,0,0:0:0:50:snare.wav
448,192,28502,1,0,0:0:0:0:
320,192,28580,1,0,0:0:0:0:
192,192,28658,1,0,0:0:0:70:kick.wav
448,192,28736,1,0,0:0:0:70:kick.wav
64,192,28815,1,0,0:0:0:70:kick.wav
192,192,28815,1,0,0:0:0:50:impact.wav
64,192,28971,1,0,0:0:0:70:kick.wav
192,192,28971,1,0,0:0:0:50:impact.wav
320,192,29127,1,0,0:0:0:70:kick.wav
448,192,29127,1,0,0:0:0:50:impact.wav
320,192,29283,1,0,0:0:0:70:kick.wav
448,192,29283,1,0,0:0:0:50:impact.wav
64,192,29440,1,0,0:0:0:70:kick.wav
192,192,29440,1,0,0:0:0:50:impact.wav
64,192,29596,1,0,0:0:0:70:kick.wav
192,192,29596,1,0,0:0:0:50:impact.wav
320,192,29752,1,0,0:0:0:70:kick.wav
448,192,29752,1,0,0:0:0:50:impact.wav
192,192,29830,1,0,0:0:0:70:kick.wav
64,192,29908,1,0,0:0:0:70:kick.wav
448,192,29908,1,0,0:0:0:50:impact.wav
320,192,29986,1,0,0:0:0:70:kick.wav
64,192,30065,128,0,30143:0:0:0:50:crash.wav
192,192,30065,1,0,0:0:0:0:
64,192,30221,128,0,30377:0:0:0:0:
320,192,30377,1,0,0:0:0:50:snare.wav
448,192,30377,1,0,0:0:0:0:
320,192,30533,128,0,30690:0:0:0:0:
192,192,30690,1,0,0:0:0:0:
64,192,30846,1,0,0:0:0:70:kick.wav
192,192,30846,128,0,31002:0:0:0:0:
320,192,31002,1,0,0:0:0:50:snare.wav
448,192,31002,1,0,0:0:0:0:
448,192,31158,128,0,31315:0:0:0:0:
320,192,31236,1,0,0:0:0:0:
64,192,31315,1,0,0:0:0:70:kick.wav
192,192,31315,1,0,0:0:0:0:
64,192,31471,128,0,31627:0:0:0:0:
192,192,31627,1,0,0:0:0:50:snare.wav
320,192,31627,1,0,0:0:0:0:
320,192,31783,128,0,31940:0:0:0:0:
192,192,31940,1,0,0:0:0:0:
320,192,32018,1,0,0:0:0:0:
64,192,32096,1,0,0:0:0:70:kick.wav
192,192,32174,1,0,0:0:0:0:
448,192,32252,1,0,0:0:0:50:snare.wav
320,192,32330,1,0,0:0:0:0:
192,192,32408,1,0,0:0:0:0:
64,192,32486,1,0,0:0:0:0:
320,192,32565,1,0,0:0:0:70:kick.wav
448,192,32565,128,0,32643:0:0:0:0:
448,192,32721,128,0,32877:0:0:0:0:
64,192,32877,1,0,0:0:0:50:snare.wav
192,192,32877,1,0,0:0:0:0:
192,192,33033,128,0,33190:0:0:0:0:
320,192,33190,1,0,0:0:0:0:
320,192,33346,128,0,33502:0:0:0:70:kick.wav
448,192,33346,1,0,0:0:0:0:
64,192,33502,1,0,0:0:0:50:snare.wav
192,192,33502,1,0,0:0:0:0:
64,192,33658,128,0,33815:0:0:0:0:
448,192,33736,1,0,0:0:0:0:
192,192,33815,1,0,0:0:0:70:kick.wav
320,192,33815,1,0,0:0:0:0:
192,192,33971,1,0,0:0:0:70:kick.wav
448,192,33971,128,0,34127:0:0:0:0:
64,192,34127,1,0,0:0:0:50:snare.wav
320,192,34127,1,0,0:0:0:0:
192,192,34283,1,0,0:0:0:0:
320,192,34361,1,0,0:0:0:50:snare.wav
448,192,34361,1,0,0:0:0:0:
64,192,34440,1,0,0:0:0:70:kick.wav
192,192,34440,1,0,0:0:0:50:impact.wav
64,192,34596,1,0,0:0:0:70:kick.wav
192,192,34596,1,0,0:0:0:50:impact2.wav
448,192,34752,1,0,0:0:0:50:snare.wav
320,192,34830,1,0,0:0:0:0:
192,192,34908,1,0,0:0:0:70:kick.wav
64,192,34986,1,0,0:0:0:70:kick.wav
320,192,35065,128,0,35143:0:0:0:70:kick.wav
448,192,35065,1,0,0:0:0:50:crash.wav
320,192,35221,128,0,35377:0:0:0:0:
64,192,35377,1,0,0:0:0:50:snare.wav
448,192,35377,1,0,0:0:0:0:
64,192,35533,128,0,35690:0:0:0:0:
320,192,35690,1,0,0:0:0:0:
192,192,35846,1,0,0:0:0:70:kick.wav
320,192,35846,128,0,36002:0:0:0:0:
64,192,36002,1,0,0:0:0:50:snare.wav
448,192,36002,1,0,0:0:0:0:
448,192,36158,128,0,36315:0:0:0:0:
320,192,36236,1,0,0:0:0:0:
64,192,36315,1,0,0:0:0:70:kick.wav
192,192,36315,1,0,0:0:0:0:
192,192,36471,128,0,36627:0:0:0:0:
320,192,36627,1,0,0:0:0:50:snare.wav
448,192,36627,1,0,0:0:0:0:
64,192,36783,128,0,36940:0:0:0:0:
320,192,36940,1,0,0:0:0:0:
192,192,37018,1,0,0:0:0:0:
448,192,37096,1,0,0:0:0:70:kick.wav
320,192,37174,1,0,0:0:0:0:
64,192,37252,1,0,0:0:0:50:snare.wav
192,192,37252,1,0,0:0:0:0:
64,192,37408,128,0,37565:0:0:0:0:
320,192,37565,1,0,0:0:0:70:kick.wav
448,192,37565,1,0,0:0:0:0:
448,192,37721,128,0,37877:0:0:0:0:
64,192,37877,1,0,0:0:0:50:snare.wav
192,192,37877,1,0,0:0:0:0:
320,192,38033,1,0,0:0:0:0:
64,192,38111,1,0,0:0:0:50:snare.wav
192,192,38111,1,0,0:0:0:0:
448,192,38190,1,0,0:0:0:0:
64,192,38346,1,0,0:0:0:50:snare.wav
448,192,38346,1,0,0:0:0:0:
192,192,38502,1,0,0:0:0:0:
320,192,38580,1,0,0:0:0:50:snare.wav
448,192,38580,1,0,0:0:0:0:
64,192,38658,1,0,0:0:0:0:
320,192,38815,1,0,0:0:0:60:kick.wav
448,192,38815,1,0,0:0:0:50:impact.wav
192,192,38919,1,0,0:0:0:50:impact.wav
64,192,38919,1,0,0:0:0:60:kick.wav
64,192,39023,1,0,0:0:0:60:kick.wav
320,192,39127,1,0,0:0:0:60:kick.wav
448,192,39127,1,0,0:0:0:50:impact.wav
64,192,39231,1,0,0:0:0:60:kick.wav
192,192,39231,1,0,0:0:0:50:impact.wav
64,192,39335,1,0,0:0:0:60:kick.wav
320,192,39440,1,0,0:0:0:60:kick.wav
448,192,39440,1,0,0:0:0:50:impact.wav
64,192,39544,1,0,0:0:0:60:kick.wav
192,192,39544,1,0,0:0:0:50:impact.wav
320,192,39648,1,0,0:0:0:60:kick.wav
64,192,39752,1,0,0:0:0:50:snare.wav
192,192,39752,1,0,0:0:0:0:
448,192,39830,1,0,0:0:0:50:snare.wav
64,192,39908,1,0,0:0:0:50:snare.wav
320,192,39908,1,0,0:0:0:0:
192,192,39986,1,0,0:0:0:50:snare.wav
320,192,40065,1,0,0:0:0:70:kick.wav
448,192,40065,1,0,0:0:0:50:crash.wav
448,192,40221,1,0,0:0:0:70:kick.wav
448,192,40377,1,0,0:0:0:70:kick.wav
64,192,40533,1,0,0:0:0:50:snare.wav
192,192,40533,1,0,0:0:0:0:
64,192,40690,128,0,41002:0:0:0:50:snare.wav
192,192,40690,1,0,0:0:0:0:
320,192,41002,1,0,0:0:0:70:kick.wav
448,192,41002,1,0,0:0:0:0:
320,192,41158,1,0,0:0:0:70:kick.wav
192,192,41236,1,0,0:0:0:0:
64,192,41315,1,0,0:0:0:70:kick.wav
448,192,41471,1,0,0:0:0:70:kick.wav
192,192,41549,1,0,0:0:0:70:kick.wav
320,192,41627,1,0,0:0:0:70:kick.wav
64,192,41783,1,0,0:0:0:50:snare.wav
192,192,41783,1,0,0:0:0:0:
64,192,41940,1,0,0:0:0:50:snare.wav
192,192,41940,1,0,0:0:0:0:
320,192,42096,1,0,0:0:0:70:kick.wav
192,192,42174,1,0,0:0:0:70:kick.wav
64,192,42252,1,0,0:0:0:70:kick.wav
448,192,42252,1,0,0:0:0:50:crash2.wav
320,192,42408,1,0,0:0:0:70:kick.wav
192,192,42565,1,0,0:0:0:70:kick.wav
320,192,42643,1,0,0:0:0:70:kick.wav
448,192,42721,1,0,0:0:0:70:kick.wav
448,192,42877,1,0,0:0:0:70:kick.wav
64,192,43033,1,0,0:0:0:50:snare.wav
192,192,43033,1,0,0:0:0:0:
320,192,43190,1,0,0:0:0:50:crash2.wav
448,192,43190,1,0,0:0:0:0:
320,192,43346,1,0,0:0:0:50:crash2.wav
448,192,43346,1,0,0:0:0:0:
64,192,43502,1,0,0:0:0:70:kick.wav
64,192,43658,1,0,0:0:0:70:kick.wav
192,192,43736,1,0,0:0:0:0:
320,192,43815,1,0,0:0:0:70:kick.wav
448,192,43971,1,0,0:0:0:70:kick.wav
192,192,44049,1,0,0:0:0:70:kick.wav
320,192,44127,1,0,0:0:0:70:kick.wav
64,192,44283,1,0,0:0:0:50:impact2.wav
192,192,44440,1,0,0:0:0:50:snare.wav
448,192,44440,1,0,0:0:0:50:impact2.wav
320,192,44596,1,0,0:0:0:70:kick.wav
448,192,44674,1,0,0:0:0:70:kick.wav
64,192,44752,1,0,0:0:0:50:snare.wav
192,192,44752,1,0,0:0:0:50:impact2.wav
320,192,44908,1,0,0:0:0:50:snare.wav
448,192,44908,1,0,0:0:0:50:impact2.wav
64,192,44986,1,0,0:0:0:50:snare.wav
192,192,44986,1,0,0:0:0:50:impact2.wav
320,192,45065,1,0,0:0:0:70:kick.wav
448,192,45065,1,0,0:0:0:50:crash.wav
192,192,45221,1,0,0:0:0:70:kick.wav
192,192,45377,1,0,0:0:0:70:kick.wav
320,192,45533,1,0,0:0:0:50:snare.wav
448,192,45533,1,0,0:0:0:0:
320,192,45690,128,0,46002:0:0:0:50:snare.wav
448,192,45690,1,0,0:0:0:0:
64,192,46002,1,0,0:0:0:70:kick.wav
192,192,46002,1,0,0:0:0:0:
64,192,46158,1,0,0:0:0:70:kick.wav
192,192,46236,1,0,0:0:0:0:
320,192,46315,1,0,0:0:0:70:kick.wav
64,192,46471,1,0,0:0:0:70:kick.wav
448,192,46549,1,0,0:0:0:70:kick.wav
192,192,46627,1,0,0:0:0:70:kick.wav
320,192,46783,1,0,0:0:0:50:snare.wav
448,192,46783,1,0,0:0:0:0:
320,192,46940,1,0,0:0:0:50:snare.wav
448,192,46940,1,0,0:0:0:0:
192,192,47096,1,0,0:0:0:70:kick.wav
320,192,47174,1,0,0:0:0:70:kick.wav
64,192,47252,1,0,0:0:0:50:crash2.wav
448,192,47252,1,0,0:0:0:0:
192,192,47408,1,0,0:0:0:70:kick.wav
320,192,47565,1,0,0:0:0:70:kick.wav
192,192,47643,1,0,0:0:0:70:kick.wav
64,192,47721,1,0,0:0:0:70:kick.wav
64,192,47877,1,0,0:0:0:70:kick.wav
320,192,48033,1,0,0:0:0:50:snare.wav
448,192,48033,1,0,0:0:0:0:
64,192,48190,1,0,0:0:0:50:crash2.wav
192,192,48190,1,0,0:0:0:0:
64,192,48346,1,0,0:0:0:50:crash2.wav
192,192,48346,1,0,0:0:0:0:
320,192,48502,1,0,0:0:0:70:kick.wav
320,192,48658,1,0,0:0:0:70:kick.wav
192,192,48736,1,0,0:0:0:70:kick.wav
448,192,48815,1,0,0:0:0:70:kick.wav
64,192,48893,1,0,0:0:0:70:kick.wav
320,192,48971,1,0,0:0:0:70:kick.wav
64,192,49127,1,0,0:0:0:70:kick.wav
192,192,49127,1,0,0:0:0:0:
320,192,49283,1,0,0:0:0:70:kick.wav
192,192,49361,1,0,0:0:0:70:kick.wav
64,192,49440,1,0,0:0:0:70:kick.wav
448,192,49440,1,0,0:0:0:0:
192,192,49596,1,0,0:0:0:70:kick.wav
320,192,49752,1,0,0:0:0:70:kick.wav
448,192,49752,1,0,0:0:0:0:
64,192,49830,1,0,0:0:0:0:
192,192,49908,1,0,0:0:0:70:kick.wav
320,192,49986,1,0,0:0:0:70:kick.wav
64,192,50065,1,0,0:0:0:70:kick.wav
448,192,50065,1,0,0:0:0:50:crash.wav
64,192,50221,1,0,0:0:0:70:kick.wav
64,192,50377,1,0,0:0:0:70:kick.wav
320,192,50533,1,0,0:0:0:50:snare.wav
448,192,50533,1,0,0:0:0:0:
320,192,50690,1,0,0:0:0:50:snare.wav
448,192,50690,128,0,51002:0:0:0:0:
64,192,51002,1,0,0:0:0:70:kick.wav
192,192,51002,1,0,0:0:0:0:
64,192,51158,1,0,0:0:0:70:kick.wav
192,192,51158,1,0,0:0:0:0:
320,192,51236,1,0,0:0:0:0:
448,192,51315,1,0,0:0:0:70:kick.wav
192,192,51471,1,0,0:0:0:70:kick.wav
320,192,51549,1,0,0:0:0:70:kick.wav
64,192,51627,1,0,0:0:0:70:kick.wav
320,192,51783,1,0,0:0:0:50:snare.wav
448,192,51783,1,0,0:0:0:0:
320,192,51940,1,0,0:0:0:50:snare.wav
448,192,51940,1,0,0:0:0:0:
192,192,52096,1,0,0:0:0:70:kick.wav
320,192,52174,1,0,0:0:0:70:kick.wav
64,192,52252,1,0,0:0:0:70:kick.wav
448,192,52252,1,0,0:0:0:50:crash2.wav
192,192,52408,1,0,0:0:0:70:kick.wav
320,192,52565,1,0,0:0:0:70:kick.wav
448,192,52565,1,0,0:0:0:0:
192,192,52643,1,0,0:0:0:70:kick.wav
64,192,52721,1,0,0:0:0:70:kick.wav
64,192,52877,1,0,0:0:0:70:kick.wav
320,192,53033,1,0,0:0:0:50:snare.wav
448,192,53033,1,0,0:0:0:0:
64,192,53190,1,0,0:0:0:50:crash2.wav
192,192,53190,1,0,0:0:0:0:
64,192,53346,1,0,0:0:0:50:crash2.wav
192,192,53346,1,0,0:0:0:0:
320,192,53502,1,0,0:0:0:70:kick.wav
320,192,53658,1,0,0:0:0:70:kick.wav
192,192,53736,1,0,0:0:0:0:
64,192,53815,1,0,0:0:0:70:kick.wav
448,192,53815,1,0,0:0:0:0:
192,192,53971,1,0,0:0:0:70:kick.wav
448,192,54049,1,0,0:0:0:70:kick.wav
64,192,54127,1,0,0:0:0:70:kick.wav
192,192,54127,1,0,0:0:0:0:
320,192,54283,1,0,0:0:0:50:impact2.wav
64,192,54440,1,0,0:0:0:50:snare.wav
448,192,54440,1,0,0:0:0:50:impact2.wav
192,192,54596,1,0,0:0:0:70:kick.wav
320,192,54674,1,0,0:0:0:70:kick.wav
64,192,54752,1,0,0:0:0:50:snare.wav
448,192,54752,1,0,0:0:0:50:impact2.wav
64,192,54908,1,0,0:0:0:50:snare.wav
192,192,54908,1,0,0:0:0:50:impact2.wav
320,192,54986,1,0,0:0:0:50:snare.wav
448,192,54986,1,0,0:0:0:50:impact2.wav
64,192,55065,1,0,0:0:0:70:kick.wav
192,192,55065,1,0,0:0:0:50:crash.wav
320,192,55221,1,0,0:0:0:70:kick.wav
320,192,55377,1,0,0:0:0:70:kick.wav
64,192,55533,1,0,0:0:0:50:snare.wav
192,192,55533,1,0,0:0:0:0:
64,192,55690,1,0,0:0:0:50:snare.wav
192,192,55690,128,0,56002:0:0:0:0:
320,192,56002,1,0,0:0:0:70:kick.wav
448,192,56002,1,0,0:0:0:0:
320,192,56158,1,0,0:0:0:70:kick.wav
192,192,56236,1,0,0:0:0:0:
64,192,56315,1,0,0:0:0:70:kick.wav
448,192,56471,1,0,0:0:0:70:kick.wav
192,192,56549,1,0,0:0:0:70:kick.wav
320,192,56627,1,0,0:0:0:70:kick.wav
64,192,56783,1,0,0:0:0:50:snare.wav
192,192,56783,1,0,0:0:0:0:
64,192,56940,1,0,0:0:0:50:snare.wav
192,192,56940,1,0,0:0:0:0:
320,192,57096,1,0,0:0:0:70:kick.wav
192,192,57174,1,0,0:0:0:70:kick.wav
64,192,57252,1,0,0:0:0:50:crash2.wav
448,192,57252,1,0,0:0:0:0:
320,192,57408,1,0,0:0:0:70:kick.wav
64,192,57565,1,0,0:0:0:70:kick.wav
192,192,57565,1,0,0:0:0:0:
320,192,57643,1,0,0:0:0:70:kick.wav
448,192,57721,1,0,0:0:0:70:kick.wav
448,192,57877,1,0,0:0:0:70:kick.wav
64,192,58033,1,0,0:0:0:50:snare.wav
192,192,58033,1,0,0:0:0:0:
320,192,58190,1,0,0:0:0:50:crash2.wav
448,192,58190,1,0,0:0:0:0:
320,192,58346,1,0,0:0:0:50:crash2.wav
448,192,58346,1,0,0:0:0:0:
64,192,58502,1,0,0:0:0:70:kick.wav
64,192,58658,1,0,0:0:0:70:kick.wav
192,192,58815,1,0,0:0:0:0:
320,192,58971,1,0,0:0:0:0:
192,192,59049,1,0,0:0:0:0:
448,192,59127,1,0,0:0:0:0:
320,192,59283,128,0,59440:0:0:0:50:crash2.wav
64,192,59440,1,0,0:0:0:0:
448,192,59440,1,0,0:0:0:0:
320,192,59596,128,0,59752:0:0:0:0:
192,192,59752,128,0,60065:0:0:0:50:impact2.wav
448,192,60065,128,0,61315:0:0:0:50:crash.wav
320,192,61315,128,0,61471:0:0:0:70:shinden.wav
320,192,62565,128,0,63815:0:0:0:70:shinden.wav
192,192,63815,128,0,63971:0:0:0:70:shinden.wav
192,192,65065,128,0,66315:0:0:0:70:shinden.wav
64,192,66315,128,0,66471:0:0:0:70:shinden.wav
64,192,67565,128,0,68815:0:0:0:70:shinden.wav
192,192,68815,128,0,68971:0:0:0:70:shinden.wav
320,192,69440,1,0,0:0:0:0:
448,192,69596,1,0,0:0:0:0:
64,192,69752,1,0,0:0:0:0:
192,192,69908,1,0,0:0:0:0:
320,192,70065,1,0,0:0:0:50:crash.wav
448,192,70065,1,0,0:0:0:70:shinden.wav
192,192,70221,1,0,0:0:0:0:
448,192,70377,1,0,0:0:0:0:
64,192,70533,1,0,0:0:0:0:
320,192,70690,1,0,0:0:0:0:
192,192,70846,1,0,0:0:0:0:
448,192,71002,1,0,0:0:0:0:
64,192,71158,1,0,0:0:0:0:
320,192,71315,1,0,0:0:0:70:shinden.wav
192,192,71471,1,0,0:0:0:0:
448,192,71627,1,0,0:0:0:0:
64,192,71783,1,0,0:0:0:0:
320,192,71940,1,0,0:0:0:0:
192,192,72096,1,0,0:0:0:0:
448,192,72252,1,0,0:0:0:0:
64,192,72408,1,0,0:0:0:0:
320,192,72565,1,0,0:0:0:70:shinden.wav
448,192,72565,1,0,0:0:0:0:
192,192,72721,1,0,0:0:0:0:
64,192,72877,1,0,0:0:0:0:
448,192,73033,1,0,0:0:0:0:
320,192,73190,1,0,0:0:0:0:
192,192,73346,1,0,0:0:0:0:
64,192,73502,1,0,0:0:0:0:
448,192,73658,1,0,0:0:0:0:
320,192,73815,1,0,0:0:0:70:shinden.wav
192,192,73971,1,0,0:0:0:0:
64,192,74127,1,0,0:0:0:0:
448,192,74283,1,0,0:0:0:0:
320,192,74440,1,0,0:0:0:0:
192,192,74596,1,0,0:0:0:0:
64,192,74752,1,0,0:0:0:0:
448,192,74908,1,0,0:0:0:0:
64,192,75065,1,0,0:0:0:70:shinden.wav
192,192,75065,1,0,0:0:0:0:
320,192,75221,1,0,0:0:0:0:
448,192,75377,1,0,0:0:0:0:
64,192,75533,1,0,0:0:0:0:
192,192,75690,1,0,0:0:0:0:
320,192,75846,1,0,0:0:0:0:
448,192,76002,1,0,0:0:0:0:
64,192,76158,1,0,0:0:0:0:
192,192,76315,1,0,0:0:0:70:shinden.wav
320,192,76471,1,0,0:0:0:0:
448,192,76627,1,0,0:0:0:0:
64,192,76783,1,0,0:0:0:0:
192,192,76940,1,0,0:0:0:0:
320,192,77096,1,0,0:0:0:0:
448,192,77252,1,0,0:0:0:0:
64,192,77408,1,0,0:0:0:0:
192,192,77565,1,0,0:0:0:70:shinden.wav
320,192,77565,1,0,0:0:0:0:
448,192,77721,1,0,0:0:0:0:
64,192,77877,1,0,0:0:0:0:
320,192,78033,1,0,0:0:0:0:
192,192,78190,1,0,0:0:0:0:
448,192,78346,1,0,0:0:0:0:
64,192,78502,1,0,0:0:0:0:
320,192,78658,1,0,0:0:0:0:
192,192,78815,1,0,0:0:0:70:shinden.wav
448,192,78971,1,0,0:0:0:0:
64,192,79127,1,0,0:0:0:0:
320,192,79283,1,0,0:0:0:0:
192,192,79440,1,0,0:0:0:0:
448,192,79596,1,0,0:0:0:0:
64,192,79752,1,0,0:0:0:0:
320,192,79908,1,0,0:0:0:0:
64,192,80065,1,0,0:0:0:0:
192,192,80065,1,0,0:0:0:0:
448,192,80221,1,0,0:0:0:0:
320,192,80377,1,0,0:0:0:0:
64,192,80533,1,0,0:0:0:0:
192,192,80690,1,0,0:0:0:0:
448,192,80846,1,0,0:0:0:0:
320,192,81002,1,0,0:0:0:0:
64,192,81158,1,0,0:0:0:0:
192,192,81315,1,0,0:0:0:0:
448,192,81471,1,0,0:0:0:0:
320,192,81627,1,0,0:0:0:0:
64,192,81783,1,0,0:0:0:0:
192,192,81940,1,0,0:0:0:0:
448,192,82096,1,0,0:0:0:0:
320,192,82252,1,0,0:0:0:0:
64,192,82408,1,0,0:0:0:0:
192,192,82565,1,0,0:0:0:0:
448,192,82565,1,0,0:0:0:0:
320,192,82721,1,0,0:0:0:0:
192,192,82877,1,0,0:0:0:0:
64,192,83033,1,0,0:0:0:0:
448,192,83190,1,0,0:0:0:0:
320,192,83346,1,0,0:0:0:0:
192,192,83502,1,0,0:0:0:0:
64,192,83658,1,0,0:0:0:0:
448,192,83815,1,0,0:0:0:0:
320,192,83971,1,0,0:0:0:0:
192,192,84127,1,0,0:0:0:0:
64,192,84283,1,0,0:0:0:0:
448,192,84440,1,0,0:0:0:0:
320,192,84596,1,0,0:0:0:0:
192,192,84752,1,0,0:0:0:0:
64,192,84908,1,0,0:0:0:0:
320,192,85065,1,0,0:0:0:0:
448,192,85065,1,0,0:0:0:0:
192,192,85221,1,0,0:0:0:0:
320,192,85377,1,0,0:0:0:0:
448,192,85533,1,0,0:0:0:70:shinden.wav
64,192,85690,1,0,0:0:0:0:
192,192,85846,1,0,0:0:0:0:
320,192,86002,1,0,0:0:0:0:
448,192,86158,1,0,0:0:0:0:
64,192,86315,1,0,0:0:0:0:
192,192,86471,1,0,0:0:0:0:
320,192,86627,1,0,0:0:0:0:
448,192,86783,1,0,0:0:0:0:
64,192,86940,1,0,0:0:0:0:
192,192,87096,1,0,0:0:0:0:
320,192,87252,1,0,0:0:0:0:
448,192,87408,1,0,0:0:0:0:
64,192,87565,1,0,0:0:0:0:
192,192,87565,1,0,0:0:0:0:
320,192,87721,1,0,0:0:0:0:
64,192,87877,1,0,0:0:0:0:
192,192,88033,1,0,0:0:0:0:
320,192,88190,1,0,0:0:0:0:
192,192,88346,1,0,0:0:0:0:
448,192,88502,1,0,0:0:0:0:
320,192,88658,1,0,0:0:0:0:
192,192,88815,1,0,0:0:0:0:
448,192,88854,128,0,95065:0:0:0:70:shinden.wav
64,192,88971,1,0,0:0:0:0:
320,192,89127,1,0,0:0:0:0:
192,192,89283,1,0,0:0:0:0:
64,192,89440,1,0,0:0:0:0:
320,192,89596,1,0,0:0:0:0:
192,192,89752,1,0,0:0:0:0:
64,192,89908,128,0,95065:0:0:0:0:
192,192,95065,128,0,95143:0:0:0:40:noise.wav
320,192,95065,128,0,95143:0:0:0:0:
320,192,99440,128,0,100065:0:0:0:50:piano1.wav
448,192,99752,128,0,100065:0:0:0:50:piano2.wav
64,192,100065,1,0,0:0:0:70:drum1.wav
192,192,100065,1,0,0:0:0:50:crash.wav
448,192,100221,1,0,0:0:0:0:
192,192,100377,1,0,0:0:0:70:drum2.wav
320,192,100377,1,0,0:0:0:0:
64,192,100533,1,0,0:0:0:0:
448,192,100690,1,0,0:0:0:0:
64,192,100846,1,0,0:0:0:70:drum2.wav
320,192,100846,1,0,0:0:0:0:
192,192,101002,1,0,0:0:0:0:
320,192,101158,1,0,0:0:0:50:drum2.wav
448,192,101158,1,0,0:0:0:0:
64,192,101315,1,0,0:0:0:70:drum1.wav
192,192,101315,1,0,0:0:0:0:
320,192,101471,1,0,0:0:0:0:
64,192,101627,1,0,0:0:0:70:drum2.wav
448,192,101627,1,0,0:0:0:0:
192,192,101783,1,0,0:0:0:0:
320,192,101940,1,0,0:0:0:0:
64,192,102096,1,0,0:0:0:70:drum2.wav
192,192,102096,1,0,0:0:0:0:
448,192,102252,1,0,0:0:0:0:
64,192,102408,1,0,0:0:0:70:drum2.wav
320,192,102408,1,0,0:0:0:0:
192,192,102565,1,0,0:0:0:70:drum1.wav
448,192,102565,1,0,0:0:0:0:
320,192,102721,1,0,0:0:0:0:
64,192,102877,1,0,0:0:0:70:drum2.wav
192,192,102877,1,0,0:0:0:0:
448,192,103033,1,0,0:0:0:0:
64,192,103190,1,0,0:0:0:0:
320,192,103346,1,0,0:0:0:0:
192,192,103502,1,0,0:0:0:0:
64,192,103658,1,0,0:0:0:70:drum2.wav
448,192,103658,1,0,0:0:0:0:
192,192,103815,1,0,0:0:0:70:drum1.wav
320,192,103815,1,0,0:0:0:0:
448,192,103971,1,0,0:0:0:0:
64,192,104127,1,0,0:0:0:70:drum2.wav
192,192,104127,1,0,0:0:0:0:
320,192,104283,1,0,0:0:0:0:
192,192,104440,1,0,0:0:0:0:
64,192,104596,1,0,0:0:0:0:
448,192,104752,1,0,0:0:0:0:
192,192,104908,1,0,0:0:0:70:drum2.wav
320,192,104986,1,0,0:0:0:70:drum2.wav
64,192,105065,1,0,0:0:0:70:drum1.wav
448,192,105065,1,0,0:0:0:0:
192,192,105221,1,0,0:0:0:0:
64,192,105377,1,0,0:0:0:70:drum2.wav
320,192,105377,1,0,0:0:0:0:
448,192,105533,1,0,0:0:0:0:
192,192,105690,1,0,0:0:0:0:
320,192,105846,1,0,0:0:0:70:drum2.wav
448,192,105846,1,0,0:0:0:0:
64,192,106002,1,0,0:0:0:0:
320,192,106158,1,0,0:0:0:50:drum2.wav
448,192,106158,1,0,0:0:0:0:
64,192,106315,1,0,0:0:0:70:drum1.wav
192,192,106315,1,0,0:0:0:0:
448,192,106471,1,0,0:0:0:0:
192,192,106627,1,0,0:0:0:70:drum2.wav
320,192,106627,1,0,0:0:0:0:
64,192,106783,1,0,0:0:0:0:
320,192,106940,1,0,0:0:0:0:
192,192,107096,1,0,0:0:0:70:drum2.wav
448,192,107096,1,0,0:0:0:0:
64,192,107252,1,0,0:0:0:0:
320,192,107408,1,0,0:0:0:70:drum2.wav
448,192,107408,1,0,0:0:0:0:
64,192,107565,1,0,0:0:0:70:drum1.wav
192,192,107565,1,0,0:0:0:0:
320,192,107721,1,0,0:0:0:0:
64,192,107877,1,0,0:0:0:70:drum2.wav
448,192,107877,1,0,0:0:0:0:
192,192,108033,1,0,0:0:0:0:
448,192,108190,1,0,0:0:0:0:
320,192,108346,1,0,0:0:0:0:
64,192,108502,1,0,0:0:0:0:
192,192,108658,1,0,0:0:0:70:drum2.wav
448,192,108658,1,0,0:0:0:0:
64,192,108815,1,0,0:0:0:70:drum1.wav
320,192,108815,1,0,0:0:0:0:
448,192,108971,1,0,0:0:0:0:
192,192,109127,1,0,0:0:0:70:drum2.wav
320,192,109127,1,0,0:0:0:0:
64,192,109283,1,0,0:0:0:0:
320,192,109440,1,0,0:0:0:70:drum2.wav
448,192,109440,1,0,0:0:0:0:
192,192,109596,1,0,0:0:0:0:
320,192,109674,1,0,0:0:0:70:drum2.wav
448,192,109674,1,0,0:0:0:0:
64,192,109752,1,0,0:0:0:0:
320,192,109908,1,0,0:0:0:70:drum2.wav
448,192,109908,1,0,0:0:0:0:
64,192,110065,1,0,0:0:0:70:drum1.wav
192,192,110065,128,0,110221:0:0:0:50:crash.wav
320,192,110221,128,0,110377:0:0:0:0:
64,192,110377,128,0,110533:0:0:0:70:drum2.wav
448,192,110377,1,0,0:0:0:0:
192,192,110533,128,0,110690:0:0:0:0:
320,192,110690,1,0,0:0:0:0:
64,192,110846,128,0,111002:0:0:0:70:drum2.wav
192,192,110846,1,0,0:0:0:0:
448,192,111002,128,0,111158:0:0:0:0:
64,192,111158,1,0,0:0:0:50:drum2.wav
320,192,111158,128,0,111315:0:0:0:0:
192,192,111315,1,0,0:0:0:70:drum1.wav
448,192,111315,1,0,0:0:0:0:
64,192,111471,128,0,111627:0:0:0:0:
320,192,111627,128,0,111783:0:0:0:70:drum2.wav
448,192,111627,1,0,0:0:0:0:
192,192,111783,128,0,111940:0:0:0:0:
448,192,111940,128,0,112096:0:0:0:0:
64,192,112096,1,0,0:0:0:70:drum2.wav
320,192,112096,128,0,112252:0:0:0:0:
192,192,112252,128,0,112408:0:0:0:0:
448,192,112408,1,0,0:0:0:70:drum2.wav
320,192,112486,1,0,0:0:0:50:drum2.wav
64,192,112565,128,0,112721:0:0:0:70:drum1.wav
192,192,112565,1,0,0:0:0:0:
320,192,112721,128,0,112877:0:0:0:0:
64,192,112877,1,0,0:0:0:70:drum2.wav
448,192,112877,128,0,113033:0:0:0:0:
192,192,113033,128,0,113190:0:0:0:0:
320,192,113190,1,0,0:0:0:0:
64,192,113346,128,0,113502:0:0:0:0:
192,192,113502,128,0,113658:0:0:0:0:
320,192,113658,128,0,113815:0:0:0:70:drum2.wav
448,192,113658,1,0,0:0:0:0:
64,192,113815,1,0,0:0:0:70:drum1.wav
192,192,113815,1,0,0:0:0:0:
320,192,113971,128,0,114127:0:0:0:0:
64,192,114127,1,0,0:0:0:70:drum2.wav
448,192,114127,128,0,114283:0:0:0:0:
192,192,114283,128,0,114440:0:0:0:0:
320,192,114440,128,0,114596:0:0:0:0:
64,192,114596,128,0,114752:0:0:0:0:
192,192,114752,128,0,114908:0:0:0:0:
320,192,114908,1,0,0:0:0:70:drum2.wav
192,192,114986,1,0,0:0:0:70:drum2.wav
64,192,115065,1,0,0:0:0:70:drum1.wav
448,192,115065,1,0,0:0:0:0:
320,192,115221,128,0,115377:0:0:0:0:
64,192,115377,1,0,0:0:0:70:drum2.wav
192,192,115377,1,0,0:0:0:0:
448,192,115533,128,0,115690:0:0:0:0:
192,192,115690,1,0,0:0:0:0:
64,192,115846,128,0,116002:0:0:0:70:drum2.wav
320,192,115846,1,0,0:0:0:0:
448,192,116002,1,0,0:0:0:0:
64,192,116158,1,0,0:0:0:50:drum2.wav
192,192,116158,128,0,116315:0:0:0:0:
320,192,116315,1,0,0:0:0:70:drum1.wav
448,192,116315,1,0,0:0:0:0:
320,192,116471,128,0,116627:0:0:0:0:
64,192,116627,1,0,0:0:0:70:drum2.wav
192,192,116627,1,0,0:0:0:0:
448,192,116783,128,0,116940:0:0:0:0:
192,192,116940,1,0,0:0:0:0:
64,192,117096,128,0,117252:0:0:0:70:drum2.wav
320,192,117096,1,0,0:0:0:0:
448,192,117252,1,0,0:0:0:0:
64,192,117408,1,0,0:0:0:70:drum2.wav
192,192,117408,128,0,117565:0:0:0:0:
320,192,117565,1,0,0:0:0:50:snare.wav
448,192,117565,1,0,0:0:0:70:kick.wav
320,192,117721,1,0,0:0:0:50:snare.wav
448,192,117721,1,0,0:0:0:0:
64,192,117877,1,0,0:0:0:50:snare.wav
192,192,117877,1,0,0:0:0:0:
64,192,118033,1,0,0:0:0:50:snare.wav
192,192,118033,1,0,0:0:0:0:
320,192,118190,1,0,0:0:0:50:snare.wav
448,192,118190,1,0,0:0:0:0:
320,192,118346,1,0,0:0:0:50:snare.wav
448,192,118346,1,0,0:0:0:0:
64,192,118502,1,0,0:0:0:50:snare.wav
192,192,118502,1,0,0:0:0:0:
64,192,118658,1,0,0:0:0:50:snare.wav
192,192,118658,1,0,0:0:0:70:kick.wav
320,192,118815,1,0,0:0:0:50:snare2.wav
448,192,118815,1,0,0:0:0:70:kick.wav
64,192,118893,1,0,0:0:0:50:snare2.wav
192,192,118971,1,0,0:0:0:50:snare2.wav
448,192,119049,1,0,0:0:0:50:snare2.wav
64,192,119127,1,0,0:0:0:50:snare2.wav
192,192,119127,1,0,0:0:0:0:
448,192,119205,1,0,0:0:0:50:snare2.wav
64,192,119283,1,0,0:0:0:50:snare2.wav
192,192,119361,1,0,0:0:0:50:snare2.wav
320,192,119440,128,0,119596:0:0:0:25:kick.wav
64,192,119596,128,0,119752:0:0:0:25:kick.wav
448,192,119752,1,0,0:0:0:25:kick.wav
192,192,119830,1,0,0:0:0:0:
320,192,119908,1,0,0:0:0:0:
64,192,119986,1,0,0:0:0:0:
192,192,120065,1,0,0:0:0:70:kick.wav
448,192,120065,1,0,0:0:0:50:crash.wav
448,192,120221,1,0,0:0:0:0:
320,192,120299,1,0,0:0:0:0:
64,192,120377,128,0,120533:0:0:0:50:snare.wav
192,192,120377,1,0,0:0:0:0:
448,192,120533,128,0,120690:0:0:0:0:
192,192,120690,1,0,0:0:0:70:kick.wav
320,192,120690,1,0,0:0:0:0:
64,192,120846,1,0,0:0:0:0:
192,192,120924,1,0,0:0:0:0:
320,192,121002,128,0,121158:0:0:0:50:snare.wav
448,192,121002,1,0,0:0:0:0:
64,192,121158,128,0,121315:0:0:0:0:
320,192,121315,1,0,0:0:0:70:kick.wav
448,192,121315,1,0,0:0:0:0:
192,192,121471,1,0,0:0:0:0:
320,192,121549,1,0,0:0:0:0:
64,192,121627,1,0,0:0:0:50:snare.wav
448,192,121627,128,0,121783:0:0:0:0:
192,192,121783,128,0,121940:0:0:0:0:
320,192,121940,1,0,0:0:0:70:kick.wav
448,192,122018,1,0,0:0:0:0:
64,192,122096,1,0,0:0:0:0:
192,192,122174,1,0,0:0:0:0:
448,192,122252,1,0,0:0:0:50:snare.wav
320,192,122330,1,0,0:0:0:0:
192,192,122408,1,0,0:0:0:0:
64,192,122486,1,0,0:0:0:0:
320,192,122565,1,0,0:0:0:70:kick.wav
448,192,122565,1,0,0:0:0:0:
192,192,122721,1,0,0:0:0:0:
320,192,122799,1,0,0:0:0:0:
64,192,122877,1,0,0:0:0:50:snare.wav
448,192,122877,128,0,123033:0:0:0:0:
192,192,123033,128,0,123190:0:0:0:0:
320,192,123190,1,0,0:0:0:70:kick.wav
448,192,123190,1,0,0:0:0:0:
64,192,123346,1,0,0:0:0:70:kick.wav
192,192,123424,1,0,0:0:0:0:
320,192,123502,128,0,123658:0:0:0:50:snare.wav
448,192,123502,1,0,0:0:0:0:
64,192,123658,128,0,123815:0:0:0:0:
192,192,123815,1,0,0:0:0:70:kick.wav
320,192,123815,1,0,0:0:0:0:
448,192,123971,1,0,0:0:0:70:kick.wav
320,192,124049,1,0,0:0:0:0:
64,192,124127,1,0,0:0:0:50:snare.wav
192,192,124127,128,0,124283:0:0:0:0:
320,192,124283,1,0,0:0:0:0:
64,192,124361,1,0,0:0:0:50:snare.wav
448,192,124361,1,0,0:0:0:0:
192,192,124440,1,0,0:0:0:0:
320,192,124518,1,0,0:0:0:0:
64,192,124596,1,0,0:0:0:70:kick.wav
448,192,124674,1,0,0:0:0:0:
192,192,124752,1,0,0:0:0:50:snare.wav
64,192,124830,1,0,0:0:0:0:
320,192,124908,1,0,0:0:0:70:kick.wav
192,192,124986,1,0,0:0:0:70:kick.wav
64,192,125065,1,0,0:0:0:70:kick.wav
448,192,125065,1,0,0:0:0:0:
320,192,125221,1,0,0:0:0:0:
192,192,125299,1,0,0:0:0:0:
64,192,125377,128,0,125533:0:0:0:50:snare.wav
448,192,125377,1,0,0:0:0:0:
320,192,125533,128,0,125690:0:0:0:0:
64,192,125690,1,0,0:0:0:70:kick.wav
192,192,125690,1,0,0:0:0:0:
448,192,125846,1,0,0:0:0:0:
320,192,125924,1,0,0:0:0:0:
64,192,126002,1,0,0:0:0:50:snare.wav
192,192,126002,128,0,126158:0:0:0:0:
448,192,126158,128,0,126315:0:0:0:0:
192,192,126315,1,0,0:0:0:70:kick.wav
320,192,126315,1,0,0:0:0:0:
64,192,126471,1,0,0:0:0:0:
192,192,126549,1,0,0:0:0:0:
320,192,126627,128,0,126783:0:0:0:50:snare.wav
448,192,126627,1,0,0:0:0:0:
64,192,126783,128,0,126940:0:0:0:0:
320,192,126940,1,0,0:0:0:70:kick.wav
448,192,126940,1,0,0:0:0:0:
192,192,127018,1,0,0:0:0:0:
448,192,127096,1,0,0:0:0:0:
320,192,127174,1,0,0:0:0:0:
64,192,127252,1,0,0:0:0:50:snare.wav
192,192,127330,1,0,0:0:0:0:
320,192,127408,1,0,0:0:0:0:
448,192,127486,1,0,0:0:0:0:
64,192,127565,1,0,0:0:0:70:kick.wav
192,192,127565,1,0,0:0:0:0:
320,192,127721,1,0,0:0:0:0:
192,192,127799,1,0,0:0:0:0:
64,192,127877,128,0,128033:0:0:0:50:snare.wav
448,192,127877,1,0,0:0:0:0:
320,192,128033,128,0,128190:0:0:0:0:
64,192,128190,1,0,0:0:0:70:kick.wav
192,192,128190,1,0,0:0:0:0:
448,192,128346,1,0,0:0:0:70:kick.wav
320,192,128424,1,0,0:0:0:0:
64,192,128502,1,0,0:0:0:50:snare.wav
192,192,128502,128,0,128658:0:0:0:0:
448,192,128658,128,0,128815:0:0:0:0:
192,192,128815,1,0,0:0:0:70:kick.wav
320,192,128815,1,0,0:0:0:0:
192,192,128971,1,0,0:0:0:70:kick.wav
320,192,129049,1,0,0:0:0:0:
64,192,129127,1,0,0:0:0:50:snare.wav
448,192,129127,128,0,129283:0:0:0:0:
320,192,129283,1,0,0:0:0:0:
64,192,129361,1,0,0:0:0:50:snare.wav
192,192,129361,1,0,0:0:0:0:
320,192,129440,1,0,0:0:0:50:impact.wav
448,192,129440,1,0,0:0:0:0:
64,192,129518,1,0,0:0:0:0:
192,192,129596,1,0,0:0:0:70:kick.wav
448,192,129674,1,0,0:0:0:0:
64,192,129752,1,0,0:0:0:0:
320,192,129830,1,0,0:0:0:0:
448,192,129908,1,0,0:0:0:70:kick.wav
192,192,129986,1,0,0:0:0:70:kick.wav
320,192,130065,1,0,0:0:0:70:kick.wav
448,192,130065,128,0,130377:0:0:0:50:crash.wav
192,192,130221,1,0,0:0:0:0:
320,192,130299,1,0,0:0:0:0:
64,192,130377,1,0,0:0:0:50:snare.wav
192,192,130377,128,0,130533:0:0:0:0:
320,192,130533,128,0,130690:0:0:0:0:
64,192,130690,128,0,131002:0:0:0:70:kick.wav
448,192,130690,1,0,0:0:0:0:
320,192,130846,1,0,0:0:0:0:
192,192,130924,1,0,0:0:0:0:
320,192,131002,128,0,131158:0:0:0:50:snare.wav
448,192,131002,1,0,0:0:0:0:
192,192,131158,128,0,131315:0:0:0:0:
64,192,131315,1,0,0:0:0:70:kick.wav
448,192,131315,128,0,131627:0:0:0:0:
192,192,131471,1,0,0:0:0:0:
320,192,131549,1,0,0:0:0:0:
64,192,131627,128,0,131783:0:0:0:50:snare.wav
192,192,131627,1,0,0:0:0:0:
320,192,131783,128,0,131940:0:0:0:0:
192,192,131940,1,0,0:0:0:70:kick.wav
448,192,131940,1,0,0:0:0:0:
64,192,132018,1,0,0:0:0:0:
192,192,132096,1,0,0:0:0:0:
320,192,132174,1,0,0:0:0:0:
64,192,132252,1,0,0:0:0:50:snare.wav
448,192,132330,1,0,0:0:0:0:
320,192,132408,1,0,0:0:0:0:
192,192,132486,1,0,0:0:0:0:
320,192,132565,128,0,132877:0:0:0:70:kick.wav
448,192,132565,1,0,0:0:0:0:
64,192,132721,1,0,0:0:0:0:
192,192,132799,1,0,0:0:0:0:
64,192,132877,1,0,0:0:0:50:snare.wav
448,192,132877,128,0,133033:0:0:0:0:
192,192,133033,128,0,133190:0:0:0:0:
320,192,133190,1,0,0:0:0:70:kick.wav
448,192,133190,1,0,0:0:0:0:
320,192,133346,1,0,0:0:0:70:kick.wav
448,192,133346,1,0,0:0:0:0:
64,192,133502,1,0,0:0:0:50:snare.wav
192,192,133502,1,0,0:0:0:0:
320,192,133658,128,0,133815:0:0:0:0:
64,192,133815,1,0,0:0:0:70:kick.wav
192,192,133815,1,0,0:0:0:0:
64,192,133971,1,0,0:0:0:70:kick.wav
192,192,133971,1,0,0:0:0:0:
320,192,134127,1,0,0:0:0:50:snare.wav
448,192,134127,1,0,0:0:0:0:
192,192,134283,1,0,0:0:0:0:
64,192,134361,1,0,0:0:0:50:snare.wav
448,192,134361,1,0,0:0:0:0:
320,192,134440,1,0,0:0:0:0:
192,192,134518,1,0,0:0:0:0:
448,192,134596,1,0,0:0:0:70:kick.wav
320,192,134674,1,0,0:0:0:0:
64,192,134752,1,0,0:0:0:50:snare.wav
192,192,134830,1,0,0:0:0:0:
320,192,134908,1,0,0:0:0:70:kick.wav
448,192,134986,1,0,0:0:0:70:kick.wav
64,192,135065,1,0,0:0:0:70:kick.wav
192,192,135065,1,0,0:0:0:50:crash.wav
192,192,135221,1,0,0:0:0:70:kick.wav
320,192,135221,1,0,0:0:0:0:
64,192,135377,1,0,0:0:0:70:kick.wav
448,192,135377,1,0,0:0:0:50:snare.wav
192,192,135533,1,0,0:0:0:70:kick.wav
320,192,135533,1,0,0:0:0:0:
192,192,135690,1,0,0:0:0:70:kick.wav
448,192,135690,1,0,0:0:0:0:
64,192,135846,1,0,0:0:0:70:kick.wav
320,192,135846,1,0,0:0:0:0:
64,192,136002,1,0,0:0:0:70:kick.wav
448,192,136002,1,0,0:0:0:50:snare.wav
192,192,136158,1,0,0:0:0:70:kick.wav
320,192,136158,1,0,0:0:0:0:
320,192,136315,1,0,0:0:0:70:kick.wav
448,192,136315,1,0,0:0:0:0:
64,192,136471,1,0,0:0:0:70:kick.wav
192,192,136471,1,0,0:0:0:0:
64,192,136627,1,0,0:0:0:70:kick.wav
448,192,136627,1,0,0:0:0:50:snare.wav
192,192,136783,1,0,0:0:0:70:kick.wav
320,192,136783,1,0,0:0:0:0:
64,192,136940,1,0,0:0:0:70:kick.wav
320,192,136940,1,0,0:0:0:0:
192,192,137096,1,0,0:0:0:70:kick.wav
448,192,137096,1,0,0:0:0:0:
64,192,137252,1,0,0:0:0:70:kick.wav
448,192,137252,1,0,0:0:0:50:snare.wav
64,192,137408,1,0,0:0:0:70:kick.wav
192,192,137408,1,0,0:0:0:0:
320,192,137565,1,0,0:0:0:50:snare.wav
448,192,137565,1,0,0:0:0:0:
320,192,137721,1,0,0:0:0:50:snare.wav
448,192,137721,1,0,0:0:0:0:
64,192,137877,1,0,0:0:0:50:snare.wav
192,192,137877,1,0,0:0:0:0:
64,192,138033,1,0,0:0:0:50:snare.wav
192,192,138033,1,0,0:0:0:0:
320,192,138190,1,0,0:0:0:50:snare.wav
448,192,138190,1,0,0:0:0:0:
320,192,138346,1,0,0:0:0:50:snare.wav
448,192,138346,1,0,0:0:0:0:
64,192,138502,1,0,0:0:0:50:snare.wav
192,192,138502,1,0,0:0:0:0:
64,192,138658,1,0,0:0:0:50:snare.wav
192,192,138658,1,0,0:0:0:0:
448,192,138815,1,0,0:0:0:50:snare2.wav
320,192,138893,1,0,0:0:0:50:snare2.wav
192,192,138971,1,0,0:0:0:50:snare2.wav
64,192,139049,1,0,0:0:0:50:snare2.wav
448,192,139127,1,0,0:0:0:50:snare2.wav
320,192,139205,1,0,0:0:0:50:snare2.wav
192,192,139283,1,0,0:0:0:50:snare2.wav
64,192,139361,1,0,0:0:0:50:snare2.wav
448,192,139440,1,0,0:0:0:50:kick.wav
320,192,139518,1,0,0:0:0:50:kick.wav
64,192,139596,1,0,0:0:0:50:kick.wav
192,192,139674,1,0,0:0:0:50:kick.wav
448,192,139752,1,0,0:0:0:50:kick.wav
320,192,139830,1,0,0:0:0:50:kick.wav
64,192,139908,1,0,0:0:0:50:kick.wav
192,192,139986,1,0,0:0:0:50:kick.wav
320,192,140065,1,0,0:0:0:0:
