osu file format v14

[General]
AudioFilename: audio.mp3
AudioLeadIn: 0
PreviewTime: 80065
Countdown: 0
SampleSet: Soft
StackLeniency: 0.7
Mode: 3
LetterboxInBreaks: 0
SpecialStyle: 0
WidescreenStoryboard: 0

[Editor]
Bookmarks: 17565,20065,30065,40065,50065,60065,70065,80065,90065,95065,99440,100065,110065,117565,130065,135065,138815
DistanceSpacing: 1
BeatDivisor: 4
GridSize: 8
TimelineZoom: 2.299999

[Metadata]
Title:R.I.P.
TitleUnicode:R.I.P.
Artist:eicateve
ArtistUnicode:eicateve
Creator:Pengdoll
Version:7K Hyper
Source:CHUNITHM CRYSTAL
Tags:electronic video game instrumental BMS RIP G2R2018 -GO BACK 2 YOUR ROOTS 2018 climax- 旅立った彼女へ Her requiem えいか eicaTV シ 死 hrchem TOHRU MiTSUHASHi Ticle _Asha
BeatmapID:2172022
BeatmapSetID:1036613

[Difficulty]
HPDrainRate:7.7
CircleSize:7
OverallDifficulty:7.7
ApproachRate:5
SliderMultiplier:1.4
SliderTickRate:1

[Events]
//Background and Video events
0,0,"BG.jpg",0,0
//Break Periods
//Storyboard Layer 0 (Background)
//Storyboard Layer 1 (Fail)
//Storyboard Layer 2 (Pass)
//Storyboard Layer 3 (Foreground)
//Storyboard Layer 4 (Overlay)
//Storyboard Sound Samples
Sample,29752,0,"impact.wav",50
Sample,29830,0,"impact.wav",50
Sample,29908,0,"impact.wav",50
Sample,29986,0,"impact.wav",50
Sample,34908,0,"impact.wav",50
Sample,34986,0,"impact.wav",50
Sample,38919,0,"impact.wav",50
Sample,39023,0,"impact.wav",50
Sample,39231,0,"impact.wav",50
Sample,39335,0,"impact.wav",50
Sample,39544,0,"impact.wav",50
Sample,39648,0,"impact.wav",50
Sample,44986,0,"impact2.wav",50
Sample,48658,0,"impact2.wav",50
Sample,48736,0,"impact2.wav",50
Sample,54986,0,"impact2.wav",50
Sample,118815,0,"kick.wav",70

[TimingPoints]
65,312.5,4,2,1,40,1,0
60065,-100,4,2,1,20,0,0
95065,-100,4,2,1,40,0,0
120065,-100,4,2,1,40,0,1
140065,-100,4,2,1,40,0,0

[HitObjects]
109,192,65,5,0,0:0:0:50:crash.wav
182,192,65,1,0,0:0:0:0:
402,192,65,1,0,0:0:0:0:
256,192,221,1,0,0:0:0:0:
329,192,377,1,0,0:0:0:0:
182,192,533,1,0,0:0:0:0:
256,192,690,1,0,0:0:0:0:
329,192,846,1,0,0:0:0:0:
182,192,1002,1,0,0:0:0:0:
256,192,1158,1,0,0:0:0:0:
329,192,1315,1,0,0:0:0:0:
182,192,1471,1,0,0:0:0:0:
256,192,1627,1,0,0:0:0:0:
329,192,1783,1,0,0:0:0:0:
182,192,1940,1,0,0:0:0:0:
256,192,2096,1,0,0:0:0:0:
329,192,2252,1,0,0:0:0:0:
256,192,2408,1,0,0:0:0:0:
109,192,2565,1,0,0:0:0:30:crash.wav
182,192,2565,1,0,0:0:0:0:
256,192,2721,1,0,0:0:0:0:
402,192,2877,1,0,0:0:0:0:
109,192,3033,1,0,0:0:0:0:
256,192,3190,1,0,0:0:0:0:
402,192,3346,1,0,0:0:0:0:
109,192,3502,1,0,0:0:0:0:
256,192,3658,1,0,0:0:0:0:
402,192,3815,1,0,0:0:0:0:
109,192,3971,1,0,0:0:0:0:
256,192,4127,1,0,0:0:0:0:
402,192,4283,1,0,0:0:0:0:
109,192,4440,1,0,0:0:0:0:
256,192,4596,1,0,0:0:0:0:
402,192,4752,1,0,0:0:0:0:
256,192,4908,1,0,0:0:0:0:
36,192,5065,1,0,0:0:0:30:crash.wav
109,192,5065,1,0,0:0:0:0:
182,192,5221,1,0,0:0:0:0:
329,192,5377,1,0,0:0:0:0:
36,192,5533,1,0,0:0:0:0:
182,192,5690,1,0,0:0:0:0:
329,192,5846,1,0,0:0:0:0:
36,192,6002,1,0,0:0:0:0:
182,192,6158,1,0,0:0:0:0:
329,192,6315,1,0,0:0:0:0:
36,192,6471,1,0,0:0:0:0:
182,192,6627,1,0,0:0:0:0:
329,192,6783,1,0,0:0:0:0:
36,192,6940,1,0,0:0:0:0:
182,192,7096,1,0,0:0:0:0:
329,192,7252,1,0,0:0:0:0:
182,192,7408,1,0,0:0:0:0:
36,192,7565,1,0,0:0:0:30:crash.wav
109,192,7565,1,0,0:0:0:0:
256,192,7721,1,0,0:0:0:0:
402,192,7877,1,0,0:0:0:0:
109,192,8033,1,0,0:0:0:0:
256,192,8190,1,0,0:0:0:0:
402,192,8346,1,0,0:0:0:0:
109,192,8502,1,0,0:0:0:0:
256,192,8658,1,0,0:0:0:0:
329,192,8815,1,0,0:0:0:0:
475,192,8815,1,0,0:0:0:0:
36,192,8971,1,0,0:0:0:0:
256,192,9127,1,0,0:0:0:0:
475,192,9283,1,0,0:0:0:0:
36,192,9440,1,0,0:0:0:0:
256,192,9596,1,0,0:0:0:0:
475,192,9752,1,0,0:0:0:0:
256,192,9908,1,0,0:0:0:0:
109,192,10065,128,0,12252:0:0:0:70:kick.wav
182,192,10065,1,0,0:0:0:50:crash.wav
402,192,10065,1,0,0:0:0:0:
256,192,10221,1,0,0:0:0:0:
329,192,10377,1,0,0:0:0:0:
182,192,10533,1,0,0:0:0:0:
256,192,10690,1,0,0:0:0:0:
329,192,10846,1,0,0:0:0:0:
182,192,11002,1,0,0:0:0:0:
256,192,11158,1,0,0:0:0:0:
329,192,11315,1,0,0:0:0:0:
182,192,11471,1,0,0:0:0:0:
256,192,11627,1,0,0:0:0:0:
329,192,11783,1,0,0:0:0:0:
182,192,11940,1,0,0:0:0:70:kick.wav
475,192,11940,1,0,0:0:0:0:
256,192,12096,1,0,0:0:0:0:
329,192,12252,1,0,0:0:0:0:
256,192,12408,1,0,0:0:0:0:
36,192,12565,128,0,14440:0:0:0:70:kick.wav
109,192,12565,1,0,0:0:0:0:
475,192,12565,1,0,0:0:0:0:
256,192,12721,1,0,0:0:0:0:
402,192,12877,1,0,0:0:0:0:
109,192,13033,1,0,0:0:0:0:
256,192,13190,1,0,0:0:0:0:
402,192,13346,1,0,0:0:0:0:
109,192,13502,1,0,0:0:0:0:
256,192,13658,1,0,0:0:0:0:
402,192,13815,1,0,0:0:0:0:
109,192,13971,1,0,0:0:0:0:
256,192,14127,1,0,0:0:0:0:
402,192,14283,1,0,0:0:0:0:
109,192,14440,1,0,0:0:0:70:kick.wav
475,192,14440,1,0,0:0:0:0:
256,192,14596,1,0,0:0:0:70:kick.wav
475,192,14596,1,0,0:0:0:0:
402,192,14752,1,0,0:0:0:0:
256,192,14908,1,0,0:0:0:0:
36,192,15065,1,0,0:0:0:70:kick.wav
109,192,15065,1,0,0:0:0:0:
329,192,15065,128,0,17565:0:0:0:0:
256,192,15221,1,0,0:0:0:0:
475,192,15377,1,0,0:0:0:0:
36,192,15533,1,0,0:0:0:0:
256,192,15690,1,0,0:0:0:0:
475,192,15846,1,0,0:0:0:0:
36,192,16002,1,0,0:0:0:0:
256,192,16158,1,0,0:0:0:0:
475,192,16315,1,0,0:0:0:0:
36,192,16471,1,0,0:0:0:0:
256,192,16627,1,0,0:0:0:0:
475,192,16783,1,0,0:0:0:0:
36,192,16940,1,0,0:0:0:70:kick.wav
109,192,16940,1,0,0:0:0:0:
256,192,17096,1,0,0:0:0:0:
475,192,17252,1,0,0:0:0:0:
256,192,17408,1,0,0:0:0:0:
36,192,17565,1,0,0:0:0:50:snare.wav
109,192,17565,1,0,0:0:0:0:
36,192,17721,1,0,0:0:0:50:snare.wav
109,192,17721,1,0,0:0:0:0:
329,192,17877,1,0,0:0:0:50:snare.wav
402,192,17877,1,0,0:0:0:0:
329,192,18033,1,0,0:0:0:50:snare.wav
402,192,18033,1,0,0:0:0:0:
109,192,18190,1,0,0:0:0:50:snare.wav
182,192,18190,1,0,0:0:0:0:
109,192,18346,1,0,0:0:0:50:snare.wav
182,192,18346,1,0,0:0:0:0:
402,192,18502,1,0,0:0:0:50:snare.wav
475,192,18502,1,0,0:0:0:0:
402,192,18658,1,0,0:0:0:50:snare.wav
475,192,18658,1,0,0:0:0:0:
109,192,18815,1,0,0:0:0:50:snare2.wav
329,192,18893,1,0,0:0:0:50:snare2.wav
182,192,18971,1,0,0:0:0:50:snare2.wav
402,192,19049,1,0,0:0:0:50:snare2.wav
109,192,19127,1,0,0:0:0:50:snare2.wav
329,192,19205,1,0,0:0:0:50:snare2.wav
182,192,19283,1,0,0:0:0:50:snare2.wav
402,192,19361,1,0,0:0:0:50:snare2.wav
36,192,19440,128,0,19752:0:0:0:25:kick.wav
329,192,19596,128,0,19752:0:0:0:25:kick.wav
182,192,19752,1,0,0:0:0:25:kick.wav
475,192,19830,1,0,0:0:0:0:
256,192,19908,128,0,20065:0:0:0:0:
109,192,20065,1,0,0:0:0:70:kick.wav
182,192,20065,1,0,0:0:0:50:crash.wav
475,192,20065,1,0,0:0:0:0:
402,192,20221,1,0,0:0:0:0:
182,192,20377,1,0,0:0:0:50:snare.wav
256,192,20377,1,0,0:0:0:0:
329,192,20377,1,0,0:0:0:0:
475,192,20533,128,0,20690:0:0:0:0:
36,192,20690,1,0,0:0:0:0:
402,192,20846,1,0,0:0:0:70:kick.wav
475,192,20846,1,0,0:0:0:0:
182,192,21002,1,0,0:0:0:50:snare.wav
256,192,21002,1,0,0:0:0:0:
329,192,21002,1,0,0:0:0:0:
475,192,21158,128,0,21315:0:0:0:0:
109,192,21315,1,0,0:0:0:70:kick.wav
182,192,21315,1,0,0:0:0:0:
402,192,21471,1,0,0:0:0:0:
36,192,21627,1,0,0:0:0:50:snare.wav
109,192,21627,1,0,0:0:0:0:
329,192,21627,1,0,0:0:0:0:
475,192,21783,128,0,21940:0:0:0:0:
182,192,21940,1,0,0:0:0:0:
329,192,22018,1,0,0:0:0:0:
475,192,22096,1,0,0:0:0:70:kick.wav
402,192,22174,1,0,0:0:0:0:
36,192,22252,1,0,0:0:0:50:snare.wav
109,192,22252,1,0,0:0:0:0:
256,192,22252,1,0,0:0:0:0:
329,192,22330,1,0,0:0:0:0:
402,192,22408,1,0,0:0:0:0:
475,192,22486,1,0,0:0:0:0:
182,192,22565,1,0,0:0:0:70:kick.wav
329,192,22565,1,0,0:0:0:0:
256,192,22721,1,0,0:0:0:0:
36,192,22877,1,0,0:0:0:50:snare.wav
109,192,22877,1,0,0:0:0:0:
475,192,22877,1,0,0:0:0:0:
402,192,23033,128,0,23190:0:0:0:0:
329,192,23190,1,0,0:0:0:0:
182,192,23346,1,0,0:0:0:70:kick.wav
256,192,23346,1,0,0:0:0:0:
36,192,23502,1,0,0:0:0:50:snare.wav
109,192,23502,1,0,0:0:0:0:
329,192,23502,1,0,0:0:0:0:
402,192,23658,128,0,23815:0:0:0:0:
109,192,23815,1,0,0:0:0:70:kick.wav
329,192,23815,1,0,0:0:0:0:
182,192,23971,1,0,0:0:0:70:kick.wav
329,192,23971,1,0,0:0:0:0:
109,192,24127,1,0,0:0:0:50:snare.wav
402,192,24127,1,0,0:0:0:0:
475,192,24127,1,0,0:0:0:0:
256,192,24283,1,0,0:0:0:0:
402,192,24361,1,0,0:0:0:50:snare.wav
475,192,24361,1,0,0:0:0:0:
36,192,24440,1,0,0:0:0:0:
182,192,24518,1,0,0:0:0:0:
329,192,24596,1,0,0:0:0:70:kick.wav
256,192,24674,1,0,0:0:0:0:
36,192,24752,1,0,0:0:0:50:snare.wav
109,192,24752,1,0,0:0:0:0:
329,192,24752,1,0,0:0:0:0:
402,192,24830,1,0,0:0:0:0:
182,192,24908,1,0,0:0:0:70:kick.wav
475,192,24986,1,0,0:0:0:70:kick.wav
36,192,25065,1,0,0:0:0:70:kick.wav
329,192,25065,1,0,0:0:0:0:
475,192,25221,1,0,0:0:0:0:
36,192,25377,1,0,0:0:0:50:snare.wav
109,192,25377,1,0,0:0:0:0:
402,192,25377,1,0,0:0:0:0:
182,192,25533,128,0,25690:0:0:0:0:
329,192,25690,1,0,0:0:0:0:
256,192,25846,1,0,0:0:0:70:kick.wav
475,192,25846,1,0,0:0:0:0:
36,192,26002,1,0,0:0:0:50:snare.wav
109,192,26002,1,0,0:0:0:0:
402,192,26002,1,0,0:0:0:0:
182,192,26158,128,0,26315:0:0:0:0:
36,192,26315,1,0,0:0:0:70:kick.wav
329,192,26315,1,0,0:0:0:0:
475,192,26471,1,0,0:0:0:0:
36,192,26627,1,0,0:0:0:50:snare.wav
109,192,26627,1,0,0:0:0:0:
402,192,26627,1,0,0:0:0:0:
182,192,26783,128,0,26940:0:0:0:0:
475,192,26940,1,0,0:0:0:0:
329,192,27018,1,0,0:0:0:0:
182,192,27096,1,0,0:0:0:70:kick.wav
36,192,27174,1,0,0:0:0:0:
109,192,27252,1,0,0:0:0:50:snare.wav
402,192,27252,1,0,0:0:0:0:
475,192,27252,1,0,0:0:0:0:
329,192,27408,128,0,27565:0:0:0:0:
36,192,27565,1,0,0:0:0:70:kick.wav
256,192,27565,1,0,0:0:0:0:
475,192,27721,1,0,0:0:0:0:
109,192,27877,1,0,0:0:0:50:snare.wav
182,192,27877,1,0,0:0:0:0:
402,192,27877,1,0,0:0:0:0:
475,192,28033,1,0,0:0:0:0:
109,192,28111,1,0,0:0:0:50:snare.wav
182,192,28111,1,0,0:0:0:0:
256,192,28190,1,0,0:0:0:0:
329,192,28346,1,0,0:0:0:50:snare.wav
402,192,28346,1,0,0:0:0:0:
182,192,28424,1,0,0:0:0:50:snare.wav
329,192,28502,1,0,0:0:0:50:snare.wav
402,192,28502,1,0,0:0:0:0:
256,192,28658,1,0,0:0:0:70:kick.wav
36,192,28736,1,0,0:0:0:70:kick.wav
182,192,28815,1,0,0:0:0:70:kick.wav
329,192,28815,1,0,0:0:0:50:impact.wav
182,192,28971,1,0,0:0:0:70:kick.wav
402,192,28971,1,0,0:0:0:50:impact.wav
109,192,29127,1,0,0:0:0:70:kick.wav
329,192,29127,1,0,0:0:0:50:impact.wav
182,192,29283,1,0,0:0:0:70:kick.wav
329,192,29283,1,0,0:0:0:50:impact.wav
36,192,29440,1,0,0:0:0:70:kick.wav
402,192,29440,1,0,0:0:0:50:impact.wav
36,192,29596,1,0,0:0:0:70:kick.wav
329,192,29596,1,0,0:0:0:50:impact.wav
182,192,29752,1,0,0:0:0:70:kick.wav
475,192,29830,1,0,0:0:0:70:kick.wav
182,192,29908,1,0,0:0:0:70:kick.wav
475,192,29986,1,0,0:0:0:70:kick.wav
109,192,30065,1,0,0:0:0:50:crash.wav
256,192,30065,1,0,0:0:0:0:
329,192,30065,128,0,30377:0:0:0:0:
402,192,30221,128,0,30377:0:0:0:0:
36,192,30377,1,0,0:0:0:50:snare.wav
109,192,30377,1,0,0:0:0:0:
182,192,30377,1,0,0:0:0:0:
475,192,30533,128,0,30690:0:0:0:0:
36,192,30690,128,0,31002:0:0:0:0:
109,192,30846,128,0,31002:0:0:0:70:kick.wav
256,192,30846,1,0,0:0:0:0:
329,192,31002,1,0,0:0:0:50:snare.wav
402,192,31002,1,0,0:0:0:0:
475,192,31002,1,0,0:0:0:0:
182,192,31158,128,0,31315:0:0:0:0:
36,192,31315,1,0,0:0:0:70:kick.wav
256,192,31315,1,0,0:0:0:0:
329,192,31315,128,0,31627:0:0:0:0:
402,192,31471,128,0,31627:0:0:0:0:
36,192,31627,1,0,0:0:0:50:snare.wav
109,192,31627,1,0,0:0:0:0:
182,192,31627,1,0,0:0:0:0:
475,192,31783,128,0,31940:0:0:0:0:
36,192,31940,1,0,0:0:0:0:
182,192,32018,1,0,0:0:0:0:
256,192,32096,1,0,0:0:0:70:kick.wav
329,192,32174,1,0,0:0:0:0:
36,192,32252,1,0,0:0:0:50:snare.wav
109,192,32252,1,0,0:0:0:0:
182,192,32252,1,0,0:0:0:0:
329,192,32330,1,0,0:0:0:0:
402,192,32408,1,0,0:0:0:0:
475,192,32486,1,0,0:0:0:0:
109,192,32565,128,0,32877:0:0:0:70:kick.wav
182,192,32565,1,0,0:0:0:0:
256,192,32565,1,0,0:0:0:0:
402,192,32721,128,0,32877:0:0:0:0:
36,192,32877,1,0,0:0:0:50:snare.wav
182,192,32877,1,0,0:0:0:0:
329,192,32877,1,0,0:0:0:0:
475,192,33033,128,0,33190:0:0:0:0:
36,192,33190,128,0,33502:0:0:0:0:
256,192,33346,1,0,0:0:0:70:kick.wav
329,192,33346,128,0,33502:0:0:0:0:
109,192,33502,1,0,0:0:0:50:snare.wav
182,192,33502,1,0,0:0:0:0:
475,192,33502,1,0,0:0:0:0:
402,192,33658,128,0,33815:0:0:0:0:
36,192,33815,1,0,0:0:0:70:kick.wav
182,192,33815,1,0,0:0:0:0:
36,192,33971,1,0,0:0:0:70:kick.wav
329,192,33971,1,0,0:0:0:0:
182,192,34127,1,0,0:0:0:50:snare.wav
402,192,34127,1,0,0:0:0:0:
475,192,34127,1,0,0:0:0:0:
256,192,34283,1,0,0:0:0:0:
402,192,34361,1,0,0:0:0:50:snare.wav
475,192,34361,1,0,0:0:0:0:
36,192,34440,1,0,0:0:0:70:kick.wav
109,192,34440,1,0,0:0:0:50:impact.wav
182,192,34596,128,0,34752:0:0:0:70:kick.wav
329,192,34596,128,0,34752:0:0:0:50:impact2.wav
109,192,34752,1,0,0:0:0:50:snare.wav
402,192,34752,1,0,0:0:0:0:
475,192,34752,1,0,0:0:0:0:
182,192,34908,1,0,0:0:0:70:kick.wav
329,192,34986,1,0,0:0:0:70:kick.wav
36,192,35065,128,0,35377:0:0:0:70:kick.wav
182,192,35065,1,0,0:0:0:50:crash.wav
475,192,35065,1,0,0:0:0:0:
109,192,35221,128,0,35377:0:0:0:0:
182,192,35377,1,0,0:0:0:50:snare.wav
329,192,35377,1,0,0:0:0:0:
402,192,35377,1,0,0:0:0:0:
475,192,35533,128,0,35690:0:0:0:0:
36,192,35690,1,0,0:0:0:0:
329,192,35690,128,0,36002:0:0:0:0:
256,192,35846,1,0,0:0:0:70:kick.wav
402,192,35846,128,0,36002:0:0:0:0:
36,192,36002,1,0,0:0:0:50:snare.wav
109,192,36002,1,0,0:0:0:0:
475,192,36002,1,0,0:0:0:0:
182,192,36158,128,0,36315:0:0:0:0:
36,192,36315,128,0,36627:0:0:0:70:kick.wav
256,192,36315,1,0,0:0:0:0:
329,192,36315,1,0,0:0:0:0:
109,192,36471,128,0,36627:0:0:0:0:
182,192,36627,1,0,0:0:0:50:snare.wav
329,192,36627,1,0,0:0:0:0:
402,192,36627,1,0,0:0:0:0:
475,192,36783,128,0,36940:0:0:0:0:
402,192,36940,1,0,0:0:0:0:
329,192,37018,1,0,0:0:0:0:
109,192,37096,1,0,0:0:0:70:kick.wav
36,192,37174,1,0,0:0:0:0:
182,192,37252,128,0,37565:0:0:0:50:snare.wav
402,192,37252,1,0,0:0:0:0:
475,192,37252,1,0,0:0:0:0:
329,192,37408,128,0,37565:0:0:0:0:
109,192,37565,1,0,0:0:0:70:kick.wav
256,192,37565,1,0,0:0:0:0:
402,192,37721,128,0,37877:0:0:0:0:
36,192,37877,1,0,0:0:0:50:snare.wav
109,192,37877,1,0,0:0:0:0:
256,192,37877,1,0,0:0:0:0:
329,192,38033,128,0,38190:0:0:0:0:
36,192,38111,1,0,0:0:0:50:snare.wav
109,192,38111,1,0,0:0:0:0:
256,192,38190,1,0,0:0:0:0:
109,192,38346,128,0,38502:0:0:0:50:snare.wav
402,192,38346,1,0,0:0:0:0:
475,192,38346,1,0,0:0:0:0:
256,192,38502,1,0,0:0:0:0:
402,192,38580,1,0,0:0:0:50:snare.wav
475,192,38580,1,0,0:0:0:0:
182,192,38658,128,0,38815:0:0:0:0:
329,192,38815,1,0,0:0:0:60:kick.wav
402,192,38815,1,0,0:0:0:50:impact.wav
182,192,38919,1,0,0:0:0:60:kick.wav
329,192,39023,1,0,0:0:0:60:kick.wav
36,192,39127,1,0,0:0:0:60:kick.wav
109,192,39127,1,0,0:0:0:50:impact.wav
329,192,39231,1,0,0:0:0:60:kick.wav
109,192,39335,1,0,0:0:0:60:kick.wav
402,192,39440,1,0,0:0:0:60:kick.wav
475,192,39440,1,0,0:0:0:50:impact.wav
109,192,39544,1,0,0:0:0:60:kick.wav
402,192,39648,1,0,0:0:0:60:kick.wav
36,192,39752,1,0,0:0:0:50:snare.wav
475,192,39830,1,0,0:0:0:50:snare.wav
36,192,39908,1,0,0:0:0:50:snare.wav
475,192,39986,1,0,0:0:0:50:snare.wav
109,192,40065,1,0,0:0:0:70:kick.wav
329,192,40065,1,0,0:0:0:50:crash.wav
109,192,40221,128,0,40377:0:0:0:70:kick.wav
329,192,40221,1,0,0:0:0:0:
329,192,40377,1,0,0:0:0:70:kick.wav
256,192,40533,1,0,0:0:0:50:snare.wav
402,192,40533,1,0,0:0:0:0:
475,192,40533,1,0,0:0:0:0:
256,192,40690,1,0,0:0:0:50:snare.wav
402,192,40690,1,0,0:0:0:0:
475,192,40690,1,0,0:0:0:0:
109,192,41002,1,0,0:0:0:70:kick.wav
329,192,41002,1,0,0:0:0:0:
109,192,41158,1,0,0:0:0:70:kick.wav
329,192,41158,128,0,41783:0:0:0:0:
109,192,41315,1,0,0:0:0:70:kick.wav
36,192,41315,1,0,0:0:0:0:
182,192,41471,1,0,0:0:0:70:kick.wav
402,192,41549,1,0,0:0:0:70:kick.wav
182,192,41627,1,0,0:0:0:70:kick.wav
109,192,41783,1,0,0:0:0:50:snare.wav
402,192,41783,1,0,0:0:0:0:
475,192,41783,1,0,0:0:0:0:
109,192,41940,1,0,0:0:0:50:snare.wav
402,192,41940,1,0,0:0:0:0:
475,192,41940,1,0,0:0:0:0:
36,192,42096,1,0,0:0:0:70:kick.wav
182,192,42174,1,0,0:0:0:70:kick.wav
256,192,42252,128,0,42408:0:0:0:70:kick.wav
329,192,42252,1,0,0:0:0:50:crash2.wav
36,192,42408,1,0,0:0:0:70:kick.wav
109,192,42565,1,0,0:0:0:70:kick.wav
329,192,42565,1,0,0:0:0:0:
256,192,42643,1,0,0:0:0:70:kick.wav
109,192,42721,1,0,0:0:0:70:kick.wav
329,192,42721,1,0,0:0:0:0:
109,192,42877,1,0,0:0:0:70:kick.wav
329,192,42877,1,0,0:0:0:0:
36,192,43033,1,0,0:0:0:50:snare.wav
402,192,43033,1,0,0:0:0:0:
475,192,43033,1,0,0:0:0:0:
256,192,43190,1,0,0:0:0:50:crash2.wav
329,192,43190,1,0,0:0:0:0:
256,192,43346,1,0,0:0:0:50:crash2.wav
329,192,43346,1,0,0:0:0:0:
109,192,43502,1,0,0:0:0:70:kick.wav
182,192,43502,1,0,0:0:0:0:
109,192,43658,128,0,44283:0:0:0:70:kick.wav
182,192,43658,1,0,0:0:0:0:
329,192,43815,1,0,0:0:0:70:kick.wav
402,192,43815,1,0,0:0:0:0:
402,192,43971,1,0,0:0:0:70:kick.wav
256,192,44049,1,0,0:0:0:70:kick.wav
402,192,44127,1,0,0:0:0:70:kick.wav
329,192,44283,1,0,0:0:0:50:impact2.wav
256,192,44361,1,0,0:0:0:50:impact2.wav
182,192,44440,1,0,0:0:0:50:snare.wav
402,192,44440,1,0,0:0:0:50:impact2.wav
475,192,44440,1,0,0:0:0:0:
329,192,44596,1,0,0:0:0:70:kick.wav
182,192,44674,1,0,0:0:0:70:kick.wav
36,192,44752,128,0,45065:0:0:0:50:snare.wav
475,192,44752,1,0,0:0:0:50:impact2.wav
402,192,44752,1,0,0:0:0:0:
329,192,44908,1,0,0:0:0:50:snare.wav
475,192,44908,1,0,0:0:0:50:impact2.wav
182,192,44986,1,0,0:0:0:50:snare.wav
256,192,45065,1,0,0:0:0:70:kick.wav
402,192,45065,1,0,0:0:0:50:crash.wav
256,192,45221,128,0,45377:0:0:0:70:kick.wav
402,192,45221,1,0,0:0:0:0:
402,192,45377,1,0,0:0:0:70:kick.wav
109,192,45533,1,0,0:0:0:50:snare.wav
182,192,45533,1,0,0:0:0:0:
329,192,45533,1,0,0:0:0:0:
109,192,45690,1,0,0:0:0:50:snare.wav
182,192,45690,1,0,0:0:0:0:
329,192,45690,1,0,0:0:0:0:
256,192,46002,1,0,0:0:0:70:kick.wav
402,192,46002,1,0,0:0:0:0:
256,192,46158,1,0,0:0:0:70:kick.wav
402,192,46158,128,0,46783:0:0:0:0:
109,192,46315,1,0,0:0:0:70:kick.wav
256,192,46315,1,0,0:0:0:0:
329,192,46471,1,0,0:0:0:70:kick.wav
182,192,46549,1,0,0:0:0:70:kick.wav
329,192,46627,1,0,0:0:0:70:kick.wav
109,192,46783,1,0,0:0:0:50:snare.wav
182,192,46783,1,0,0:0:0:0:
475,192,46783,1,0,0:0:0:0:
109,192,46940,1,0,0:0:0:50:snare.wav
182,192,46940,1,0,0:0:0:0:
475,192,46940,1,0,0:0:0:0:
36,192,47096,1,0,0:0:0:70:kick.wav
182,192,47174,1,0,0:0:0:70:kick.wav
329,192,47252,1,0,0:0:0:50:crash2.wav
475,192,47252,128,0,47565:0:0:0:0:
109,192,47408,1,0,0:0:0:70:kick.wav
256,192,47408,1,0,0:0:0:0:
182,192,47565,1,0,0:0:0:70:kick.wav
402,192,47565,1,0,0:0:0:0:
256,192,47643,1,0,0:0:0:70:kick.wav
182,192,47721,1,0,0:0:0:70:kick.wav
402,192,47721,1,0,0:0:0:0:
182,192,47877,1,0,0:0:0:70:kick.wav
402,192,47877,1,0,0:0:0:0:
36,192,48033,1,0,0:0:0:50:snare.wav
109,192,48033,1,0,0:0:0:0:
475,192,48033,1,0,0:0:0:0:
329,192,48190,1,0,0:0:0:50:crash2.wav
402,192,48190,1,0,0:0:0:0:
329,192,48346,1,0,0:0:0:50:crash2.wav
402,192,48346,1,0,0:0:0:0:
109,192,48502,1,0,0:0:0:70:kick.wav
182,192,48502,1,0,0:0:0:0:
109,192,48658,1,0,0:0:0:70:kick.wav
256,192,48736,1,0,0:0:0:70:kick.wav
36,192,48815,1,0,0:0:0:70:kick.wav
402,192,48815,1,0,0:0:0:50:impact2.wav
182,192,48893,1,0,0:0:0:70:kick.wav
329,192,48971,1,0,0:0:0:70:kick.wav
475,192,48971,128,0,49283:0:0:0:0:
36,192,49127,1,0,0:0:0:70:kick.wav
329,192,49127,1,0,0:0:0:0:
182,192,49283,1,0,0:0:0:70:kick.wav
256,192,49283,1,0,0:0:0:0:
402,192,49361,1,0,0:0:0:70:kick.wav
36,192,49440,1,0,0:0:0:70:kick.wav
109,192,49440,1,0,0:0:0:0:
36,192,49596,1,0,0:0:0:70:kick.wav
109,192,49596,1,0,0:0:0:0:
402,192,49752,1,0,0:0:0:70:kick.wav
475,192,49752,128,0,50065:0:0:0:0:
256,192,49908,1,0,0:0:0:70:kick.wav
402,192,49908,1,0,0:0:0:0:
182,192,49986,1,0,0:0:0:70:kick.wav
109,192,50065,1,0,0:0:0:70:kick.wav
329,192,50065,1,0,0:0:0:50:crash.wav
109,192,50221,128,0,50377:0:0:0:70:kick.wav
329,192,50221,1,0,0:0:0:0:
329,192,50377,1,0,0:0:0:70:kick.wav
256,192,50533,1,0,0:0:0:50:snare.wav
402,192,50533,1,0,0:0:0:0:
475,192,50533,1,0,0:0:0:0:
256,192,50690,1,0,0:0:0:50:snare.wav
402,192,50690,128,0,50846:0:0:0:0:
475,192,50690,128,0,50846:0:0:0:0:
109,192,51002,1,0,0:0:0:70:kick.wav
329,192,51002,1,0,0:0:0:0:
109,192,51158,1,0,0:0:0:70:kick.wav
329,192,51158,128,0,51783:0:0:0:0:
109,192,51315,1,0,0:0:0:70:kick.wav
182,192,51315,1,0,0:0:0:0:
182,192,51471,1,0,0:0:0:70:kick.wav
402,192,51549,1,0,0:0:0:70:kick.wav
182,192,51627,1,0,0:0:0:70:kick.wav
109,192,51783,1,0,0:0:0:50:snare.wav
402,192,51783,1,0,0:0:0:0:
475,192,51783,1,0,0:0:0:0:
109,192,51940,1,0,0:0:0:50:snare.wav
402,192,51940,128,0,52096:0:0:0:0:
475,192,51940,128,0,52096:0:0:0:0:
36,192,52096,1,0,0:0:0:70:kick.wav
182,192,52174,1,0,0:0:0:70:kick.wav
256,192,52252,128,0,52408:0:0:0:70:kick.wav
329,192,52252,1,0,0:0:0:50:crash2.wav
36,192,52408,1,0,0:0:0:70:kick.wav
109,192,52565,1,0,0:0:0:70:kick.wav
329,192,52565,1,0,0:0:0:0:
256,192,52643,1,0,0:0:0:70:kick.wav
109,192,52721,1,0,0:0:0:70:kick.wav
329,192,52721,1,0,0:0:0:0:
109,192,52877,1,0,0:0:0:70:kick.wav
329,192,52877,1,0,0:0:0:0:
36,192,53033,1,0,0:0:0:50:snare.wav
402,192,53033,1,0,0:0:0:0:
475,192,53033,1,0,0:0:0:0:
256,192,53190,1,0,0:0:0:50:crash2.wav
329,192,53190,1,0,0:0:0:0:
256,192,53346,128,0,53502:0:0:0:50:crash2.wav
329,192,53346,1,0,0:0:0:0:
109,192,53502,1,0,0:0:0:70:kick.wav
182,192,53502,1,0,0:0:0:0:
109,192,53658,128,0,54283:0:0:0:70:kick.wav
182,192,53658,1,0,0:0:0:0:
329,192,53815,1,0,0:0:0:70:kick.wav
402,192,53815,1,0,0:0:0:0:
402,192,53971,1,0,0:0:0:70:kick.wav
256,192,54049,1,0,0:0:0:70:kick.wav
402,192,54127,1,0,0:0:0:70:kick.wav
329,192,54283,1,0,0:0:0:50:impact2.wav
182,192,54361,1,0,0:0:0:50:impact2.wav
256,192,54440,1,0,0:0:0:50:snare.wav
402,192,54440,1,0,0:0:0:50:impact2.wav
475,192,54440,1,0,0:0:0:0:
329,192,54596,1,0,0:0:0:70:kick.wav
182,192,54674,1,0,0:0:0:70:kick.wav
36,192,54752,128,0,55065:0:0:0:50:snare.wav
402,192,54752,1,0,0:0:0:50:impact2.wav
475,192,54752,1,0,0:0:0:0:
329,192,54908,1,0,0:0:0:50:snare.wav
475,192,54908,1,0,0:0:0:50:impact2.wav
182,192,54986,1,0,0:0:0:50:snare.wav
256,192,55065,1,0,0:0:0:70:kick.wav
402,192,55065,1,0,0:0:0:50:crash.wav
256,192,55221,128,0,55377:0:0:0:70:kick.wav
402,192,55221,1,0,0:0:0:0:
402,192,55377,1,0,0:0:0:70:kick.wav
109,192,55533,1,0,0:0:0:50:snare.wav
182,192,55533,1,0,0:0:0:0:
329,192,55533,1,0,0:0:0:0:
109,192,55690,128,0,55846:0:0:0:50:snare.wav
182,192,55690,128,0,55846:0:0:0:0:
329,192,55690,1,0,0:0:0:0:
256,192,56002,1,0,0:0:0:70:kick.wav
402,192,56002,1,0,0:0:0:0:
256,192,56158,1,0,0:0:0:70:kick.wav
402,192,56158,128,0,56783:0:0:0:0:
109,192,56315,1,0,0:0:0:70:kick.wav
256,192,56315,1,0,0:0:0:0:
329,192,56471,1,0,0:0:0:70:kick.wav
182,192,56549,1,0,0:0:0:70:kick.wav
329,192,56627,1,0,0:0:0:70:kick.wav
36,192,56783,1,0,0:0:0:50:snare.wav
109,192,56783,1,0,0:0:0:0:
182,192,56783,1,0,0:0:0:0:
36,192,56940,1,0,0:0:0:50:snare.wav
109,192,56940,128,0,57096:0:0:0:0:
182,192,56940,128,0,57096:0:0:0:0:
402,192,57096,1,0,0:0:0:70:kick.wav
256,192,57174,1,0,0:0:0:70:kick.wav
329,192,57252,1,0,0:0:0:50:crash2.wav
475,192,57252,128,0,57565:0:0:0:0:
109,192,57408,1,0,0:0:0:70:kick.wav
256,192,57408,1,0,0:0:0:0:
182,192,57565,1,0,0:0:0:70:kick.wav
402,192,57565,1,0,0:0:0:0:
256,192,57643,1,0,0:0:0:70:kick.wav
182,192,57721,1,0,0:0:0:70:kick.wav
402,192,57721,1,0,0:0:0:0:
182,192,57877,1,0,0:0:0:70:kick.wav
402,192,57877,1,0,0:0:0:0:
36,192,58033,1,0,0:0:0:50:snare.wav
109,192,58033,1,0,0:0:0:0:
475,192,58033,1,0,0:0:0:0:
329,192,58190,1,0,0:0:0:50:crash2.wav
402,192,58190,1,0,0:0:0:0:
329,192,58346,1,0,0:0:0:50:crash2.wav
402,192,58346,1,0,0:0:0:0:
36,192,58502,1,0,0:0:0:70:kick.wav
109,192,58502,1,0,0:0:0:50:impact2.wav
36,192,58658,128,0,59283:0:0:0:70:kick.wav
109,192,58658,1,0,0:0:0:50:impact2.wav
402,192,58815,1,0,0:0:0:0:
256,192,58971,1,0,0:0:0:0:
402,192,59049,1,0,0:0:0:0:
256,192,59127,1,0,0:0:0:0:
182,192,59283,128,0,59440:0:0:0:50:crash2.wav
402,192,59440,1,0,0:0:0:0:
475,192,59440,1,0,0:0:0:0:
109,192,59596,128,0,59752:0:0:0:0:
182,192,59752,1,0,0:0:0:50:impact2.wav
256,192,59752,1,0,0:0:0:0:
256,192,59908,1,0,0:0:0:50:impact2.wav
329,192,59986,1,0,0:0:0:50:impact2.wav
36,192,60065,128,0,61315:0:0:0:50:crash.wav
256,192,60065,1,0,0:0:0:70:shinden.wav
475,192,60065,1,0,0:0:0:0:
475,192,61315,1,0,0:0:0:70:shinden.wav
109,192,62565,1,0,0:0:0:70:shinden.wav
402,192,62565,128,0,63815:0:0:0:0:
109,192,63815,1,0,0:0:0:70:shinden.wav
109,192,65065,128,0,66315:0:0:0:70:shinden.wav
402,192,65065,1,0,0:0:0:0:
402,192,66315,1,0,0:0:0:70:shinden.wav
36,192,67565,1,0,0:0:0:70:shinden.wav
329,192,67565,128,0,68815:0:0:0:0:
36,192,68815,1,0,0:0:0:70:shinden.wav
36,192,69440,1,0,0:0:0:0:
182,192,69596,1,0,0:0:0:0:
329,192,69752,1,0,0:0:0:0:
475,192,69908,1,0,0:0:0:0:
36,192,70065,1,0,0:0:0:50:crash.wav
109,192,70065,1,0,0:0:0:70:shinden.wav
329,192,70065,1,0,0:0:0:0:
256,192,70221,1,0,0:0:0:0:
402,192,70377,1,0,0:0:0:0:
182,192,70533,1,0,0:0:0:0:
109,192,70690,1,0,0:0:0:0:
256,192,70846,1,0,0:0:0:0:
402,192,71002,1,0,0:0:0:0:
182,192,71158,1,0,0:0:0:0:
109,192,71315,1,0,0:0:0:70:shinden.wav
256,192,71471,1,0,0:0:0:0:
402,192,71627,1,0,0:0:0:0:
182,192,71783,1,0,0:0:0:0:
109,192,71940,1,0,0:0:0:0:
256,192,72096,1,0,0:0:0:0:
402,192,72252,1,0,0:0:0:0:
182,192,72408,1,0,0:0:0:0:
36,192,72565,1,0,0:0:0:70:shinden.wav
109,192,72565,1,0,0:0:0:0:
182,192,72721,1,0,0:0:0:0:
329,192,72877,1,0,0:0:0:0:
475,192,73033,1,0,0:0:0:0:
109,192,73190,1,0,0:0:0:0:
182,192,73346,1,0,0:0:0:0:
329,192,73502,1,0,0:0:0:0:
475,192,73658,1,0,0:0:0:0:
109,192,73815,1,0,0:0:0:70:shinden.wav
182,192,73971,1,0,0:0:0:0:
329,192,74127,1,0,0:0:0:0:
475,192,74283,1,0,0:0:0:0:
109,192,74440,1,0,0:0:0:0:
182,192,74596,1,0,0:0:0:0:
329,192,74752,1,0,0:0:0:0:
475,192,74908,1,0,0:0:0:0:
109,192,75065,1,0,0:0:0:70:shinden.wav
402,192,75065,1,0,0:0:0:0:
36,192,75221,1,0,0:0:0:0:
182,192,75377,1,0,0:0:0:0:
329,192,75533,1,0,0:0:0:0:
109,192,75690,1,0,0:0:0:0:
36,192,75846,1,0,0:0:0:0:
182,192,76002,1,0,0:0:0:0:
329,192,76158,1,0,0:0:0:0:
109,192,76315,1,0,0:0:0:70:shinden.wav
36,192,76471,1,0,0:0:0:0:
182,192,76627,1,0,0:0:0:0:
329,192,76783,1,0,0:0:0:0:
109,192,76940,1,0,0:0:0:0:
36,192,77096,1,0,0:0:0:0:
182,192,77252,1,0,0:0:0:0:
329,192,77408,1,0,0:0:0:0:
36,192,77565,1,0,0:0:0:70:shinden.wav
475,192,77565,1,0,0:0:0:0:
182,192,77721,1,0,0:0:0:0:
256,192,77877,1,0,0:0:0:0:
329,192,78033,1,0,0:0:0:0:
36,192,78190,1,0,0:0:0:0:
182,192,78346,1,0,0:0:0:0:
256,192,78502,1,0,0:0:0:0:
329,192,78658,1,0,0:0:0:0:
109,192,78815,1,0,0:0:0:70:shinden.wav
182,192,78971,1,0,0:0:0:0:
256,192,79127,1,0,0:0:0:0:
402,192,79283,1,0,0:0:0:0:
109,192,79440,1,0,0:0:0:0:
182,192,79596,1,0,0:0:0:0:
256,192,79752,1,0,0:0:0:0:
402,192,79908,1,0,0:0:0:0:
36,192,80065,1,0,0:0:0:0:
182,192,80221,1,0,0:0:0:0:
329,192,80377,1,0,0:0:0:0:
475,192,80533,1,0,0:0:0:0:
36,192,80690,1,0,0:0:0:0:
182,192,80846,1,0,0:0:0:0:
329,192,81002,1,0,0:0:0:0:
475,192,81158,1,0,0:0:0:0:
36,192,81315,1,0,0:0:0:0:
182,192,81471,1,0,0:0:0:0:
329,192,81627,1,0,0:0:0:0:
475,192,81783,1,0,0:0:0:0:
36,192,81940,1,0,0:0:0:0:
182,192,82096,1,0,0:0:0:0:
329,192,82252,1,0,0:0:0:0:
475,192,82408,1,0,0:0:0:0:
36,192,82565,1,0,0:0:0:0:
182,192,82721,1,0,0:0:0:0:
256,192,82877,1,0,0:0:0:0:
402,192,83033,1,0,0:0:0:0:
36,192,83190,1,0,0:0:0:0:
182,192,83346,1,0,0:0:0:0:
256,192,83502,1,0,0:0:0:0:
402,192,83658,1,0,0:0:0:0:
36,192,83815,1,0,0:0:0:0:
182,192,83971,1,0,0:0:0:0:
256,192,84127,1,0,0:0:0:0:
402,192,84283,1,0,0:0:0:0:
36,192,84440,1,0,0:0:0:0:
182,192,84596,1,0,0:0:0:0:
256,192,84752,1,0,0:0:0:0:
402,192,84908,1,0,0:0:0:0:
36,192,85065,1,0,0:0:0:0:
109,192,85221,1,0,0:0:0:0:
182,192,85377,1,0,0:0:0:0:
329,192,85533,1,0,0:0:0:70:shinden.wav
36,192,85690,1,0,0:0:0:0:
109,192,85846,1,0,0:0:0:0:
182,192,86002,1,0,0:0:0:0:
329,192,86158,1,0,0:0:0:0:
36,192,86315,1,0,0:0:0:0:
109,192,86471,1,0,0:0:0:0:
182,192,86627,1,0,0:0:0:0:
329,192,86783,1,0,0:0:0:0:
36,192,86940,1,0,0:0:0:0:
109,192,87096,1,0,0:0:0:0:
182,192,87252,1,0,0:0:0:0:
329,192,87408,1,0,0:0:0:0:
36,192,87565,1,0,0:0:0:0:
109,192,87721,1,0,0:0:0:0:
182,192,87877,1,0,0:0:0:0:
256,192,88033,1,0,0:0:0:0:
36,192,88190,1,0,0:0:0:0:
109,192,88346,1,0,0:0:0:0:
182,192,88502,1,0,0:0:0:0:
256,192,88658,1,0,0:0:0:0:
109,192,88815,1,0,0:0:0:0:
475,192,88854,128,0,95065:0:0:0:70:shinden.wav
182,192,88971,1,0,0:0:0:0:
256,192,89127,1,0,0:0:0:0:
402,192,89283,1,0,0:0:0:0:
109,192,89440,1,0,0:0:0:0:
256,192,89596,1,0,0:0:0:0:
329,192,89752,1,0,0:0:0:0:
402,192,89908,1,0,0:0:0:0:
182,192,90065,128,0,95065:0:0:0:0:
109,192,93190,128,0,95065:0:0:0:0:
402,192,95065,1,0,0:0:0:40:noise.wav
182,192,99440,1,0,0:0:0:50:piano1.wav
329,192,99752,1,0,0:0:0:50:piano2.wav
182,192,100065,1,0,0:0:0:70:drum1.wav
256,192,100065,1,0,0:0:0:50:crash.wav
475,192,100065,1,0,0:0:0:0:
36,192,100377,1,0,0:0:0:70:drum2.wav
109,192,100377,1,0,0:0:0:0:
109,192,100846,1,0,0:0:0:70:drum2.wav
36,192,100846,1,0,0:0:0:0:
402,192,101002,1,0,0:0:0:0:
182,192,101158,1,0,0:0:0:50:drum2.wav
182,192,101315,1,0,0:0:0:70:drum1.wav
256,192,101627,1,0,0:0:0:70:drum2.wav
329,192,101627,1,0,0:0:0:0:
256,192,102096,1,0,0:0:0:70:drum2.wav
329,192,102096,1,0,0:0:0:0:
109,192,102252,1,0,0:0:0:0:
182,192,102408,1,0,0:0:0:70:drum2.wav
402,192,102408,1,0,0:0:0:0:
256,192,102565,1,0,0:0:0:70:drum1.wav
475,192,102565,1,0,0:0:0:0:
36,192,102877,1,0,0:0:0:70:drum2.wav
109,192,102877,1,0,0:0:0:0:
36,192,103658,1,0,0:0:0:70:drum2.wav
109,192,103658,1,0,0:0:0:0:
182,192,103815,1,0,0:0:0:70:drum1.wav
329,192,103815,1,0,0:0:0:0:
256,192,104127,1,0,0:0:0:70:drum2.wav
475,192,104127,1,0,0:0:0:0:
36,192,104283,1,0,0:0:0:0:
109,192,104596,1,0,0:0:0:0:
329,192,104752,1,0,0:0:0:0:
36,192,104908,1,0,0:0:0:70:drum2.wav
182,192,104986,1,0,0:0:0:70:drum2.wav
329,192,105065,1,0,0:0:0:70:drum1.wav
475,192,105065,1,0,0:0:0:0:
36,192,105377,1,0,0:0:0:70:drum2.wav
256,192,105377,1,0,0:0:0:0:
36,192,105846,1,0,0:0:0:70:drum2.wav
256,192,105846,1,0,0:0:0:0:
475,192,106002,1,0,0:0:0:0:
182,192,106158,1,0,0:0:0:50:drum2.wav
182,192,106315,1,0,0:0:0:70:drum1.wav
402,192,106315,1,0,0:0:0:0:
36,192,106627,1,0,0:0:0:70:drum2.wav
256,192,106627,1,0,0:0:0:0:
475,192,106783,1,0,0:0:0:0:
36,192,107096,1,0,0:0:0:70:drum2.wav
182,192,107096,1,0,0:0:0:0:
402,192,107252,1,0,0:0:0:0:
36,192,107408,1,0,0:0:0:70:drum2.wav
182,192,107408,1,0,0:0:0:0:
109,192,107565,1,0,0:0:0:70:drum1.wav
256,192,107565,1,0,0:0:0:0:
329,192,107565,1,0,0:0:0:0:
329,192,107877,1,0,0:0:0:70:drum2.wav
475,192,107877,1,0,0:0:0:0:
182,192,108033,1,0,0:0:0:0:
109,192,108502,1,0,0:0:0:0:
329,192,108658,1,0,0:0:0:70:drum2.wav
475,192,108658,1,0,0:0:0:0:
182,192,108815,1,0,0:0:0:70:drum1.wav
329,192,109127,1,0,0:0:0:70:drum2.wav
402,192,109127,1,0,0:0:0:0:
109,192,109440,1,0,0:0:0:70:drum2.wav
182,192,109440,1,0,0:0:0:0:
329,192,109596,128,0,110065:0:0:0:0:
182,192,109674,1,0,0:0:0:70:drum2.wav
256,192,109674,1,0,0:0:0:0:
182,192,109908,1,0,0:0:0:70:drum2.wav
256,192,109908,1,0,0:0:0:0:
36,192,110065,1,0,0:0:0:70:drum1.wav
109,192,110065,1,0,0:0:0:50:crash.wav
475,192,110065,1,0,0:0:0:0:
182,192,110221,1,0,0:0:0:0:
329,192,110377,1,0,0:0:0:70:drum2.wav
402,192,110377,1,0,0:0:0:0:
182,192,110533,1,0,0:0:0:0:
256,192,110690,1,0,0:0:0:0:
329,192,110846,1,0,0:0:0:70:drum2.wav
402,192,110846,1,0,0:0:0:0:
36,192,111002,1,0,0:0:0:0:
182,192,111002,1,0,0:0:0:0:
329,192,111158,1,0,0:0:0:50:drum2.wav
256,192,111315,1,0,0:0:0:70:drum1.wav
329,192,111315,1,0,0:0:0:0:
109,192,111471,1,0,0:0:0:0:
256,192,111627,1,0,0:0:0:70:drum2.wav
402,192,111627,1,0,0:0:0:0:
475,192,111627,1,0,0:0:0:0:
109,192,111783,1,0,0:0:0:0:
182,192,111940,1,0,0:0:0:0:
256,192,112096,1,0,0:0:0:70:drum2.wav
329,192,112096,1,0,0:0:0:0:
475,192,112096,1,0,0:0:0:0:
109,192,112252,1,0,0:0:0:0:
256,192,112408,1,0,0:0:0:70:drum2.wav
475,192,112408,1,0,0:0:0:0:
182,192,112565,1,0,0:0:0:70:drum1.wav
402,192,112565,1,0,0:0:0:0:
329,192,112721,1,0,0:0:0:0:
109,192,112877,1,0,0:0:0:70:drum2.wav
256,192,112877,1,0,0:0:0:0:
329,192,113033,1,0,0:0:0:0:
475,192,113190,1,0,0:0:0:0:
182,192,113346,1,0,0:0:0:0:
475,192,113502,1,0,0:0:0:0:
109,192,113658,1,0,0:0:0:70:drum2.wav
256,192,113658,1,0,0:0:0:0:
182,192,113815,1,0,0:0:0:70:drum1.wav
329,192,113815,1,0,0:0:0:0:
402,192,113971,1,0,0:0:0:0:
36,192,114127,1,0,0:0:0:70:drum2.wav
256,192,114127,1,0,0:0:0:0:
402,192,114283,1,0,0:0:0:0:
475,192,114283,1,0,0:0:0:0:
109,192,114440,1,0,0:0:0:0:
182,192,114596,1,0,0:0:0:0:
329,192,114596,1,0,0:0:0:0:
109,192,114752,1,0,0:0:0:0:
402,192,114908,1,0,0:0:0:70:drum2.wav
256,192,114986,1,0,0:0:0:70:drum2.wav
109,192,115065,1,0,0:0:0:70:drum1.wav
182,192,115065,1,0,0:0:0:0:
475,192,115221,1,0,0:0:0:0:
36,192,115377,1,0,0:0:0:70:drum2.wav
256,192,115377,1,0,0:0:0:0:
402,192,115533,1,0,0:0:0:0:
475,192,115533,1,0,0:0:0:0:
329,192,115690,1,0,0:0:0:0:
36,192,115846,1,0,0:0:0:70:drum2.wav
256,192,115846,1,0,0:0:0:0:
329,192,116002,1,0,0:0:0:0:
182,192,116158,1,0,0:0:0:50:drum2.wav
402,192,116158,1,0,0:0:0:0:
182,192,116315,1,0,0:0:0:70:drum1.wav
256,192,116315,1,0,0:0:0:0:
36,192,116471,1,0,0:0:0:0:
329,192,116627,1,0,0:0:0:70:drum2.wav
475,192,116627,1,0,0:0:0:0:
36,192,116783,1,0,0:0:0:0:
182,192,116940,1,0,0:0:0:0:
256,192,117096,1,0,0:0:0:70:drum2.wav
475,192,117096,1,0,0:0:0:0:
109,192,117252,1,0,0:0:0:0:
402,192,117408,1,0,0:0:0:70:drum2.wav
475,192,117408,1,0,0:0:0:0:
36,192,117565,1,0,0:0:0:50:snare.wav
182,192,117565,1,0,0:0:0:70:kick.wav
36,192,117721,1,0,0:0:0:50:snare.wav
182,192,117721,1,0,0:0:0:0:
329,192,117877,1,0,0:0:0:50:snare.wav
402,192,117877,1,0,0:0:0:0:
329,192,118033,1,0,0:0:0:50:snare.wav
402,192,118033,1,0,0:0:0:0:
109,192,118190,1,0,0:0:0:50:snare.wav
182,192,118190,1,0,0:0:0:0:
109,192,118346,1,0,0:0:0:50:snare.wav
182,192,118346,1,0,0:0:0:0:
329,192,118502,1,0,0:0:0:50:snare.wav
475,192,118502,1,0,0:0:0:0:
329,192,118658,1,0,0:0:0:50:snare.wav
475,192,118658,1,0,0:0:0:70:kick.wav
36,192,118815,1,0,0:0:0:50:snare2.wav
329,192,118893,1,0,0:0:0:50:snare2.wav
182,192,118971,1,0,0:0:0:50:snare2.wav
475,192,119049,1,0,0:0:0:50:snare2.wav
36,192,119127,1,0,0:0:0:50:snare2.wav
329,192,119205,1,0,0:0:0:50:snare2.wav
182,192,119283,1,0,0:0:0:50:snare2.wav
475,192,119361,1,0,0:0:0:50:snare2.wav
109,192,119440,128,0,119596:0:0:0:25:kick.wav
329,192,119596,128,0,119752:0:0:0:25:kick.wav
182,192,119752,1,0,0:0:0:25:kick.wav
402,192,119830,1,0,0:0:0:0:
256,192,119908,128,0,120065:0:0:0:0:
36,192,120065,1,0,0:0:0:70:kick.wav
109,192,120065,1,0,0:0:0:50:crash.wav
329,192,120065,1,0,0:0:0:0:
475,192,120221,1,0,0:0:0:0:
256,192,120299,1,0,0:0:0:0:
36,192,120377,1,0,0:0:0:50:snare.wav
109,192,120377,128,0,120690:0:0:0:0:
329,192,120377,1,0,0:0:0:0:
402,192,120533,128,0,120690:0:0:0:0:
182,192,120690,1,0,0:0:0:70:kick.wav
329,192,120690,1,0,0:0:0:0:
402,192,120846,1,0,0:0:0:0:
256,192,120924,1,0,0:0:0:0:
36,192,121002,1,0,0:0:0:50:snare.wav
109,192,121002,1,0,0:0:0:0:
182,192,121002,128,0,121315:0:0:0:0:
329,192,121158,128,0,121315:0:0:0:0:
109,192,121315,1,0,0:0:0:70:kick.wav
402,192,121315,1,0,0:0:0:0:
329,192,121471,1,0,0:0:0:0:
256,192,121549,1,0,0:0:0:0:
36,192,121627,128,0,121940:0:0:0:50:snare.wav
182,192,121627,1,0,0:0:0:0:
402,192,121627,1,0,0:0:0:0:
475,192,121783,128,0,121940:0:0:0:0:
256,192,121940,1,0,0:0:0:70:kick.wav
329,192,121940,1,0,0:0:0:0:
182,192,122018,1,0,0:0:0:0:
109,192,122096,1,0,0:0:0:0:
256,192,122174,1,0,0:0:0:0:
36,192,122252,1,0,0:0:0:50:snare.wav
402,192,122252,1,0,0:0:0:0:
475,192,122252,1,0,0:0:0:0:
182,192,122330,1,0,0:0:0:0:
329,192,122408,1,0,0:0:0:0:
475,192,122486,1,0,0:0:0:0:
36,192,122565,1,0,0:0:0:70:kick.wav
109,192,122565,1,0,0:0:0:0:
329,192,122721,1,0,0:0:0:0:
182,192,122799,1,0,0:0:0:0:
36,192,122877,1,0,0:0:0:50:snare.wav
109,192,122877,128,0,123190:0:0:0:0:
475,192,122877,1,0,0:0:0:0:
402,192,123033,128,0,123190:0:0:0:0:
182,192,123190,1,0,0:0:0:70:kick.wav
329,192,123190,1,0,0:0:0:0:
329,192,123346,1,0,0:0:0:70:kick.wav
402,192,123346,1,0,0:0:0:0:
256,192,123424,1,0,0:0:0:0:
36,192,123502,1,0,0:0:0:50:snare.wav
109,192,123502,1,0,0:0:0:0:
182,192,123502,128,0,123815:0:0:0:0:
475,192,123658,128,0,123815:0:0:0:0:
256,192,123815,1,0,0:0:0:70:kick.wav
402,192,123815,1,0,0:0:0:0:
256,192,123971,1,0,0:0:0:70:kick.wav
475,192,123971,1,0,0:0:0:0:
109,192,124127,1,0,0:0:0:50:snare.wav
182,192,124127,1,0,0:0:0:0:
402,192,124127,1,0,0:0:0:0:
329,192,124283,1,0,0:0:0:0:
36,192,124361,1,0,0:0:0:50:snare.wav
182,192,124361,1,0,0:0:0:0:
402,192,124440,1,0,0:0:0:0:
36,192,124596,1,0,0:0:0:70:kick.wav
256,192,124596,1,0,0:0:0:0:
182,192,124752,1,0,0:0:0:50:snare.wav
329,192,124752,1,0,0:0:0:0:
475,192,124752,1,0,0:0:0:0:
402,192,124908,1,0,0:0:0:70:kick.wav
256,192,124986,1,0,0:0:0:70:kick.wav
36,192,125065,1,0,0:0:0:70:kick.wav
109,192,125065,1,0,0:0:0:0:
329,192,125221,1,0,0:0:0:0:
256,192,125299,1,0,0:0:0:0:
36,192,125377,128,0,125690:0:0:0:50:snare.wav
182,192,125377,1,0,0:0:0:0:
402,192,125377,1,0,0:0:0:0:
475,192,125533,128,0,125690:0:0:0:0:
182,192,125690,1,0,0:0:0:70:kick.wav
329,192,125690,1,0,0:0:0:0:
402,192,125846,1,0,0:0:0:0:
256,192,125924,1,0,0:0:0:0:
36,192,126002,1,0,0:0:0:50:snare.wav
109,192,126002,1,0,0:0:0:0:
182,192,126002,128,0,126315:0:0:0:0:
329,192,126158,128,0,126315:0:0:0:0:
109,192,126315,1,0,0:0:0:70:kick.wav
402,192,126315,1,0,0:0:0:0:
475,192,126471,1,0,0:0:0:0:
256,192,126549,1,0,0:0:0:0:
36,192,126627,1,0,0:0:0:50:snare.wav
109,192,126627,128,0,126940:0:0:0:0:
329,192,126627,1,0,0:0:0:0:
402,192,126783,128,0,126940:0:0:0:0:
182,192,126940,1,0,0:0:0:70:kick.wav
256,192,126940,1,0,0:0:0:0:
329,192,127018,1,0,0:0:0:0:
475,192,127096,1,0,0:0:0:0:
329,192,127174,1,0,0:0:0:0:
36,192,127252,1,0,0:0:0:50:snare.wav
109,192,127252,1,0,0:0:0:0:
256,192,127252,1,0,0:0:0:0:
402,192,127330,1,0,0:0:0:0:
256,192,127408,128,0,127565:0:0:0:0:
36,192,127565,1,0,0:0:0:70:kick.wav
182,192,127565,1,0,0:0:0:0:
475,192,127721,1,0,0:0:0:0:
329,192,127799,1,0,0:0:0:0:
36,192,127877,1,0,0:0:0:50:snare.wav
109,192,127877,128,0,128190:0:0:0:0:
182,192,127877,1,0,0:0:0:0:
402,192,128033,128,0,128190:0:0:0:0:
182,192,128190,1,0,0:0:0:70:kick.wav
329,192,128190,1,0,0:0:0:0:
182,192,128346,1,0,0:0:0:70:kick.wav
402,192,128346,1,0,0:0:0:0:
256,192,128424,1,0,0:0:0:0:
36,192,128502,128,0,128815:0:0:0:50:snare.wav
109,192,128502,1,0,0:0:0:0:
475,192,128502,1,0,0:0:0:0:
329,192,128658,128,0,128815:0:0:0:0:
109,192,128815,1,0,0:0:0:70:kick.wav
256,192,128815,1,0,0:0:0:0:
36,192,128971,1,0,0:0:0:70:kick.wav
256,192,128971,1,0,0:0:0:0:
109,192,129127,1,0,0:0:0:50:snare.wav
329,192,129127,1,0,0:0:0:0:
402,192,129127,1,0,0:0:0:0:
182,192,129283,1,0,0:0:0:0:
329,192,129361,1,0,0:0:0:50:snare.wav
475,192,129361,1,0,0:0:0:0:
182,192,129440,1,0,0:0:0:50:impact.wav
256,192,129596,128,0,129908:0:0:0:70:kick.wav
475,192,129596,1,0,0:0:0:0:
329,192,129908,1,0,0:0:0:70:kick.wav
402,192,129908,1,0,0:0:0:0:
182,192,129986,1,0,0:0:0:70:kick.wav
36,192,130065,1,0,0:0:0:70:kick.wav
329,192,130065,1,0,0:0:0:50:crash.wav
475,192,130065,1,0,0:0:0:0:
109,192,130143,1,0,0:0:0:0:
182,192,130221,1,0,0:0:0:0:
256,192,130299,1,0,0:0:0:0:
36,192,130377,128,0,130690:0:0:0:50:snare.wav
329,192,130377,1,0,0:0:0:0:
402,192,130377,1,0,0:0:0:0:
256,192,130533,128,0,130690:0:0:0:0:
109,192,130690,1,0,0:0:0:70:kick.wav
402,192,130690,1,0,0:0:0:0:
182,192,130768,1,0,0:0:0:0:
256,192,130846,1,0,0:0:0:0:
329,192,130924,1,0,0:0:0:0:
109,192,131002,128,0,131315:0:0:0:50:snare.wav
402,192,131002,1,0,0:0:0:0:
475,192,131002,1,0,0:0:0:0:
329,192,131158,128,0,131315:0:0:0:0:
182,192,131315,1,0,0:0:0:70:kick.wav
475,192,131315,1,0,0:0:0:0:
256,192,131393,1,0,0:0:0:0:
329,192,131471,1,0,0:0:0:0:
402,192,131549,1,0,0:0:0:0:
109,192,131627,1,0,0:0:0:50:snare.wav
182,192,131627,128,0,131940:0:0:0:0:
475,192,131627,1,0,0:0:0:0:
402,192,131783,128,0,131940:0:0:0:0:
36,192,131940,1,0,0:0:0:70:kick.wav
329,192,131940,1,0,0:0:0:0:
109,192,132018,1,0,0:0:0:0:
182,192,132096,1,0,0:0:0:0:
256,192,132174,1,0,0:0:0:0:
109,192,132252,1,0,0:0:0:50:snare.wav
36,192,132252,1,0,0:0:0:0:
402,192,132252,1,0,0:0:0:0:
329,192,132330,1,0,0:0:0:0:
402,192,132408,1,0,0:0:0:0:
475,192,132486,1,0,0:0:0:0:
36,192,132565,128,0,133033:0:0:0:70:kick.wav
329,192,132565,1,0,0:0:0:0:
109,192,132643,1,0,0:0:0:0:
256,192,132721,1,0,0:0:0:0:
402,192,132799,1,0,0:0:0:0:
109,192,132877,1,0,0:0:0:50:snare.wav
182,192,132877,1,0,0:0:0:0:
475,192,132877,1,0,0:0:0:0:
256,192,133033,128,0,133190:0:0:0:0:
36,192,133190,1,0,0:0:0:70:kick.wav
329,192,133190,1,0,0:0:0:0:
475,192,133190,128,0,133658:0:0:0:0:
36,192,133346,1,0,0:0:0:70:kick.wav
329,192,133346,1,0,0:0:0:0:
109,192,133502,1,0,0:0:0:50:snare.wav
182,192,133502,1,0,0:0:0:0:
402,192,133502,1,0,0:0:0:0:
256,192,133658,128,0,133815:0:0:0:0:
182,192,133815,1,0,0:0:0:70:kick.wav
475,192,133815,1,0,0:0:0:0:
329,192,133971,1,0,0:0:0:70:kick.wav
109,192,134049,1,0,0:0:0:0:
256,192,134127,1,0,0:0:0:50:snare.wav
402,192,134127,1,0,0:0:0:0:
475,192,134127,1,0,0:0:0:0:
36,192,134283,1,0,0:0:0:0:
329,192,134361,1,0,0:0:0:50:snare.wav
475,192,134361,1,0,0:0:0:0:
109,192,134440,1,0,0:0:0:0:
36,192,134596,1,0,0:0:0:70:kick.wav
109,192,134596,1,0,0:0:0:0:
256,192,134752,1,0,0:0:0:50:snare.wav
402,192,134752,1,0,0:0:0:0:
475,192,134752,1,0,0:0:0:0:
109,192,134908,1,0,0:0:0:70:kick.wav
402,192,134986,1,0,0:0:0:70:kick.wav
182,192,135065,1,0,0:0:0:70:kick.wav
256,192,135065,1,0,0:0:0:50:crash.wav
36,192,135065,1,0,0:0:0:0:
182,192,135221,1,0,0:0:0:70:kick.wav
36,192,135377,1,0,0:0:0:70:kick.wav
402,192,135377,1,0,0:0:0:50:snare.wav
475,192,135377,1,0,0:0:0:0:
182,192,135533,1,0,0:0:0:70:kick.wav
109,192,135690,1,0,0:0:0:70:kick.wav
329,192,135690,1,0,0:0:0:0:
329,192,135846,1,0,0:0:0:70:kick.wav
36,192,136002,1,0,0:0:0:70:kick.wav
109,192,136002,1,0,0:0:0:50:snare.wav
475,192,136002,1,0,0:0:0:0:
329,192,136158,1,0,0:0:0:70:kick.wav
109,192,136315,1,0,0:0:0:70:kick.wav
182,192,136315,1,0,0:0:0:0:
256,192,136315,1,0,0:0:0:0:
109,192,136471,1,0,0:0:0:70:kick.wav
36,192,136627,1,0,0:0:0:70:kick.wav
329,192,136627,1,0,0:0:0:50:snare.wav
402,192,136627,1,0,0:0:0:0:
109,192,136783,1,0,0:0:0:70:kick.wav
182,192,136940,1,0,0:0:0:70:kick.wav
402,192,136940,1,0,0:0:0:0:
402,192,137096,1,0,0:0:0:70:kick.wav
109,192,137252,1,0,0:0:0:70:kick.wav
182,192,137252,1,0,0:0:0:50:snare.wav
475,192,137252,1,0,0:0:0:0:
402,192,137408,1,0,0:0:0:70:kick.wav
109,192,137565,1,0,0:0:0:50:snare.wav
256,192,137565,1,0,0:0:0:0:
109,192,137721,1,0,0:0:0:50:snare.wav
256,192,137721,1,0,0:0:0:0:
329,192,137877,1,0,0:0:0:50:snare.wav
475,192,137877,1,0,0:0:0:0:
329,192,138033,1,0,0:0:0:50:snare.wav
475,192,138033,1,0,0:0:0:0:
36,192,138190,1,0,0:0:0:50:snare.wav
182,192,138190,1,0,0:0:0:0:
36,192,138346,1,0,0:0:0:50:snare.wav
182,192,138346,1,0,0:0:0:0:
256,192,138502,1,0,0:0:0:50:snare.wav
402,192,138502,1,0,0:0:0:0:
256,192,138658,1,0,0:0:0:50:snare.wav
402,192,138658,1,0,0:0:0:0:
36,192,138815,1,0,0:0:0:50:snare2.wav
475,192,138893,1,0,0:0:0:50:snare2.wav
182,192,138971,1,0,0:0:0:50:snare2.wav
329,192,139049,1,0,0:0:0:50:snare2.wav
36,192,139127,1,0,0:0:0:50:snare2.wav
475,192,139205,1,0,0:0:0:50:snare2.wav
182,192,139283,1,0,0:0:0:50:snare2.wav
329,192,139361,1,0,0:0:0:50:snare2.wav
36,192,139440,1,0,0:0:0:50:kick.wav
329,192,139518,1,0,0:0:0:50:kick.wav
109,192,139596,1,0,0:0:0:50:kick.wav
402,192,139674,1,0,0:0:0:50:kick.wav
109,192,139752,1,0,0:0:0:50:kick.wav
402,192,139830,1,0,0:0:0:50:kick.wav
182,192,139908,1,0,0:0:0:50:kick.wav
475,192,139986,1,0,0:0:0:50:kick.wav
256,192,140065,1,0,0:0:0:0:
