osu file format v14

[General]
AudioFilename: RIP.mp3
AudioLeadIn: 0
PreviewTime: 20160
Countdown: 0
SampleSet: Soft
StackLeniency: 0.7
Mode: 3
LetterboxInBreaks: 0
EpilepsyWarning: 1
SpecialStyle: 0
WidescreenStoryboard: 1

[Editor]
DistanceSpacing: 1
BeatDivisor: 4
GridSize: 4
TimelineZoom: 1.6

[Metadata]
Title:R.I.P.
TitleUnicode:R.I.P.
Artist:eicateve
ArtistUnicode:eicateve
Creator:Kuo Kyoka
Version:Beginner
Source:
Tags:RIP BMS Rest in Peace G2R2018 -GO BACK 2 YOUR ROOTS 2018 climax- 旅立った彼女へ Her requiem えいか eicaTV シ 死 hrchem TOHRU MiTSUHASHi Critical_Star ExPew Dellvangel Amaryllis Akasha
BeatmapID:2205781
BeatmapSetID:1055604

[Difficulty]
HPDrainRate:7
CircleSize:7
OverallDifficulty:6.5
ApproachRate:5
SliderMultiplier:1.4
SliderTickRate:1

[Events]
//Background and Video events
0,0,"BG.jpg",0,0
Video,175,"optc.flv"
//Break Periods
//Storyboard Layer 0 (Background)
//Storyboard Layer 1 (Fail)
//Storyboard Layer 2 (Pass)
//Storyboard Layer 3 (Foreground)
//Storyboard Layer 4 (Overlay)
//Storyboard Sound Samples

[TimingPoints]
160,312.5,4,2,1,50,1,0
20160,-100,4,2,1,55,0,1
40160,-100,4,2,1,55,0,0
60160,-100,4,2,1,40,0,0
70160,-100,4,2,1,50,0,0
80160,-100,4,2,1,45,0,0
82660,-100,4,2,1,40,0,0
85160,-100,4,2,1,35,0,0
87660,-100,4,2,1,30,0,0
95160,-100,4,2,1,70,0,0
99535,-100,4,2,1,40,0,0
100160,-100,4,2,1,50,0,0
120160,-100,4,2,1,55,0,1
140160,-100,4,2,1,50,0,0

[HitObjects]
109,192,160,128,4,2660:0:0:0:0:
402,192,160,1,0,0:0:0:0:
256,192,2660,128,0,5160:0:0:0:0:
402,192,5160,128,0,7660:0:0:0:0:
36,192,7660,128,0,10160:0:0:0:0:
182,192,8910,128,0,10160:0:0:0:0:
475,192,10160,128,4,12347:0:0:0:0:
329,192,10160,1,2,0:0:0:0:
402,192,12660,128,2,14535:0:0:0:0:
109,192,14847,128,0,15003:0:0:0:0:
329,192,15160,128,2,17660:0:0:0:0:
36,192,17660,1,8,0:0:0:0:
182,192,17972,1,8,0:0:0:0:
329,192,18285,1,8,0:0:0:0:
475,192,18597,1,8,0:0:0:0:
256,192,18910,128,8,19535:0:0:0:0:
109,192,19535,128,8,20160:0:0:0:0:
402,192,19847,128,8,20160:0:0:0:0:
182,192,20160,1,2,0:0:0:0:
329,192,20160,1,4,0:0:0:0:
256,192,20316,1,0,0:0:0:0:
36,192,20628,1,0,0:0:0:0:
256,192,20941,1,0,0:0:0:0:
36,192,21253,1,0,0:0:0:0:
256,192,21566,1,0,0:0:0:0:
36,192,21878,1,0,0:0:0:0:
475,192,22035,1,0,0:0:0:0:
109,192,22191,1,2,0:0:0:0:
402,192,22347,1,8,0:0:0:0:
182,192,22503,1,0,0:0:0:0:
329,192,22660,1,2,0:0:0:0:
475,192,22816,1,0,0:0:0:0:
36,192,23128,1,0,0:0:0:0:
475,192,23441,1,0,0:0:0:0:
36,192,23753,1,0,0:0:0:0:
475,192,24066,1,0,0:0:0:0:
36,192,24378,1,0,0:0:0:0:
182,192,24535,1,0,0:0:0:0:
329,192,24691,1,2,0:0:0:0:
109,192,24847,1,8,0:0:0:0:
256,192,25003,1,2,0:0:0:0:
402,192,25160,1,2,0:0:0:0:
109,192,25316,1,0,0:0:0:0:
402,192,25628,1,0,0:0:0:0:
109,192,25941,1,0,0:0:0:0:
402,192,26253,1,0,0:0:0:0:
109,192,26566,1,0,0:0:0:0:
402,192,26878,1,0,0:0:0:0:
256,192,27035,1,0,0:0:0:0:
109,192,27191,1,2,0:0:0:0:
329,192,27347,1,8,0:0:0:0:
182,192,27503,1,0,0:0:0:0:
36,192,27660,1,2,0:0:0:0:
256,192,27816,1,0,0:0:0:0:
256,192,28128,1,0,0:0:0:0:
256,192,28441,1,0,0:0:0:0:
256,192,28753,1,0,0:0:0:0:
475,192,28910,128,0,29222:0:0:0:55:Impact.wav
36,192,29222,128,0,29535:0:0:0:55:Impact.wav
475,192,29535,128,0,29847:0:0:0:55:Impact.wav
36,192,29847,128,0,30160:0:0:0:55:Impact.wav
256,192,30160,1,6,0:0:0:0:
475,192,30316,1,0,0:0:0:0:
182,192,30628,1,0,0:0:0:0:
475,192,30941,1,0,0:0:0:0:
182,192,31253,1,0,0:0:0:0:
475,192,31566,1,0,0:0:0:0:
182,192,31878,1,0,0:0:0:0:
329,192,32035,1,0,0:0:0:0:
109,192,32191,1,2,0:0:0:0:
402,192,32347,1,8,0:0:0:0:
36,192,32503,1,0,0:0:0:0:
475,192,32660,1,2,0:0:0:0:
182,192,32816,1,0,0:0:0:0:
329,192,33128,1,0,0:0:0:0:
182,192,33441,1,0,0:0:0:0:
329,192,33753,1,0,0:0:0:0:
182,192,34066,1,0,0:0:0:0:
329,192,34378,1,0,0:0:0:0:
36,192,34535,1,0,0:0:0:55:Impact.wav
402,192,34691,1,0,0:0:0:55:Impact.wav
109,192,34847,1,8,0:0:0:0:
475,192,35003,1,0,0:0:0:55:Impact.wav
182,192,35160,1,6,0:0:0:0:
329,192,35316,1,0,0:0:0:0:
36,192,35628,1,0,0:0:0:0:
329,192,35941,1,0,0:0:0:0:
36,192,36253,1,0,0:0:0:0:
329,192,36566,1,0,0:0:0:0:
36,192,36878,1,0,0:0:0:0:
109,192,37035,1,0,0:0:0:0:
182,192,37191,1,2,0:0:0:0:
475,192,37347,1,8,0:0:0:0:
402,192,37503,1,0,0:0:0:0:
329,192,37660,1,2,0:0:0:0:
256,192,37816,1,0,0:0:0:0:
256,192,38128,1,0,0:0:0:0:
256,192,38441,1,0,0:0:0:0:
256,192,38753,1,0,0:0:0:0:
182,192,38910,128,0,39222:0:0:0:55:Impact.wav
36,192,39222,128,0,39535:0:0:0:55:Impact.wav
475,192,39535,128,0,39847:0:0:0:55:Impact.wav
329,192,39847,128,0,40160:0:0:0:55:Impact.wav
256,192,40160,1,4,0:0:0:0:
109,192,40160,1,2,0:0:0:0:
109,192,40316,1,2,0:0:0:0:
475,192,40628,1,8,0:0:0:0:
475,192,40785,1,8,0:0:0:0:
36,192,41097,1,2,0:0:0:0:
36,192,41253,128,2,41878:0:0:0:0:
402,192,41878,1,8,0:0:0:0:
402,192,42035,1,8,0:0:0:0:
256,192,42347,1,2,0:0:0:0:
109,192,42660,1,2,0:0:0:0:
109,192,42816,1,2,0:0:0:0:
475,192,43128,1,8,0:0:0:0:
36,192,43597,1,2,0:0:0:0:
36,192,43753,128,2,44378:0:0:0:0:
182,192,44378,1,2,0:0:0:0:
329,192,44535,1,8,0:0:0:0:
109,192,44691,1,2,0:0:0:0:
402,192,44847,1,8,0:0:0:0:
36,192,45003,1,2,0:0:0:0:
475,192,45160,1,6,0:0:0:0:
475,192,45316,1,2,0:0:0:0:
109,192,45628,1,8,0:0:0:0:
109,192,45785,1,8,0:0:0:0:
402,192,46097,1,2,0:0:0:0:
402,192,46253,128,2,46878:0:0:0:0:
36,192,46878,1,8,0:0:0:0:
36,192,47035,1,8,0:0:0:0:
182,192,47347,1,2,0:0:0:0:
329,192,47660,1,2,0:0:0:0:
329,192,47816,1,2,0:0:0:0:
109,192,48128,1,8,0:0:0:0:
256,192,48597,1,2,0:0:0:0:
256,192,48753,1,2,0:0:0:0:
402,192,48910,128,2,50160:0:0:0:0:
475,192,49535,128,2,50160:0:0:0:0:
109,192,50160,1,2,0:0:0:0:
256,192,50160,1,4,0:0:0:0:
109,192,50316,1,2,0:0:0:0:
475,192,50628,1,8,0:0:0:0:
475,192,50785,1,8,0:0:0:0:
36,192,51097,1,2,0:0:0:0:
36,192,51253,128,2,51878:0:0:0:0:
402,192,51878,1,8,0:0:0:0:
402,192,52035,1,8,0:0:0:0:
256,192,52347,1,2,0:0:0:0:
109,192,52660,1,2,0:0:0:0:
109,192,52816,1,2,0:0:0:0:
475,192,53128,1,8,0:0:0:0:
36,192,53597,1,2,0:0:0:0:
36,192,53753,128,2,54378:0:0:0:0:
329,192,54378,1,2,0:0:0:0:
182,192,54535,1,8,0:0:0:0:
402,192,54691,1,2,0:0:0:0:
109,192,54847,1,8,0:0:0:0:
475,192,55003,1,8,0:0:0:0:
36,192,55160,1,6,0:0:0:0:
36,192,55316,1,2,0:0:0:0:
402,192,55628,1,8,0:0:0:0:
402,192,55785,1,8,0:0:0:0:
109,192,56097,1,2,0:0:0:0:
109,192,56253,128,2,56878:0:0:0:0:
475,192,56878,1,8,0:0:0:0:
475,192,57035,1,8,0:0:0:0:
329,192,57347,1,2,0:0:0:0:
182,192,57660,1,2,0:0:0:0:
182,192,57816,1,2,0:0:0:0:
402,192,58128,1,8,0:0:0:0:
256,192,58597,1,2,0:0:0:0:
256,192,58753,1,2,0:0:0:0:
109,192,58910,128,0,60160:0:0:0:0:
402,192,59535,128,2,60160:0:0:0:0:
256,192,60160,1,4,0:0:0:0:
256,192,61410,1,0,0:0:0:0:
256,192,62660,1,0,0:0:0:0:
256,192,63910,1,0,0:0:0:0:
256,192,65160,1,0,0:0:0:0:
256,192,66410,1,0,0:0:0:0:
256,192,67660,1,0,0:0:0:0:
256,192,68910,1,0,0:0:0:0:
256,192,70160,1,4,0:0:0:0:
475,192,70160,1,0,0:0:0:0:
402,192,70472,1,0,0:0:0:0:
329,192,70785,1,0,0:0:0:0:
475,192,71097,1,0,0:0:0:0:
402,192,71410,1,0,0:0:0:0:
329,192,71722,1,0,0:0:0:0:
475,192,72035,1,0,0:0:0:0:
402,192,72347,1,0,0:0:0:0:
329,192,72660,1,0,0:0:0:0:
109,192,72660,1,0,0:0:0:0:
182,192,72972,1,0,0:0:0:0:
256,192,73285,1,0,0:0:0:0:
109,192,73597,1,0,0:0:0:0:
182,192,73910,1,0,0:0:0:0:
256,192,74222,1,0,0:0:0:0:
109,192,74535,1,0,0:0:0:0:
182,192,74847,1,0,0:0:0:0:
256,192,75160,1,0,0:0:0:0:
475,192,75160,1,0,0:0:0:0:
329,192,75472,1,0,0:0:0:0:
402,192,75785,1,0,0:0:0:0:
256,192,76097,1,0,0:0:0:0:
329,192,76410,1,0,0:0:0:0:
402,192,76722,1,0,0:0:0:0:
256,192,77035,1,0,0:0:0:0:
329,192,77347,1,0,0:0:0:0:
402,192,77660,1,0,0:0:0:0:
182,192,77660,1,0,0:0:0:0:
109,192,77972,1,0,0:0:0:0:
36,192,78285,1,0,0:0:0:0:
182,192,78597,1,0,0:0:0:0:
109,192,78910,1,0,0:0:0:0:
36,192,79222,1,0,0:0:0:0:
182,192,79535,1,0,0:0:0:0:
109,192,79847,1,0,0:0:0:0:
36,192,80160,1,0,0:0:0:0:
475,192,80160,1,0,0:0:0:0:
256,192,80472,1,0,0:0:0:0:
475,192,80785,1,0,0:0:0:0:
256,192,81097,1,0,0:0:0:0:
475,192,81410,1,0,0:0:0:0:
256,192,81722,1,0,0:0:0:0:
475,192,82035,1,0,0:0:0:0:
256,192,82347,1,0,0:0:0:0:
402,192,82660,1,0,0:0:0:0:
182,192,82972,1,0,0:0:0:0:
402,192,83285,1,0,0:0:0:0:
182,192,83597,1,0,0:0:0:0:
402,192,83910,1,0,0:0:0:0:
182,192,84222,1,0,0:0:0:0:
402,192,84535,1,0,0:0:0:0:
182,192,84847,1,0,0:0:0:0:
329,192,85160,1,0,0:0:0:0:
109,192,85472,1,0,0:0:0:0:
329,192,85785,1,0,0:0:0:0:
109,192,86097,1,0,0:0:0:0:
329,192,86410,1,0,0:0:0:0:
109,192,86722,1,0,0:0:0:0:
329,192,87035,1,0,0:0:0:0:
109,192,87347,1,0,0:0:0:0:
256,192,87660,1,0,0:0:0:0:
36,192,87972,1,0,0:0:0:0:
256,192,88285,1,0,0:0:0:0:
36,192,88597,1,0,0:0:0:0:
36,192,88962,128,0,95160:0:0:0:0:
475,192,93285,128,0,95160:0:0:0:0:
256,192,95160,1,0,0:0:0:0:
329,192,99535,1,0,0:0:0:0:
402,192,99847,1,0,0:0:0:0:
475,192,100160,1,4,0:0:0:0:
36,192,100160,1,0,0:0:0:50:Kick.wav
182,192,101097,1,0,0:0:0:0:
182,192,101253,1,0,0:0:0:0:
109,192,102035,1,0,0:0:0:0:
109,192,102347,1,0,0:0:0:0:
256,192,102503,1,0,0:0:0:0:
402,192,102660,1,0,0:0:0:0:
329,192,103285,1,0,0:0:0:0:
329,192,103441,1,0,0:0:0:0:
475,192,103910,1,0,0:0:0:0:
402,192,104378,1,0,0:0:0:0:
36,192,104691,1,0,0:0:0:0:
329,192,104847,1,0,0:0:0:0:
182,192,105160,1,0,0:0:0:0:
475,192,106410,1,0,0:0:0:0:
402,192,106878,1,0,0:0:0:0:
329,192,107347,1,0,0:0:0:0:
182,192,107660,1,0,0:0:0:0:
109,192,108128,1,0,0:0:0:0:
36,192,108597,1,0,0:0:0:0:
182,192,109535,1,0,0:0:0:0:
329,192,109691,1,0,0:0:0:0:
256,192,110160,1,0,0:0:0:50:Kick.wav
36,192,110160,1,4,0:0:0:0:
256,192,111097,1,0,0:0:0:0:
256,192,111253,1,0,0:0:0:0:
329,192,111722,1,0,0:0:0:0:
402,192,112191,1,0,0:0:0:0:
475,192,112660,1,0,0:0:0:0:
329,192,113910,1,0,0:0:0:0:
329,192,114066,1,0,0:0:0:0:
402,192,114378,1,0,0:0:0:0:
109,192,114691,1,0,0:0:0:0:
182,192,115003,1,0,0:0:0:0:
182,192,115160,1,0,0:0:0:0:
475,192,115628,1,0,0:0:0:0:
36,192,116097,1,0,0:0:0:0:
256,192,117347,5,0,0:0:0:0:
256,192,117660,5,8,0:0:0:0:
109,192,117816,1,8,0:0:0:0:
402,192,117972,1,8,0:0:0:0:
182,192,118128,1,8,0:0:0:0:
329,192,118285,1,8,0:0:0:0:
109,192,118441,1,8,0:0:0:0:
402,192,118597,1,8,0:0:0:0:
182,192,118753,1,8,0:0:0:0:
329,192,118910,1,8,0:0:0:0:
182,192,119066,1,8,0:0:0:0:
329,192,119222,1,8,0:0:0:0:
182,192,119378,1,8,0:0:0:0:
36,192,119535,128,8,119847:0:0:0:0:
475,192,119535,128,0,119847:0:0:0:0:
256,192,119847,128,8,120160:0:0:0:0:
402,192,120160,1,4,0:0:0:0:
109,192,120160,1,2,0:0:0:0:
329,192,120472,1,8,0:0:0:0:
475,192,120472,1,0,0:0:0:0:
402,192,120785,1,2,0:0:0:0:
329,192,121097,1,8,0:0:0:0:
475,192,121097,1,0,0:0:0:0:
182,192,121410,1,2,0:0:0:0:
256,192,121722,1,8,0:0:0:0:
109,192,121722,1,0,0:0:0:0:
182,192,122035,1,2,0:0:0:0:
256,192,122347,1,8,0:0:0:0:
109,192,122347,1,0,0:0:0:0:
475,192,122503,1,0,0:0:0:0:
329,192,122660,1,2,0:0:0:0:
256,192,122972,1,8,0:0:0:0:
402,192,122972,1,0,0:0:0:0:
329,192,123285,1,2,0:0:0:0:
256,192,123597,1,8,0:0:0:0:
402,192,123597,1,0,0:0:0:0:
36,192,123910,128,0,124222:0:0:0:0:
182,192,123910,128,0,124222:0:0:0:0:
109,192,124378,128,0,124691:0:0:0:0:
256,192,124378,128,0,124691:0:0:0:0:
475,192,124691,1,2,0:0:0:0:
182,192,124847,128,8,125160:0:0:0:0:
329,192,124847,128,0,125160:0:0:0:0:
109,192,125160,1,2,0:0:0:0:
182,192,125472,1,8,0:0:0:0:
36,192,125472,1,0,0:0:0:0:
109,192,125785,1,2,0:0:0:0:
36,192,126097,1,8,0:0:0:0:
182,192,126097,1,0,0:0:0:0:
256,192,126410,128,0,126722:0:0:0:0:
402,192,126410,128,0,126722:0:0:0:0:
329,192,126878,128,0,127191:0:0:0:0:
182,192,126878,128,0,127191:0:0:0:0:
256,192,127347,128,0,127660:0:0:0:0:
109,192,127347,128,0,127660:0:0:0:0:
329,192,127660,128,0,127972:0:0:0:0:
475,192,127660,128,0,127972:0:0:0:0:
329,192,128128,128,0,128441:0:0:0:0:
182,192,128128,128,0,128441:0:0:0:0:
182,192,128597,128,0,128910:0:0:0:0:
36,192,128597,128,0,128910:0:0:0:0:
475,192,128910,1,2,0:0:0:0:
256,192,129222,1,8,0:0:0:0:
402,192,129222,1,0,0:0:0:0:
36,192,129535,128,0,130160:0:0:0:0:
475,192,129535,1,2,0:0:0:0:
182,192,129691,128,2,130160:0:0:0:0:
475,192,130160,1,2,0:0:0:0:
329,192,130160,1,4,0:0:0:0:
109,192,130316,1,0,0:0:0:0:
256,192,130472,1,8,0:0:0:0:
402,192,130628,1,0,0:0:0:0:
109,192,130941,1,0,0:0:0:0:
256,192,131097,1,8,0:0:0:0:
402,192,131253,1,0,0:0:0:0:
109,192,131566,1,0,0:0:0:0:
256,192,131722,1,8,0:0:0:0:
402,192,131878,1,0,0:0:0:0:
182,192,132035,128,2,132660:0:0:0:0:
329,192,132347,128,8,132660:0:0:0:0:
402,192,132816,1,0,0:0:0:0:
256,192,132972,1,8,0:0:0:0:
109,192,133128,1,0,0:0:0:0:
402,192,133441,1,2,0:0:0:0:
256,192,133597,1,8,0:0:0:0:
109,192,133753,1,0,0:0:0:0:
36,192,134066,1,2,0:0:0:0:
182,192,134222,1,8,0:0:0:0:
329,192,134378,1,0,0:0:0:0:
182,192,134691,1,2,0:0:0:0:
329,192,134847,1,8,0:0:0:0:
475,192,135003,1,2,0:0:0:0:
36,192,135160,128,2,135472:0:0:0:0:
182,192,135160,128,4,135472:0:0:0:0:
109,192,135628,128,2,135941:0:0:0:0:
256,192,135628,128,0,135941:0:0:0:0:
182,192,136097,128,8,136410:0:0:0:0:
329,192,136097,128,0,136410:0:0:0:0:
36,192,136410,1,2,0:0:0:0:
475,192,136410,1,4,0:0:0:0:
329,192,137347,1,8,0:0:0:0:
475,192,137347,1,0,0:0:0:0:
329,192,137660,128,4,137972:0:0:0:0:
475,192,137660,128,8,137972:0:0:0:0:
256,192,138128,128,8,138441:0:0:0:0:
402,192,138128,128,0,138441:0:0:0:0:
329,192,138597,128,8,138910:0:0:0:0:
182,192,138597,128,0,138910:0:0:0:0:
36,192,138910,128,8,140160:0:0:0:0:
475,192,139535,128,8,140160:0:0:0:0:
