osu file format v14

[General]
AudioFilename: audio.mp3
AudioLeadIn: 0
PreviewTime: 97174
Countdown: 0
SampleSet: Soft
StackLeniency: 0.2
Mode: 0
LetterboxInBreaks: 0
EpilepsyWarning: 1
WidescreenStoryboard: 1

[Editor]
Bookmarks: 21075,38653,70060,80060,88810,95060,99435,109435,120060
DistanceSpacing: 0.4
BeatDivisor: 12
GridSize: 4
TimelineZoom: 4.399998

[Metadata]
Title:R.I.P.
TitleUnicode:R.I.P.
Artist:eicateve
ArtistUnicode:eicateve
Creator:Firika
Version:Rosta's Extra
Source:CHUNITHM CRYSTAL
Tags:BMS RIP Rest in Peace G2R2018 -GO BACK 2 YOUR ROOTS 2018 climax- 旅立った彼女へ Her requiem えいか eicaTV シ 死 hrchem TOHRU MiTSUHASHi SEGA Quantum Rosta Necho sudaasd Reincarnation
BeatmapID:2311019
BeatmapSetID:1103441

[Difficulty]
HPDrainRate:5
CircleSize:5
OverallDifficulty:8
ApproachRate:9
SliderMultiplier:1.6
SliderTickRate:1

[Events]
//Background and Video events
0,0,"333321.jpg",0,0
Video,-42,"optc.flv"
//Break Periods
2,96236,98833
//Storyboard Layer 0 (Background)
//Storyboard Layer 1 (Fail)
//Storyboard Layer 2 (Pass)
//Storyboard Layer 3 (Foreground)
//Storyboard Layer 4 (Overlay)
//Storyboard Sound Samples
Sample,88854,0,"stopped.mp3",40
Sample,95690,0,"FriendLeft.wav",100

[TimingPoints]
58,312.5,4,2,2,60,1,0
58,-125,4,2,2,60,0,0
8556,-125,4,2,2,60,0,0
8651,-125,4,2,2,60,0,0
10058,-83.3333333333333,4,2,2,60,0,0
17870,-41.6666666666667,4,2,2,60,0,0
18183,-83.3333333333333,4,2,2,60,0,0
20058,-66.6666666666667,4,2,2,70,0,0
21933,-133.333333333333,4,2,2,70,0,0
22558,-66.6666666666667,4,2,2,70,0,0
23808,-133.333333333333,4,2,2,70,0,0
24120,-66.6666666666667,4,2,2,70,0,0
28104,-100,4,2,2,70,0,0
30058,-66.6666666666667,4,2,2,80,0,0
30995,-133.333333333333,4,2,2,80,0,0
31620,-66.6666666666667,4,2,2,80,0,0
33808,-133.333333333333,4,2,2,80,0,0
34120,-41.6666666666667,4,2,2,80,0,0
34433,-100,4,2,2,80,0,0
34589,-41.6666666666667,4,2,2,80,0,0
34745,-66.6666666666667,4,2,2,80,0,0
37870,-100,4,2,2,80,0,0
40058,-83.3333333333333,4,2,2,80,0,1
40683,-200,4,2,2,80,0,1
40995,-83.3333333333333,4,2,2,80,0,1
42870,-200,4,2,2,80,0,1
43495,-100,4,2,2,80,0,1
43808,-100,4,2,2,80,0,1
44433,-100,4,2,2,80,0,1
44745,-83.3333333333333,4,2,2,80,0,1
45058,-66.6666666666667,4,2,2,80,0,1
45526,-100,4,2,2,80,0,1
45683,-200,4,2,2,80,0,1
45995,-100,4,2,2,80,0,1
46776,-66.6666666666667,4,2,2,80,0,1
48183,-100,4,2,2,80,0,1
50058,-100,4,2,2,90,0,1
50683,-200,4,2,2,90,0,1
50995,-100,4,2,2,90,0,1
53495,-66.6666666666667,4,2,2,90,0,1
54276,-100,4,2,2,90,0,1
56933,-66.6666666666667,4,2,2,90,0,1
57245,-100,4,2,2,90,0,1
58495,-66.6666666666667,4,2,2,90,0,1
59433,-100,4,2,2,90,0,1
60058,-200,4,2,3,50,0,0
61308,-166.666666666667,4,2,3,50,0,0
70058,-100,4,2,3,60,0,0
80058,-83.3333333333333,4,2,3,50,0,0
80266,-83.3333333333333,4,2,3,5,0,0
81412,-83.3333333333333,4,2,3,50,0,0
81542,-83.3333333333333,4,2,3,5,0,0
82818,-83.3333333333333,4,2,3,50,0,0
82948,-83.3333333333333,4,2,3,5,0,0
84120,-83.3333333333333,4,2,3,50,0,0
84250,-83.3333333333333,4,2,3,5,0,0
85526,-83.3333333333333,4,2,3,50,0,0
85656,-83.3333333333333,4,2,3,5,0,0
86880,-83.3333333333333,4,2,3,50,0,0
87011,-83.3333333333333,4,2,3,5,0,0
88365,-83.3333333333333,4,2,3,50,0,0
88495,-83.3333333333333,4,2,3,5,0,0
88808,-416.666666666667,4,2,3,50,0,0
94979,-416.666666666667,4,2,3,5,0,0
95058,-50,4,2,2,60,0,0
95136,-100,4,2,2,5,0,0
99433,-100,4,2,5,60,0,0
100058,-100,4,2,5,70,0,0
110058,-100,4,2,5,80,0,0
117558,-100,4,2,2,80,0,0
119433,-83.3333333333333,4,2,2,80,0,0
120058,-66.6666666666667,4,2,2,80,0,0
124120,-100,4,2,2,80,0,0
124745,-66.6666666666667,4,2,2,80,0,0
130058,-66.6666666666667,4,2,2,90,0,0
139433,-100,4,2,2,90,0,0
140058,-526.315789473684,4,2,2,60,0,0
140683,-526.315789473684,4,2,2,5,0,0

[Colours]
Combo1 : 64,255,112
Combo2 : 212,212,212
Combo3 : 106,106,106
Combo4 : 255,64,69
Combo5 : 64,112,255
Combo6 : 255,207,64
SliderTrackOverride : 0,0,0

[HitObjects]
257,190,58,5,2,3:2:0:0:
424,72,214,6,0,B|432:88|432:88|424:140,1,64,2|0,0:0|0:0,0:0:0:0:
364,172,526,1,2,3:2:0:0:
316,104,683,70,0,L|308:20,1,64,2|2,0:0|0:0,0:0:0:0:
316,32,995,2,0,L|252:25,1,64,2|2,3:2|0:0,0:0:0:0:
160,84,1308,6,0,L|92:92,1,64,2|2,0:0|3:2,0:0:0:0:
40,52,1620,69,2,0:0:0:0:
36,48,1776,1,2,0:0:0:0:
92,100,1933,6,0,B|84:116|84:116|92:168,1,64,2|0,3:2|0:0,0:0:0:0:
152,212,2245,2,0,L|145:275,1,64,2|0,3:2|0:0,0:0:0:0:
216,384,2558,70,0,L|208:316,1,64,2|2,3:2|0:0,0:0:0:0:
141,279,2870,5,2,0:0:0:0:
145,275,3026,1,2,3:2:0:0:
260,264,3183,70,0,L|328:272,1,64,2|2,0:0|0:0,0:0:0:0:
372,328,3495,2,0,B|384:315|384:315|435:304,1,64,2|2,3:2|0:0,0:0:0:0:
448,376,3808,6,0,L|436:312,1,64,2|2,0:0|3:2,0:0:0:0:
512,268,4120,69,2,0:0:0:0:
508,264,4276,1,2,0:0:0:0:
440,232,4433,6,0,B|432:215|432:215|440:163,1,64,2|0,3:2|0:0,0:0:0:0:
448,160,4745,2,0,L|452:92,1,64,2|0,3:2|0:0,0:0:0:0:
312,4,5058,70,0,L|315:67,1,64,2|2,3:2|0:0,0:0:0:0:
447,92,5370,5,2,0:0:0:0:
451,96,5526,1,2,3:2:0:0:
320,76,5683,70,0,L|248:68,1,64,2|0,0:0|0:0,0:0:0:0:
200,112,5995,2,0,B|183:120|183:120|131:112,1,64,2|2,3:2|0:0,0:0:0:0:
0,44,6308,5,2,0:0:0:0:
63,20,6464,1,2,3:2:0:0:
51,86,6620,1,2,0:0:0:0:
8,52,6776,69,2,0:0:0:0:
71,28,6932,1,2,3:2:0:0:
59,94,7088,1,0,0:0:0:0:
138,112,7245,6,0,L|145:183,1,64,2|0,3:2|0:0,0:0:0:0:
216,196,7558,70,0,B|224:212|224:212|216:264,1,64,2|2,3:2|0:0,0:0:0:0:
224,264,7870,2,0,L|296:268,1,64,2|2,0:0|3:2,0:0:0:0:
220,384,8183,5,2,0:0:0:0:
104,348,8339,2,0,L|167:341,1,64,2|2,0:0|3:2,0:0:0:0:
0,276,8651,69,2,0:0:0:0:
72,284,8808,6,0,B|64:268|64:268|72:216,1,64,2|0,0:0|3:0,0:0:0:0:
172,140,9120,69,0,0:0:0:0:
216,196,9276,2,0,L|288:200,1,64,2|0,0:0|3:0,0:0:0:0:
392,220,9589,5,0,0:0:0:0:
330,256,9745,2,0,L|339:327,1,64,2|0,0:0|0:0,0:0:0:0:
348,384,10058,70,0,B|360:368|360:368|340:292,1,95.9999970703126,0|0,1:0|0:0,0:0:0:0:
392,220,10370,1,0,0:0:0:0:
464,92,10526,6,0,L|460:192,1,95.9999970703126,0|0,0:0|0:0,0:0:0:0:
456,84,10839,1,0,0:0:0:0:
368,140,10995,70,0,L|272:127,1,95.9999970703126,0|0,0:0|0:0,0:0:0:0:
264,136,11308,5,0,0:0:0:0:
276,60,11464,1,0,0:0:0:0:
200,48,11620,1,0,0:0:0:0:
272,127,11776,69,0,0:0:0:0:
76,0,11933,5,0,1:0:0:0:
0,12,12089,1,0,0:0:0:0:
68,16,12245,70,0,L|60:120,1,95.9999970703126,0|0,0:0|0:0,0:0:0:0:
52,120,12558,6,0,B|40:136|40:136|59:209,1,95.9999970703126,0|0,1:0|0:0,0:0:0:0:
148,192,12870,69,0,0:0:0:0:
152,184,13026,1,0,0:0:0:0:
116,264,13183,6,0,L|108:368,1,95.9999970703126,0|0,0:0|0:0,0:0:0:0:
100,364,13495,2,0,L|45:284,1,95.9999970703126,0|0,0:0|0:0,0:0:0:0:
128,272,13808,70,0,B|144:284|144:284|217:264,1,95.9999970703126,0|0,0:0|0:0,0:0:0:0:
284,224,14120,2,0,L|379:231,1,95.9999970703126,0|0,0:0|0:0,0:0:0:0:
432,288,14433,5,0,1:0:0:0:
404,52,14589,1,0,1:0:0:0:
416,60,14745,70,0,B|480:52|480:52|448:80,1,95.9999970703126,0|0,0:0|0:0,0:0:0:0:
396,128,15058,6,0,L|388:223,1,95.9999970703126,0|0,1:0|0:0,0:0:0:0:
428,296,15370,1,0,0:0:0:0:
464,368,15526,70,0,B|512:356|512:356|504:308,1,95.9999970703126,0|0,0:0|0:0,0:0:0:0:
404,232,15839,1,0,0:0:0:0:
424,308,15995,6,0,L|328:315,1,95.9999970703126,0|0,0:0|0:0,0:0:0:0:
248,360,16308,70,0,L|260:260,1,95.9999970703126,0|0,0:0|0:0,0:0:0:0:
268,256,16620,2,0,L|172:248,1,95.9999970703126,0|0,0:0|0:0,0:0:0:0:
112,28,16933,5,0,1:0:0:0:
20,48,17089,2,0,B|36:60|36:60|112:40,1,95.9999970703126,0|0,0:0|0:0,0:0:0:0:
228,64,17401,69,0,0:0:0:0:
231,52,17558,22,0,L|279:56,1,47.9999985351563,8|0,0:0|0:0,0:0:0:0:
292,36,17714,2,0,L|244:40,1,47.9999985351563,8|0,0:0|0:0,0:0:0:0:
456,127,17870,70,0,L|361:141,1,95.9999970703126,8|0,0:0|0:0,0:0:0:0:
268,136,18026,2,0,L|362:150,1,95.9999970703126,8|0,0:0|0:0,0:0:0:0:
365,146,18183,6,0,L|369:203,1,47.9999985351563,8|0,0:0|0:0,0:0:0:0:
512,213,18339,2,0,L|508:270,1,47.9999985351563,8|0,0:0|0:0,0:0:0:0:
256,384,18495,53,8,0:0:0:0:
260,380,18651,1,8,0:0:0:0:
348,384,18808,21,8,0:0:0:0:
343,357,18886,1,8,0:0:0:0:
331,332,18964,1,8,0:0:0:0:
312,312,19042,1,8,0:0:0:0:
289,298,19120,1,8,0:0:0:0:
262,292,19198,1,8,0:0:0:0:
235,293,19276,1,8,0:0:0:0:
209,303,19354,1,8,0:0:0:0:
136,280,19433,70,0,L|120:240,6,23.9999992675781,8|0|0|0|0|0|0,0:0|0:0|0:0|0:0|0:0|0:0|0:0,0:0:0:0:
156,356,19745,6,0,L|151:376,14,11.9999996337891,8|0|0|0|0|0|0|0|0|0|0|0|0|0|0,0:0|0:0|0:0|0:0|0:0|0:0|0:0|0:0|0:0|0:0|0:0|0:0|0:0|0:0|0:0,0:0:0:0:
184,336,20058,54,0,B|171:267|208:268|200:219,1,120.000004577637,4|2,1:2|0:0,0:0:0:0:
60,168,20370,2,0,B|20:195|20:195|106:180,1,120.000004577637,8|2,0:0|0:0,0:0:0:0:
160,156,20683,21,0,0:0:0:0:
136,0,20839,1,2,1:2:0:0:
204,40,20995,2,0,L|328:52,1,120.000004577637,8|2,0:0|0:0,0:0:0:0:
472,72,21308,70,0,B|467:47|467:47|434:37|434:37|406:58|406:58|410:82,1,120.000004577637,0|2,1:0|0:0,0:0:0:0:
384,192,21620,5,8,0:0:0:0:
480,164,21776,1,2,0:0:0:0:
468,160,21854,1,0,0:0:0:0:
456,156,21933,54,0,L|464:192,1,30.0000011444092,2|2,1:2|0:0,0:0:0:0:
332,128,22089,2,0,L|311:158,1,30.0000011444092,2|2,1:2|0:0,0:0:0:0:
384,192,22245,21,10,0:0:0:0:
376,221,22323,1,2,0:0:0:0:
391,247,22401,1,2,1:2:0:0:
384,280,22479,1,2,0:0:0:0:
400,306,22558,2,0,B|376:322|376:322|268:306,1,120.000004577637,0|2,1:0|0:0,0:0:0:0:
164,340,22870,70,0,L|28:356,1,120.000004577637,8|2,0:0|0:0,0:0:0:0:
256,384,23183,1,0,1:0:0:0:
296,308,23339,1,2,1:2:0:0:
164,232,23495,6,0,B|194:269|194:269|171:184,1,120.000004577637,8|2,0:0|0:0,0:0:0:0:
120,108,23808,54,0,L|116:148,1,30.0000011444092,0|0,1:0|0:0,0:0:0:0:
252,120,23964,2,0,L|248:160,1,30.0000011444092,2|0,1:2|0:0,0:0:0:0:
128,96,24120,22,0,B|72:106|68:67|12:81,1,120.000004577637,8|2,0:0|0:0,0:0:0:0:
0,84,24354,2,0,P|64:60|76:0,1,120.000004577637,8|0,0:0|0:0,0:0:0:0:
76,4,24589,1,2,1:2:0:0:
200,60,24745,69,10,0:0:0:0:
202,48,24823,1,2,0:0:0:0:
211,55,24901,5,2,1:2:0:0:
252,120,24979,1,2,1:2:0:0:
317,79,25058,2,0,P|392:68|416:28,1,120.000004577637,0|2,1:0|0:0,0:0:0:0:
512,56,25370,53,8,0:0:0:0:
414,35,25526,2,0,P|410:99|430:151,1,120.000004577637,2|0,0:0|0:0,0:0:0:0:
331,171,25839,21,2,1:2:0:0:
429,150,25995,2,0,B|448:176|448:176|432:264,1,120.000004577637,8|2,0:0|0:0,0:0:0:0:
456,384,26308,70,0,B|512:364|512:364|488:308,1,120.000004577637,0|2,1:0|0:0,0:0:0:0:
352,256,26620,2,0,L|232:284,1,120.000004577637,8|2,0:0|0:0,0:0:0:0:
180,380,26933,5,2,1:2:0:0:
172,352,27011,1,2,0:0:0:0:
147,335,27089,1,2,1:2:0:0:
116,338,27167,1,2,0:0:0:0:
94,360,27245,2,0,B|83:304|122:300|108:244,1,120.000004577637,10|2,0:0|0:0,0:0:0:0:
156,120,27558,54,0,L|148:0,1,120.000004577637,0|2,1:0|0:0,0:0:0:0:
236,160,27870,1,8,0:0:0:0:
40,80,28026,21,2,1:2:0:0:
36,92,28104,2,0,L|84:84,1,40,8|0,0:0|0:0,0:0:0:0:
44,216,28339,69,10,0:0:0:0:
48,208,28417,1,8,0:0:0:0:
39,203,28495,2,0,L|0:209,1,40,8|0,0:0|0:0,0:0:0:0:
168,124,28651,5,2,1:2:0:0:
160,128,28729,1,0,1:0:0:0:
156,120,28807,54,0,L|164:72,1,40,4|0,1:0|0:0,0:0:0:0:
250,197,28964,22,0,L|232:151,1,40,4|0,1:0|0:0,0:0:0:0:
378,217,29120,54,0,L|340:186,1,40,4|0,1:0|0:0,0:0:0:0:
512,158,29276,22,0,L|464:150,1,40,4|2,1:0|0:0,0:0:0:0:
400,16,29433,54,0,L|408:64,1,40,4|0,1:0|0:0,0:0:0:0:
424,36,29589,2,0,L|416:84,1,40,4|2,1:0|0:0,0:0:0:0:
317,86,29745,21,0,1:0:0:0:
310,84,29823,1,0,1:0:0:0:
310,76,29901,1,0,1:0:0:0:
317,73,29979,1,0,1:0:0:0:
322,80,30058,2,0,B|308:136|347:140|336:196,1,120.000004577637,4|2,1:2|0:0,0:0:0:0:
512,256,30370,69,8,0:0:0:0:
443,167,30526,1,2,0:0:0:0:
347,191,30683,2,0,L|335:319,1,120.000004577637,0|2,0:0|1:2,0:0:0:0:
436,384,30995,6,0,B|440:372|440:372|428:348,1,30.0000011444092,8|0,0:0|0:0,0:0:0:0:
344,320,31151,1,2,0:0:0:0:
472,340,31308,54,0,L|432:346,1,30.0000011444092,0|0,1:0|0:0,0:0:0:0:
335,310,31464,2,0,L|295:316,1,30.0000011444092,2|0,0:0|0:0,0:0:0:0:
220,264,31620,22,0,L|208:388,1,120.000004577637,8|2,0:0|0:0,0:0:0:0:
120,284,31933,69,2,1:2:0:0:
108,273,32011,1,2,0:0:0:0:
96,266,32089,1,2,1:2:0:0:
81,261,32167,1,2,0:0:0:0:
37,281,32245,5,10,0:0:0:0:
67,260,32323,1,2,0:0:0:0:
88,228,32401,1,2,1:2:0:0:
94,192,32479,1,2,0:0:0:0:
86,156,32558,54,0,B|121:129|121:129|39:143,1,120.000004577637,0|2,1:0|0:0,0:0:0:0:
36,16,32870,2,0,B|0:42|0:42|82:28,1,120.000004577637,8|2,0:0|0:0,0:0:0:0:
188,80,33183,22,0,B|208:96|208:96|196:192,1,120.000004577637,0|2,1:0|1:2,0:0:0:0:
308,128,33495,2,0,B|288:112|288:112|300:16,1,120.000004577637,8|2,0:0|0:0,0:0:0:0:
408,72,33808,70,0,L|372:76,1,30.0000011444092,0|0,1:0|0:0,0:0:0:0:
420,156,33964,2,0,L|384:160,1,30.0000011444092,2|0,1:2|0:0,0:0:0:0:
316,136,34120,6,0,L|410:150,1,95.9999970703126,8|0,0:0|0:0,0:0:0:0:
512,160,34354,53,0,0:0:0:0:
500,164,34433,2,0,L|508:212,1,40,6|2,1:2|0:0,0:0:0:0:
456,326,34589,22,0,B|472:288|472:288|423:262,1,95.9999970703126,6|2,1:2|0:0,0:0:0:0:
320,236,34745,69,10,0:0:0:0:
317,247,34823,1,2,0:0:0:0:
315,259,34901,5,6,1:2:0:0:
274,324,34979,1,2,1:2:0:0:
209,283,35058,2,0,P|134:272|110:232,1,120.000004577637,4|2,1:2|0:0,0:0:0:0:
0,260,35370,53,8,0:0:0:0:
100,248,35526,2,0,L|84:372,1,120.000004577637,2|0,0:0|0:0,0:0:0:0:
164,188,35839,21,2,1:2:0:0:
108,136,35995,2,0,B|68:109|68:109|154:124,1,120.000004577637,8|2,0:0|0:0,0:0:0:0:
176,180,36308,70,0,B|159:95|218:89|197:5,1,180.000006866455,0|0,1:0|0:0,0:0:0:0:
188,0,36620,2,0,P|214:62|304:69,1,120.000004577637,8|2,0:0|0:0,0:0:0:0:
352,32,36933,5,2,1:2:0:0:
381,37,37011,1,2,0:0:0:0:
406,20,37089,1,2,1:2:0:0:
439,24,37167,1,2,0:0:0:0:
464,6,37246,2,0,B|482:28|482:28|472:136,1,120.000004577637,10|0,0:0|0:0,0:0:0:0:
512,272,37558,54,0,P|484:216|428:204,1,120.000004577637,0|2,1:0|0:0,0:0:0:0:
380,256,37870,2,0,L|340:260,1,40,8|0,0:0|0:0,0:0:0:0:
280,320,38104,21,10,0:0:0:0:
284,312,38183,2,0,L|244:316,1,40,0|2,0:0|1:2,0:0:0:0:
256,220,38339,70,0,L|260:180,1,40,10|0,0:0|0:0,0:0:0:0:
200,88,38495,5,2,1:2:0:0:
196,96,38574,2,0,L|236:92,1,40,10|0,0:0|0:0,0:0:0:0:
88,0,38808,53,4,1:0:0:0:
103,14,38912,21,4,1:0:0:0:
103,35,39016,69,4,1:0:0:0:
121,107,39120,5,4,1:0:0:0:
98,128,39224,53,4,1:0:0:0:
98,159,39328,21,4,1:0:0:0:
124,236,39433,69,4,1:0:0:0:
158,267,39537,5,4,1:0:0:0:
158,314,39641,53,4,1:0:0:0:
72,312,39745,21,8,0:0:0:0:
60,310,39823,1,8,0:0:0:0:
48,308,39901,1,8,0:0:0:0:
36,306,39979,1,8,0:0:0:0:
24,304,40058,70,0,L|72:296,1,47.9999985351563,4|0,1:2|0:0,0:0:0:0:
256,192,40214,2,0,L|304:200,1,47.9999985351563,0|0,1:0|0:0,0:0:0:0:
512,232,40370,1,0,1:0:0:0:
504,240,40526,6,0,L|512:288,1,47.9999985351563,8|0,0:0|0:0,0:0:0:0:
496,248,40683,54,0,L|506:186,1,60,8|0,0:0|0:0,0:0:0:0:
440,384,40995,6,0,L|447:336,1,47.9999985351563,0|0,1:0|0:0,0:0:0:0:
240,200,41151,5,0,1:0:0:0:
245,197,41229,1,0,1:0:0:0:
248,192,41308,2,0,L|240:144,1,47.9999985351563,0|0,1:0|0:0,0:0:0:0:
160,56,41464,53,0,1:0:0:0:
155,52,41542,1,0,1:0:0:0:
153,46,41621,2,0,L|169:0,1,47.9999985351563,0|0,1:0|0:0,0:0:0:0:
168,0,41776,6,0,L|213:16,1,47.9999985351563,8|0,0:0|0:0,0:0:0:0:
464,128,41933,2,0,L|509:111,1,47.9999985351563,8|0,0:0|0:0,0:0:0:0:
400,152,42089,5,0,1:0:0:0:
400,152,42167,1,0,1:0:0:0:
400,152,42245,1,12,0:0:0:0:
464,128,42401,53,0,1:0:0:0:
328,176,42558,5,0,1:0:0:0:
328,176,42636,1,0,1:0:0:0:
328,176,42714,1,0,1:0:0:0:
409,308,42870,70,0,L|399:252,1,40,8|0,0:0|0:0,0:0:0:0:
502,372,43183,21,4,1:2:0:0:
505,377,43339,1,4,1:2:0:0:
401,268,43495,70,0,L|378:307,1,40,0|0,1:0|1:0,0:0:0:0:
320,376,43651,69,0,0:0:0:0:
312,368,43729,1,0,1:0:0:0:
304,360,43808,2,0,B|285:347|285:347|222:358,1,80,0|0,1:0|1:0,0:0:0:0:
168,312,44042,5,0,1:0:0:0:
160,304,44121,2,0,B|147:285|147:285|158:222,1,80,0|0,1:0|0:0,0:0:0:0:
216,192,44433,6,0,L|264:184,1,40,12|0,0:2|0:0,0:0:0:0:
464,88,44589,53,0,1:0:0:0:
464,88,44667,1,0,1:0:0:0:
464,88,44745,2,0,L|509:104,1,47.9999985351563,12|0,0:2|0:0,0:0:0:0:
352,0,44901,5,12,0:2:0:0:
344,8,44979,1,8,0:0:0:0:
384,72,45058,2,0,L|400:216,1,120.000004577637,4|0,1:0|1:0,0:0:0:0:
156,228,45370,5,0,1:0:0:0:
142,347,45526,54,0,L|148:287,1,40,12|0,0:0|0:0,0:0:0:0:
147,294,45683,6,0,L|163:351,1,60,12|0,0:0|0:0,0:0:0:0:
224,384,45995,6,0,L|280:368,1,40,0|0,1:0|0:0,0:0:0:0:
40,192,46151,53,0,1:0:0:0:
40,192,46229,1,0,1:0:0:0:
40,192,46308,2,0,L|78:202,1,40,0|0,1:0|0:0,0:0:0:0:
208,0,46464,5,0,1:0:0:0:
208,0,46542,1,0,1:0:0:0:
208,0,46620,1,0,1:0:0:0:
256,56,46776,6,0,L|240:144,1,60.0000022888184,8|0,0:0|0:0,0:0:0:0:
240,120,46933,54,0,L|180:109,1,60.0000022888184,8|0,0:0|0:0,0:0:0:0:
0,80,47089,5,0,1:0:0:0:
0,80,47167,1,0,1:0:0:0:
0,80,47245,2,0,L|120:64,1,120,4|0,1:2|1:0,0:0:0:0:
180,109,47558,5,0,1:0:0:0:
178,116,47636,1,0,1:0:0:0:
177,124,47714,1,0,1:0:0:0:
256,280,47870,1,0,1:0:0:0:
496,192,48026,53,8,0:0:0:0:
496,192,48183,6,0,L|480:152,1,40,4|0,1:2|0:0,0:0:0:0:
483,200,48339,2,0,L|475:248,1,40,4|0,1:2|0:0,0:0:0:0:
472,208,48495,2,0,L|418:197,1,40,0|0,1:0|0:0,0:0:0:0:
288,200,48651,5,0,1:0:0:0:
272,195,48729,1,0,1:0:0:0:
257,191,48808,1,0,1:0:0:0:
294,176,48886,1,0,1:0:0:0:
330,161,48964,1,0,1:0:0:0:
330,161,49120,53,0,1:0:0:0:
463,62,49276,5,0,1:0:0:0:
460,43,49355,1,0,1:0:0:0:
457,24,49433,1,0,1:0:0:0:
481,154,49589,6,0,L|473:202,1,40,0|0,1:0|0:0,0:0:0:0:
248,344,49745,2,0,L|256:392,1,40,8|0,0:0|0:0,0:0:0:0:
232,280,49901,53,0,1:0:0:0:
232,280,49979,1,0,1:0:0:0:
232,280,50058,1,4,1:2:0:0:
160,312,50214,5,0,1:0:0:0:
256,168,50370,1,0,1:0:0:0:
256,168,50526,6,0,L|264:216,1,40,8|0,0:0|0:0,0:0:0:0:
240,176,50683,54,0,L|252:99,1,60,8|0,0:0|0:0,0:0:0:0:
224,184,50995,6,0,L|184:190,1,40,0|0,1:0|0:0,0:0:0:0:
0,224,51151,5,0,1:0:0:0:
0,224,51229,1,0,1:0:0:0:
0,224,51308,1,0,1:0:0:0:
24,0,51464,53,0,1:0:0:0:
24,0,51542,1,0,1:0:0:0:
24,0,51621,1,0,1:0:0:0:
96,88,51776,6,0,L|144:80,1,40,8|0,0:0|0:0,0:0:0:0:
152,80,51933,6,0,L|52:54,1,80,8|0,0:0|1:0,0:0:0:0:
88,160,52167,53,0,1:0:0:0:
80,168,52246,2,0,B|67:186|67:186|78:249,1,80,4|0,1:2|0:0,0:0:0:0:
96,384,52558,5,0,1:0:0:0:
96,384,52636,1,0,1:0:0:0:
96,384,52714,1,0,1:0:0:0:
136,320,52870,6,0,L|192:328,1,40,0|0,1:0|0:0,0:0:0:0:
256,152,53026,2,0,L|312:136,1,40,8|0,0:0|0:0,0:0:0:0:
432,16,53183,54,0,L|440:64,1,40,4|0,1:2|0:0,0:0:0:0:
448,64,53339,2,0,L|441:24,1,40,4|0,1:2|0:0,0:0:0:0:
512,152,53495,6,0,L|500:223,1,60.0000022888184,0|0,1:0|0:0,0:0:0:0:
488,223,53651,2,0,L|497:164,1,60.0000022888184,0|0,1:0|1:0,0:0:0:0:
472,296,53808,1,0,1:0:0:0:
256,152,53964,5,0,1:0:0:0:
256,152,54042,1,0,1:0:0:0:
256,152,54120,1,0,1:0:0:0:
360,192,54276,54,0,L|351:249,1,40,4|0,1:2|1:0,0:0:0:0:
376,184,54433,1,12,0:0:0:0:
72,48,54589,6,0,L|88:104,1,40,0|0,1:0|1:0,0:0:0:0:
55,42,54746,1,12,0:0:0:0:
0,168,54901,5,12,0:0:0:0:
0,168,54979,1,8,0:0:0:0:
0,168,55058,2,0,L|56:152,1,40,0|0,1:0|0:0,0:0:0:0:
175,334,55214,2,0,L|159:390,1,40,0|0,1:0|0:0,0:0:0:0:
160,384,55370,53,0,1:0:0:0:
160,384,55526,1,8,0:0:0:0:
296,296,55683,2,0,L|285:210,1,80,8|0,0:0|0:0,0:0:0:0:
288,208,55995,6,0,L|336:192,1,40,0|0,1:0|0:0,0:0:0:0:
512,152,56151,5,0,1:0:0:0:
512,152,56229,1,0,1:0:0:0:
512,152,56308,1,0,1:0:0:0:
432,0,56464,53,0,1:0:0:0:
432,0,56542,1,0,1:0:0:0:
432,0,56621,1,0,1:0:0:0:
376,72,56776,5,8,0:0:0:0:
376,72,56933,2,0,B|408:88|408:88|400:176,1,120,8|0,0:0|1:0,0:0:0:0:
440,248,57167,5,0,1:0:0:0:
448,256,57245,2,0,L|496:264,1,40,4|0,1:2|0:0,0:0:0:0:
440,328,57401,2,0,L|394:344,1,40,0|0,1:0|0:0,0:0:0:0:
256,0,57558,53,0,1:0:0:0:
256,0,57714,1,0,1:0:0:0:
64,128,57870,6,0,L|16:120,1,40,0|0,1:0|0:0,0:0:0:0:
16,112,58026,2,0,L|64:104,1,40,8|0,0:0|0:0,0:0:0:0:
136,40,58183,5,0,1:0:0:0:
136,40,58339,1,0,1:0:0:0:
136,40,58495,54,0,L|160:160,1,120.000004577637,0|0,1:0|1:0,0:0:0:0:
336,0,58808,2,0,L|360:120,1,120.000004577637,0|0,0:0|1:0,0:0:0:0:
359,117,59042,1,0,1:0:0:0:
359,117,59120,1,0,1:0:0:0:
448,144,59276,5,0,0:0:0:0:
274,268,59433,6,0,B|251:286|251:286|305:265,1,80,0|0,1:0|1:0,0:0:0:0:
469,356,59745,2,0,B|487:377|487:377|437:347,1,80,8|8,0:0|0:0,0:0:0:0:
421,340,60058,22,0,B|438:266|366:272|391:189,1,160,2|0,0:3|0:0,0:0:0:0:
32,160,61308,22,0,B|59:199|59:199|74:154,1,95.9999970703126,0|0,0:0|0:0,0:0:0:0:
74,153,62558,54,0,B|112:124|112:124|141:162,1,95.9999970703126,2|0,0:3|0:0,0:0:0:0:
141,162,63808,22,0,B|187:174|187:174|214:135,1,95.9999970703126,0|0,0:0|0:0,0:0:0:0:
214,134,65058,54,0,B|260:123|260:123|295:155,1,95.9999970703126,2|0,0:3|0:0,0:0:0:0:
295,156,66308,22,0,B|338:137|338:137|357:93,1,95.9999970703126,0|0,0:0|0:0,0:0:0:0:
357,92,67558,54,0,B|401:107|401:107|448:98,1,95.9999970703126,2|0,0:3|0:0,0:0:0:0:
449,98,68808,22,0,L|462:2,1,95.9999970703126,0|0,0:0|0:0,0:0:0:0:
462,2,70058,54,0,L|449:98,1,80,2|0,0:3|0:0,0:0:0:0:
460,88,70370,2,0,L|470:8,1,80,2|2,0:0|0:0,0:0:0:0:
508,152,70683,37,2,0:0:0:0:
504,156,70839,1,0,0:0:0:0:
500,160,70995,1,2,0:0:0:0:
496,164,71151,1,2,0:0:0:0:
424,192,71308,38,0,B|384:199|384:199|346:186,1,80,2|0,0:0|0:0,0:0:0:0:
346,197,71620,2,0,B|383:209|383:209|423:202,1,80,2|2,0:0|0:0,0:0:0:0:
488,264,71933,37,2,0:0:0:0:
484,260,72089,1,0,0:0:0:0:
480,256,72245,1,2,0:0:0:0:
476,252,72401,1,2,0:0:0:0:
308,284,72558,38,0,B|291:321|291:321|256:336,1,80,2|2,0:3|0:0,0:0:0:0:
263,344,72870,2,0,B|298:329|298:329|315:292,1,80,2|2,0:0|0:0,0:0:0:0:
256,220,73183,21,0,0:0:0:0:
250,218,73339,1,2,0:0:0:0:
245,217,73495,1,2,0:0:0:0:
239,215,73651,1,2,0:0:0:0:
188,156,73808,54,0,B|178:117|178:117|205:88,1,80,0|2,0:0|0:0,0:0:0:0:
196,85,74120,2,0,B|169:114|169:114|178:152,1,80,2|2,0:0|0:0,0:0:0:0:
126,212,74433,21,0,0:0:0:0:
120,214,74589,1,2,0:0:0:0:
115,215,74745,1,2,0:0:0:0:
109,217,74901,1,2,0:0:0:0:
61,281,75058,54,0,B|38:313|38:313|0:304,1,80,2|2,0:3|0:0,0:0:0:0:
4,314,75370,2,0,B|42:323|42:323|65:291,1,80,0|0,0:0|0:0,0:0:0:0:
168,308,75683,37,2,0:0:0:0:
174,309,75839,1,0,0:0:0:0:
179,310,75995,1,2,0:0:0:0:
185,311,76151,1,2,0:0:0:0:
252,368,76308,38,0,B|283:344|283:344|307:375,1,80,2|0,0:0|0:0,0:0:0:0:
309,361,76620,2,0,B|285:330|285:330|254:354,1,80,2|2,0:0|0:0,0:0:0:0:
374,297,76933,37,2,0:0:0:0:
380,296,77089,1,0,0:0:0:0:
385,295,77245,1,2,0:0:0:0:
391,294,77401,1,2,0:0:0:0:
452,192,77558,38,0,B|464:229|464:229|486:197,1,80,2|0,0:3|0:0,0:0:0:0:
481,189,77870,2,0,B|468:151|468:151|446:183,1,80,2|2,0:0|0:0,0:0:0:0:
416,186,78183,22,0,B|428:223|428:223|450:191,1,80,2|0,0:0|0:0,0:0:0:0:
445,183,78495,2,0,B|432:145|432:145|410:177,1,80,2|2,0:0|0:0,0:0:0:0:
380,180,78808,54,0,B|392:217|392:217|414:185,1,80,2|2,0:0|0:0,0:0:0:0:
409,177,79120,2,0,B|396:139|396:139|374:171,1,80,2|2,0:0|0:0,0:0:0:0:
391,294,79433,21,8,0:3:0:0:
385,295,79589,1,0,0:0:0:0:
380,296,79745,1,0,0:0:0:0:
374,297,79901,1,0,0:0:0:0:
305,373,80058,5,2,0:3:0:0:
309,361,80136,38,2,B|285:330|285:330|254:354,1,80,2|0,0:0|0:0,0:1:0:0:
124,304,81412,38,2,B|101:336|101:336|63:327,1,80,2|0,0:0|0:0,0:1:0:0:
144,228,82818,38,2,B|134:189|134:189|161:160,1,80,2|0,0:0|0:0,0:1:0:0:
240,136,84120,38,2,B|275:120|275:120|291:83,1,80,2|0,0:0|0:0,0:1:0:0:
368,112,85526,38,2,B|405:124|405:124|445:117,1,80,2|0,0:0|0:0,0:1:0:0:
448,104,86880,38,2,L|458:24,1,80,2|0,0:0|0:0,0:1:0:0:
53,24,88365,38,2,L|64:104,1,80,0|0,0:0|0:0,0:1:0:0:
8,192,88847,38,0,B|149:192|149:192|189:262|189:262|260:73|260:73|323:192|323:192|378:192|378:192|404:209|404:209|426:192|426:192|508:192,1,753.600018398438,2|0,0:0|0:0,0:0:0:0:
500,184,95058,70,0,L|377:183,1,80,2|0,3:2|0:0,0:0:0:0:
448,116,99433,37,2,0:0:0:0:
512,80,99745,1,2,0:0:0:0:
476,16,100058,38,0,B|446:9|419:23|419:23|389:38|359:32,1,120,2|0,1:2|0:0,0:0:0:0:
348,28,100370,2,0,P|334:65|337:105,1,80,0|0,3:0|0:0,0:0:0:0:
256,160,100683,38,0,P|218:146|178:149,1,80,0|0,0:0|3:0,0:0:0:0:
0,116,100995,22,0,P|52:120|96:68,1,120,2|0,1:2|0:0,0:0:0:0:
104,80,101308,2,0,L|92:0,1,80,0|0,1:0|0:0,0:0:0:0:
178,149,101620,5,0,3:0:0:0:
200,50,101776,1,0,0:0:0:0:
76,192,101933,2,0,L|87:271,1,80,0|0,0:0|3:0,0:0:0:0:
76,380,102245,37,2,1:2:0:0:
136,341,102401,1,2,3:2:0:0:
98,281,102558,2,0,L|177:269,1,80,2|0,1:2|0:0,0:0:0:0:
256,348,102870,22,0,P|280:300|352:292,1,120,0|0,3:0|0:0,0:0:0:0:
352,288,103183,2,0,P|354:248|341:210,1,80,0|0,0:0|0:0,0:0:0:0:
488,188,103495,2,0,P|485:227|498:265,1,80,0|0,0:0|3:0,0:0:0:0:
440,364,103808,5,2,1:2:0:0:
511,339,103964,1,0,0:0:0:0:
341,210,104120,37,0,3:0:0:0:
406,183,104276,2,0,L|417:99,1,80,2|0,0:0|0:0,0:0:0:0:
508,76,104589,21,0,0:0:0:0:
424,96,104745,2,0,P|366:86|338:35,1,120,2|0,0:0|3:0,0:0:0:0:
344,24,105058,2,0,B|314:17|287:31|287:31|257:46|227:40,1,120,2|0,1:2|0:0,0:0:0:0:
216,36,105370,5,0,3:0:0:0:
136,104,105526,1,0,1:0:0:0:
37,68,105683,1,0,0:0:0:0:
104,36,105839,1,0,3:0:0:0:
69,136,105995,38,0,L|57:215,1,80,0|0,0:0|0:0,0:0:0:0:
152,384,106308,22,0,P|94:374|66:323,1,120,2|0,1:2|0:0,0:0:0:0:
68,308,106620,5,0,3:0:0:0:
152,272,106776,2,0,L|231:260,1,80,2|0,1:2|0:0,0:0:0:0:
310,248,107089,37,0,3:0:0:0:
368,98,107245,2,0,L|338:172,1,80,2|0,1:2|3:0,0:0:0:0:
360,310,107558,22,0,L|409:373,1,80,2|0,1:2|0:0,0:0:0:0:
310,248,107870,5,0,0:3:0:0:
388,234,108026,1,2,1:2:0:0:
338,172,108183,38,0,L|324:76,1,80,0|0,0:0|0:0,0:0:0:0:
492,0,108495,22,0,P|473:55|419:76,1,120,2|0,1:2|0:0,0:0:0:0:
404,72,108808,1,0,1:0:0:0:
326,92,108964,1,0,0:0:0:0:
306,14,109120,2,0,L|226:25,1,80,0|0,3:0|0:0,0:0:0:0:
20,53,109433,6,0,L|99:64,1,80,2|0,3:2|0:0,0:0:0:0:
172,108,109667,37,0,3:0:0:0:
183,97,109745,2,0,B|196:115|196:115|188:174,1,80,0|0,1:0|3:0,0:0:0:0:
105,235,110058,22,0,L|91:330,1,80,0|0,1:0|0:0,0:0:0:0:
239,334,110370,2,0,L|250:254,1,80,0|0,3:0|1:0,0:0:0:0:
332,240,110683,5,0,0:0:0:0:
250,254,110839,1,0,3:0:0:0:
320,348,110995,37,2,1:2:0:0:
401,362,111151,1,0,3:0:0:0:
429,200,111308,2,0,L|509:189,1,80,0|0,0:0|0:0,0:0:0:0:
392,136,111620,22,0,P|328:108|320:60,1,120,2|0,3:2|0:0,0:0:0:0:
324,48,111933,5,0,0:0:0:0:
256,0,112089,2,0,L|176:11,1,80,2|0,3:2|0:0,0:0:0:0:
130,99,112401,37,0,3:0:0:0:
129,87,112479,1,0,3:0:0:0:
128,74,112558,2,0,L|117:154,1,80,2|0,1:2|1:0,0:0:0:0:
0,208,112870,22,0,B|22:225|22:225|78:217,1,80,0|0,3:0|1:0,0:0:0:0:
150,223,113183,2,0,P|214:239|226:287,1,120,0|0,0:0|0:0,0:0:0:0:
224,300,113495,1,0,1:0:0:0:
336,384,113651,5,0,3:0:0:0:
309,302,113808,2,0,B|341:277|341:277|419:288,1,120,2|0,1:2|0:0,0:0:0:0:
436,292,114120,2,0,L|419:201,1,80,0|2,3:0|1:2,0:0:0:0:
512,144,114433,37,0,0:0:0:0:
432,133,114589,1,2,0:0:0:0:
421,53,114745,1,0,0:0:0:0:
255,97,114901,21,0,3:0:0:0:
258,86,114979,1,0,3:0:0:0:
261,75,115058,2,0,L|272:158,1,80,2|0,1:2|1:0,0:0:0:0:
312,16,115370,5,0,3:0:0:0:
180,68,115526,1,2,1:2:0:0:
48,120,115683,37,0,0:0:0:0:
128,131,115839,1,0,3:0:0:0:
117,211,115995,2,0,L|128:294,1,80,2|2,1:2|3:2,0:0:0:0:
36,376,116308,22,0,P|72:312|124:308,1,120,0|0,0:0|0:0,0:0:0:0:
120,296,116620,2,0,B|142:313|142:313|198:305,1,80,0|2,3:0|1:2,0:0:0:0:
256,176,116933,5,0,0:0:0:0:
225,241,117089,1,0,3:0:0:0:
297,236,117245,2,0,L|376:247,1,80,2|0,1:2|3:0,0:0:0:0:
456,248,117479,69,0,0:0:0:0:
448,260,117558,54,0,L|453:299,1,40,8|0,0:0|0:0,0:0:0:0:
344,360,117714,2,0,L|338:320,1,40,8|0,0:0|0:0,0:0:0:0:
452,254,117870,22,0,L|457:293,1,40,8|0,0:0|0:0,0:0:0:0:
339,365,118026,2,0,L|333:325,1,40,8|0,0:0|0:0,0:0:0:0:
456,248,118183,6,0,L|461:287,1,40,8|0,0:0|0:0,0:0:0:0:
334,370,118339,2,0,L|328:330,1,40,8|0,0:0|0:0,0:0:0:0:
460,242,118495,38,0,L|465:281,1,40,8|0,0:0|0:0,0:0:0:0:
388,176,118651,2,0,L|348:170,1,40,8|0,0:0|0:0,0:0:0:0:
256,213,118808,21,8,0:0:0:0:
246,183,118886,1,8,0:0:0:0:
244,152,118964,1,8,0:0:0:0:
251,121,119042,1,8,0:0:0:0:
263,92,119120,1,8,0:0:0:0:
268,61,119198,1,8,0:0:0:0:
265,30,119276,1,8,0:0:0:0:
256,0,119354,1,8,0:0:0:0:
233,4,119433,6,0,L|189:10,6,23.9999992675781,8|0|0|0|0|0|0,0:0|0:0|0:0|0:0|0:0|0:0|0:0,0:0:0:0:
168,72,119745,38,0,L|156:70,14,11.9999996337891,8|0|0|0|0|0|0|0|0|0|0|0|0|0|0,0:0|0:0|0:0|0:0|0:0|0:0|0:0|0:0|0:0|0:0|0:0|0:0|0:0|0:0|0:0,0:0:0:0:
180,74,120058,22,0,B|150:81|124:66|124:66|98:50|65:57,1,120.000004577637,4|2,1:0|0:0,0:0:0:0:
8,104,120292,1,2,0:0:0:0:
0,100,120370,2,0,P|-3:119|0:158,1,60.0000022888184,10|0,0:0|0:0,0:0:0:0:
140,208,120526,2,0,P|143:188|140:149,1,60.0000022888184,2|0,0:0|0:0,0:0:0:0:
48,308,120683,53,0,1:0:0:0:
44,292,120761,1,0,0:0:0:0:
48,280,120839,1,2,0:0:0:0:
44,268,120917,1,2,0:0:0:0:
45,253,120995,2,0,P|115:239|163:347,1,180.000006866455,10|0,0:0|0:0,0:0:0:0:
180,336,121308,22,0,L|243:344,1,60.0000022888184,0|0,1:0|0:0,0:0:0:0:
320,284,121464,1,2,0:0:0:0:
322,264,121542,1,2,0:0:0:0:
325,244,121620,2,0,L|342:370,1,120.000004577637,10|2,0:0|0:0,0:0:0:0:
496,312,121933,70,0,L|487:252,1,60.0000022888184,2|2,1:2|0:0,0:0:0:0:
472,168,122089,1,2,0:0:0:0:
480,148,122167,1,2,0:0:0:0:
500,140,122245,2,0,P|454:149|402:80,1,120.000004577637,10|2,0:0|0:0,0:0:0:0:
412,32,122479,69,2,0:0:0:0:
400,16,122558,2,0,L|281:32,1,120.000004577637,0|2,1:0|0:0,0:0:0:0:
272,35,122792,1,2,0:0:0:0:
276,44,122870,22,0,L|354:54,1,60.0000022888184,10|0,0:0|0:0,0:0:0:0:
260,148,123026,2,0,L|338:158,1,60.0000022888184,2|0,0:0|0:0,0:0:0:0:
172,172,123183,53,0,1:0:0:0:
196,4,123339,1,2,1:2:0:0:
184,88,123495,2,0,P|114:102|66:-5,1,180.000006866455,10|0,0:0|0:0,0:0:0:0:
60,8,123808,6,0,B|40:0|40:0|2:7,1,60.0000022888184,0|0,1:0|0:0,0:0:0:0:
12,108,123964,2,0,B|32:116|32:116|69:108,1,60.0000022888184,2|2,1:2|1:2,0:0:0:0:
172,172,124120,6,0,L|164:223,1,40,10|0,0:0|0:0,0:0:0:0:
312,260,124275,69,0,1:0:0:0:
300,264,124354,2,0,L|305:224,1,40,8|0,0:0|0:0,0:0:0:0:
236,304,124589,69,0,1:0:0:0:
172,344,124745,2,0,P|116:328|100:268,1,120.000004577637,8|0,0:0|1:0,0:0:0:0:
28,209,124979,21,0,1:0:0:0:
16,201,125058,2,0,L|135:185,1,120.000004577637,0|2,1:0|0:0,0:0:0:0:
202,13,125370,2,0,B|233:61|233:61|221:121,1,120.000004577637,10|0,0:0|0:0,0:0:0:0:
436,276,125683,54,0,P|392:256|380:180,1,120.000004577637,2|0,1:2|0:0,0:0:0:0:
412,108,125917,21,2,0:0:0:0:
405,120,125995,2,0,L|465:113,1,60.0000022888184,10|0,0:0|0:0,0:0:0:0:
453,26,126151,2,0,L|393:33,1,60.0000022888184,2|0,0:0|0:0,0:0:0:0:
322,92,126308,54,0,P|254:100|206:0,1,180.000006866455,0|2,1:0|0:0,0:0:0:0:
210,0,126620,21,10,0:0:0:0:
181,92,126776,1,2,0:0:0:0:
91,63,126933,69,2,1:2:0:0:
76,65,127011,1,2,0:0:0:0:
61,67,127089,1,2,0:0:0:0:
46,69,127167,1,2,0:0:0:0:
31,71,127245,70,0,B|10:94|10:94|22:185,1,120.000004577637,10|2,0:0|0:0,0:0:0:0:
96,196,127558,22,0,L|218:213,1,120.000004577637,0|2,1:0|0:0,0:0:0:0:
288,226,127792,1,2,0:0:0:0:
300,234,127870,2,0,P|316:294|280:346,1,120.000004577637,10|2,0:0|0:0,0:0:0:0:
453,363,128183,54,0,P|437:331|437:303,1,60.0000022888184,0|0,1:0|0:0,0:0:0:0:
432,303,128339,2,0,P|439:274|459:252,1,60.0000022888184,2|2,1:2|0:0,0:0:0:0:
512,192,128495,22,0,P|468:120|384:136,1,180.000006866455,10|0,0:0|0:0,0:0:0:0:
386,119,128808,54,0,L|394:59,1,60.0000022888184,0|0,1:0|0:0,0:0:0:0:
328,48,128964,2,0,L|319:107,1,60.0000022888184,2|2,1:2|1:2,0:0:0:0:
148,196,129120,6,0,L|139:136,1,60.0000022888184,10|0,0:0|0:0,0:0:0:0:
216,132,129275,1,2,1:2:0:0:
206,125,129354,2,0,L|214:184,1,60.0000022888184,8|0,0:0|0:0,0:0:0:0:
148,196,129589,6,0,L|139:136,1,60.0000022888184,2|0,1:2|0:0,0:0:0:0:
32,252,129745,69,2,1:2:0:0:
33,243,129823,1,2,0:0:0:0:
34,235,129901,1,2,1:2:0:0:
35,226,129979,1,0,1:0:0:0:
36,218,130058,69,4,1:0:0:0:
63,252,130136,1,2,0:0:0:0:
65,296,130214,1,2,0:0:0:0:
41,333,130292,1,2,0:0:0:0:
0,349,130370,22,0,B|49:338|88:362|88:362|127:385|173:374,1,180.000006866455,10|0,0:0|0:0,0:0:0:0:
189,333,130683,53,0,1:0:0:0:
226,309,130761,1,2,0:0:0:0:
270,311,130839,1,2,0:0:0:0:
304,338,130917,1,2,0:0:0:0:
312,320,130995,22,0,L|434:302,1,120.000004577637,10|2,0:0|0:0,0:0:0:0:
508,272,131308,53,0,1:0:0:0:
509,263,131386,1,2,0:0:0:0:
510,255,131464,1,2,0:0:0:0:
511,246,131542,1,2,0:0:0:0:
512,238,131620,2,0,P|440:206|432:162,1,120.000004577637,10|2,0:0|0:0,0:0:0:0:
376,120,131933,22,0,L|257:136,1,120.000004577637,2|2,1:2|0:0,0:0:0:0:
236,64,132167,1,2,0:0:0:0:
245,52,132245,2,0,L|363:35,1,120.000004577637,10|2,0:0|0:0,0:0:0:0:
156,0,132558,53,0,1:0:0:0:
146,43,132636,1,0,0:0:0:0:
117,76,132714,1,2,0:0:0:0:
75,91,132792,1,2,0:0:0:0:
31,83,132870,1,10,0:0:0:0:
0,172,133026,21,2,0:0:0:0:
80,160,133183,54,0,P|99:182|106:210,1,60.0000022888184,0|2,1:0|0:0,0:0:0:0:
102,215,133339,2,0,P|99:244|85:270,1,60.0000022888184,2|2,1:2|0:0,0:0:0:0:
32,336,133495,22,0,P|128:276|180:300,1,180.000006866455,10|0,0:0|0:0,0:0:0:0:
196,384,133808,2,0,L|263:374,1,60.0000022888184,0|2,1:0|0:0,0:0:0:0:
196,280,133964,53,2,1:2:0:0:
187,289,134042,1,2,1:2:0:0:
179,299,134120,2,0,L|246:289,1,60.0000022888184,10|0,0:0|0:0,0:0:0:0:
324,280,134276,5,0,1:0:0:0:
331,290,134354,2,0,L|340:222,1,60.0000022888184,8|0,0:0|0:0,0:0:0:0:
408,244,134589,2,0,L|399:303,1,60.0000022888184,2|0,1:2|0:0,0:0:0:0:
388,172,134745,6,0,P|468:148|480:112,1,120.000004577637,10|2,0:0|1:2,0:0:0:0:
444,52,134979,53,2,1:2:0:0:
437,62,135057,2,0,L|427:-5,1,60.0000022888184,2|0,1:2|0:0,0:0:0:0:
256,92,135214,2,0,L|246:24,1,60.0000022888184,2|2,1:2|0:0,0:0:0:0:
428,63,135370,22,0,L|419:2,1,60.0000022888184,10|0,0:0|0:0,0:0:0:0:
264,90,135527,2,0,L|255:28,1,60.0000022888184,2|0,1:2|0:0,0:0:0:0:
352,88,135683,53,2,1:2:0:0:
352,88,135839,1,2,1:2:0:0:
176,192,135995,5,10,0:0:0:0:
176,192,136151,1,2,1:2:0:0:
72,16,136308,69,2,1:2:0:0:
72,16,136464,1,2,1:2:0:0:
144,0,136620,22,0,P|158:26|161:55,1,60.0000022888184,10|0,0:0|0:0,0:0:0:0:
165,59,136776,2,0,P|158:87|139:110,1,60.0000022888184,2|0,1:2|0:0,0:0:0:0:
24,152,136933,54,0,P|9:178|6:207,1,60.0000022888184,0|2,1:0|0:0,0:0:0:0:
3,211,137089,2,0,P|9:239|28:262,1,60.0000022888184,2|2,1:2|0:0,0:0:0:0:
152,320,137245,5,10,0:0:0:0:
152,320,137401,1,2,1:2:0:0:
200,384,137558,70,0,P|222:364|251:358,1,60.0000022888184,10|0,0:0|0:0,0:0:0:0:
300,304,137714,2,0,P|329:306|354:322,1,60.0000022888184,10|0,0:0|0:0,0:0:0:0:
512,192,137870,22,0,P|486:207|457:210,1,60.0000022888184,10|0,0:0|0:0,0:0:0:0:
408,156,138026,2,0,P|378:149|356:130,1,60.0000022888184,10|0,0:0|0:0,0:0:0:0:
340,60,138183,6,0,L|331:0,1,60.0000022888184,10|0,0:0|0:0,0:0:0:0:
168,24,138339,2,0,L|176:83,1,60.0000022888184,10|0,0:0|0:0,0:0:0:0:
329,60,138495,54,0,L|320:0,1,60.0000022888184,10|0,0:0|0:0,0:0:0:0:
177,22,138651,2,0,L|185:81,1,60.0000022888184,10|0,0:0|0:0,0:0:0:0:
264,128,138808,69,8,0:0:0:0:
265,162,138886,1,8,0:0:0:0:
255,194,138964,1,8,0:0:0:0:
235,222,139042,1,8,0:0:0:0:
207,242,139120,1,8,0:0:0:0:
175,251,139198,1,8,0:0:0:0:
141,250,139276,1,8,0:0:0:0:
109,237,139354,1,8,0:0:0:0:
36,171,139433,22,0,L|70:175,1,20,8|0,0:0|0:0,0:0:0:0:
68,185,139511,70,0,L|100:198,1,20,8|0,0:0|0:0,0:0:0:0:
92,208,139589,22,0,L|119:229,1,20,8|0,0:0|0:0,0:0:0:0:
109,237,139667,38,0,L|130:265,1,20,8|0,0:0|0:0,0:0:0:0:
114,271,139745,22,0,L|127:303,1,20,8|0,0:0|0:0,0:0:0:0:
109,305,139823,70,0,L|113:340,1,20,8|0,0:0|0:0,0:0:0:0:
93,334,139901,22,0,L|88:368,1,20,8|0,0:0|0:0,0:0:0:0:
68,359,139979,38,0,L|54:391,1,20,8|0,0:0|0:0,0:0:0:0:
56,336,140058,38,0,P|44:308|23:287,2,60.7999992578125,0|0|0,0:0|0:0|0:0,0:0:0:0:
