osu file format v14

[General]
AudioFilename: audio.mp3
AudioLeadIn: 0
PreviewTime: 97174
Countdown: 0
SampleSet: Soft
StackLeniency: 0.4
Mode: 0
LetterboxInBreaks: 0
EpilepsyWarning: 1
WidescreenStoryboard: 1

[Editor]
Bookmarks: 21075,38653,80060,120060,140060
DistanceSpacing: 0.3
BeatDivisor: 8
GridSize: 4
TimelineZoom: 2.399999

[Metadata]
Title:R.I.P.
TitleUnicode:R.I.P.
Artist:eicateve
ArtistUnicode:eicateve
Creator:Firika
Version:Necho's Extra
Source:CHUNITHM CRYSTAL
Tags:BMS RIP Rest in Peace G2R2018 -GO BACK 2 YOUR ROOTS 2018 climax- 旅立った彼女へ Her requiem えいか eicaTV シ 死 hrchem TOHRU MiTSUHASHi SEGA Quantum Rosta Necho sudaasd Reincarnation
BeatmapID:2312594
BeatmapSetID:1103441

[Difficulty]
HPDrainRate:5
CircleSize:4
OverallDifficulty:8
ApproachRate:9.4
SliderMultiplier:1.6
SliderTickRate:1

[Events]
//Background and Video events
0,0,"333321.jpg",0,0
Video,-42,"optc.flv"
//Break Periods
//Storyboard Layer 0 (Background)
//Storyboard Layer 1 (Fail)
//Storyboard Layer 2 (Pass)
//Storyboard Layer 3 (Foreground)
//Storyboard Layer 4 (Overlay)
//Storyboard Sound Samples
Sample,88854,0,"stopped.mp3",40
Sample,95690,0,"FriendLeft.wav",100

[TimingPoints]
58,312.5,4,2,2,60,1,0
58,-133.333333333333,4,2,2,60,0,0
10058,-100,4,2,2,60,0,0
19745,-33.3333333333333,4,2,2,60,0,0
20058,-100,4,2,2,70,0,0
21933,-50,4,2,2,70,0,0
22558,-100,4,2,2,70,0,0
24433,-50,4,2,2,70,0,0
25058,-100,4,2,2,70,0,0
26933,-50,4,2,2,70,0,0
27558,-100,4,2,2,70,0,0
30058,-100,4,2,2,80,0,0
31933,-50,4,2,2,80,0,0
32558,-100,4,2,2,80,0,0
34433,-50,4,2,2,80,0,0
35058,-100,4,2,2,80,0,0
40058,-100,4,2,2,80,0,0
40683,-66.6666666666667,4,2,2,80,0,0
41151,-100,4,2,2,80,0,0
43183,-66.6666666666667,4,2,2,80,0,0
43651,-100,4,2,2,80,0,0
45683,-66.6666666666667,4,2,2,80,0,0
45995,-100,4,2,2,80,0,0
50058,-100,4,2,2,90,0,0
50683,-66.6666666666667,4,2,2,90,0,0
51151,-100,4,2,2,90,0,0
51933,-50,4,2,2,90,0,0
52245,-100,4,2,2,90,0,0
54433,-50,4,2,2,90,0,0
54745,-100,4,2,2,90,0,0
55683,-66.6666666666667,4,2,2,90,0,0
55995,-100,4,2,2,90,0,0
56933,-50,4,2,2,90,0,0
57245,-100,4,2,2,90,0,0
60058,-100,4,2,3,50,0,0
62558,-111.111111111111,4,2,3,50,0,0
65058,-125,4,2,3,50,0,0
67558,-142.857142857143,4,2,3,50,0,0
69433,-200,4,2,3,55,0,0
70058,-100,4,2,3,60,0,0
72558,-125,4,2,3,60,0,0
75058,-166.666666666667,4,2,3,60,0,0
77558,-250.000000000001,4,2,3,60,0,0
79433,-250.000000000001,4,2,3,55,0,0
80058,-166.666666666667,4,2,3,50,0,0
82558,-172.413793103448,4,2,3,50,0,0
85058,-178.571428571429,4,2,3,50,0,0
87558,-185.185185185185,4,2,3,50,0,0
88808,-909.090909090909,4,2,3,50,0,0
95058,-100,4,2,3,60,0,0
99433,-100,4,2,5,60,0,0
100058,-100,4,2,5,70,0,0
110058,-100,4,2,5,80,0,0
117558,-100,4,2,2,80,0,0
120370,-50,4,2,2,80,0,0
120839,-100,4,2,2,80,0,0
120995,-50,4,2,2,80,0,0
121464,-100,4,2,2,80,0,0
121620,-50,4,2,2,80,0,0
121933,-100,4,2,2,80,0,0
122870,-50,4,2,2,80,0,0
123183,-100,4,2,2,80,0,0
123495,-50,4,2,2,80,0,0
123808,-100,4,2,2,80,0,0
124120,-50,4,2,2,80,0,0
124745,-100,4,2,2,80,0,0
125370,-50,4,2,2,80,0,0
125839,-100,4,2,2,80,0,0
125995,-50,4,2,2,80,0,0
126933,-100,4,2,2,80,0,0
127870,-50,4,2,2,80,0,0
128183,-100,4,2,2,80,0,0
128495,-50,4,2,2,80,0,0
129589,-100,4,2,2,80,0,0
130058,-100,4,2,2,90,0,0
134120,-50,4,2,2,90,0,0
134589,-100,4,2,2,90,0,0
135369,-50,4,2,2,90,0,0
135683,-100,4,2,2,90,0,0
135995,-50,4,2,2,90,0,0
136308,-100,4,2,2,90,0,0
136620,-50,4,2,2,90,0,0
136933,-100,4,2,2,90,0,0
137245,-50,4,2,2,90,0,0
140058,-50,4,2,2,60,0,0

[Colours]
Combo1 : 64,255,112
Combo2 : 212,212,212
Combo3 : 106,106,106
Combo4 : 255,64,69
Combo5 : 64,112,255
Combo6 : 255,207,64
SliderTrackOverride : 0,0,0

[HitObjects]
156,101,58,5,2,3:2:0:0:
156,101,214,2,0,L|204:160,1,60.0000022888184,2|2,0:0|0:0,0:0:0:0:
82,141,526,5,2,3:2:0:0:
82,141,682,2,0,L|6:153,1,60.0000022888184,2|2,0:0|0:0,0:0:0:0:
84,56,995,69,2,3:2:0:0:
84,56,1151,2,0,L|111:-15,1,60.0000022888184,2|2,0:0|0:0,0:0:0:0:
156,101,1464,5,2,3:2:0:0:
82,141,1620,1,2,0:0:0:0:
84,56,1776,1,2,0:0:0:0:
83,55,1933,70,0,L|23:46,1,60.0000022888184,2|0,3:2|0:0,0:0:0:0:
156,101,2245,2,0,L|215:109,1,60.0000022888184,2|0,3:2|0:0,0:0:0:0:
67,328,2558,5,2,3:2:0:0:
67,328,2714,2,0,P|29:349|-2:342,1,60.0000022888184,2|2,0:0|0:0,0:0:0:0:
143,349,3026,69,2,3:2:0:0:
143,349,3182,2,0,P|180:371|190:402,1,60.0000022888184,2|2,0:0|0:0,0:0:0:0:
125,271,3495,5,2,3:2:0:0:
125,271,3651,2,0,P|125:227|147:203,1,60.0000022888184,2|2,0:0|0:0,0:0:0:0:
143,349,3964,69,2,3:2:0:0:
67,328,4120,1,2,0:0:0:0:
125,271,4276,1,2,0:0:0:0:
67,328,4433,6,0,B|38:337|38:337|0:320,1,60.0000022888184,2|0,3:2|0:0,0:0:0:0:
125,271,4745,2,0,B|154:262|154:262|192:279,1,60.0000022888184,2|0,3:2|0:0,0:0:0:0:
440,351,5058,70,0,L|508:333,1,60.0000022888184,2|2,3:2|0:0,0:0:0:0:
498,335,5370,1,2,0:0:0:0:
366,327,5526,6,0,L|347:394,1,60.0000022888184,2|2,3:2|0:0,0:0:0:0:
350,384,5838,1,2,0:0:0:0:
423,274,5995,70,0,L|373:224,1,60.0000022888184,2|2,3:2|0:0,0:0:0:0:
382,232,6307,1,2,0:0:0:0:
366,327,6464,5,2,3:2:0:0:
440,351,6620,1,2,0:0:0:0:
423,274,6776,1,2,0:0:0:0:
366,327,6933,70,0,L|295:336,1,60.0000022888184,2|0,3:2|0:0,0:0:0:0:
423,274,7245,2,0,L|494:265,1,60.0000022888184,2|0,3:2|0:0,0:0:0:0:
185,384,7558,6,0,B|157:375|157:375|146:340,1,60.0000022888184,2|2,3:2|0:0,0:0:0:0:
147,345,7870,1,2,0:0:0:0:
212,230,8026,70,0,B|218:258|218:258|193:285,1,60.0000022888184,2|2,3:2|0:0,0:0:0:0:
197,282,8338,1,2,0:0:0:0:
66,284,8495,6,0,B|87:264|87:264|123:272,1,60.0000022888184,2|2,3:2|0:0,0:0:0:0:
94,44,8808,70,0,P|60:7|63:-20,1,60.0000022888184,2|0,0:0|3:0,0:0:0:0:
94,44,9120,1,0,0:0:0:0:
80,128,9276,6,0,P|64:175|40:186,1,60.0000022888184,2|0,0:0|3:0,0:0:0:0:
80,128,9588,1,0,0:0:0:0:
160,99,9745,70,0,P|209:88|230:104,1,60.0000022888184,2|0,0:0|0:0,0:0:0:0:
73,330,10058,6,0,B|224:330|224:330|185:177|185:177|110:247|110:247|318:349|318:349|422:201|300:91,1,920,0|0,1:0|0:0,0:0:0:0:
308,99,11933,70,0,P|368:95|391:73,1,80,0|0,1:0|0:0,0:0:0:0:
364,8,12245,2,0,P|304:12|281:34,1,80,0|0,0:0|0:0,0:0:0:0:
398,208,12558,6,0,B|357:290|436:348|436:348|494:201|494:201|215:246|215:246|255:349|255:349|47:338,1,920,0|0,1:0|0:0,0:0:0:0:
46,337,14433,70,0,L|106:321,1,40,0|0,1:0|0:0,0:0:0:0:
131,262,14589,1,0,1:0:0:0:
43,154,14745,2,0,L|60:248,1,80,0|0,0:0|0:0,0:0:0:0:
337,262,15058,6,0,B|367:265|390:247|390:247|469:215|548:367|391:488|232:353|343:192|343:192|212:124|127:235|127:235|160:344|160:344|101:338,1,920,0|0,1:0|0:0,0:0:0:0:
117,339,16933,70,0,L|200:319,1,80,0|0,1:0|0:0,0:0:0:0:
90,260,17245,2,0,L|7:280,1,80,0|0,0:0|0:0,0:0:0:0:
341,121,17558,5,8,0:0:0:0:
349,128,17714,1,8,0:0:0:0:
288,62,17870,69,8,0:0:0:0:
295,54,18026,1,8,0:0:0:0:
285,175,18183,5,8,0:0:0:0:
278,183,18339,1,8,0:0:0:0:
232,116,18496,69,8,0:0:0:0:
224,109,18652,1,8,0:0:0:0:
159,324,18808,5,8,0:0:0:0:
207,288,18886,1,8,0:0:0:0:
257,310,18964,69,8,0:0:0:0:
266,326,19042,1,8,0:0:0:0:
309,330,19120,5,8,0:0:0:0:
357,294,19198,1,8,0:0:0:0:
407,316,19276,5,8,0:0:0:0:
416,332,19354,1,8,0:0:0:0:
459,336,19433,54,0,L|453:311,6,20,8|0|0|0|0|0|0,0:0|0:0|0:0|0:0|0:0|0:0|0:0,0:0:0:0:
495,254,19745,22,0,B|479:244|461:243|461:243|477:239|501:243|501:243|472:234|451:242|451:242|465:226|494:224|494:224|440:243|440:243|455:215|480:204|480:204|436:206|415:238,1,360.000013732911,8|0,0:0|0:0,0:0:0:0:
381,301,20058,53,4,1:2:0:0:
257,247,20214,1,2,0:0:0:0:
285,318,20370,21,8,0:0:0:0:
296,234,20526,1,2,0:0:0:0:
246,331,20683,69,0,0:0:0:0:
122,277,20839,1,2,1:2:0:0:
150,348,20995,5,8,0:0:0:0:
161,264,21151,2,0,L|167:207,1,40,2|0,0:0|0:0,0:0:0:0:
33,370,21308,53,0,1:0:0:0:
49,214,21464,1,2,0:0:0:0:
22,255,21620,21,8,0:0:0:0:
38,99,21776,2,0,L|44:42,1,40,2|0,0:0|0:0,0:0:0:0:
113,132,21933,70,0,B|153:135|153:135|202:104,3,80,2|2|2|2,1:2|0:0|1:2|0:0,0:0:0:0:
264,80,22245,6,0,B|262:40|262:40|284:7,1,80,10|2,0:0|0:0,0:0:0:0:
305,217,22401,2,0,B|288:181|288:181|253:163,1,80,2|2,1:2|0:0,0:0:0:0:
341,119,22558,53,0,1:0:0:0:
422,110,22714,1,2,0:0:0:0:
448,153,22870,21,8,0:0:0:0:
458,34,23026,1,2,0:0:0:0:
311,223,23183,69,0,1:0:0:0:
392,214,23339,1,2,1:2:0:0:
418,257,23495,5,8,0:0:0:0:
428,138,23651,2,0,L|430:94,1,40,2|0,0:0|0:0,0:0:0:0:
311,223,23808,53,0,1:0:0:0:
392,214,23964,1,2,1:2:0:0:
195,263,24120,21,8,0:0:0:0:
276,254,24276,1,2,0:0:0:0:
160,294,24433,70,0,L|169:165,3,80,0|0|2|2,0:0|0:0|1:2|0:0,0:0:0:0:
80,272,24745,2,0,L|75:352,1,80,10|2,0:0|0:0,0:0:0:0:
42,145,24901,2,0,L|51:16,1,80,2|2,1:2|1:2,0:0:0:0:
237,317,25058,5,0,1:0:0:0:
314,340,25214,1,2,0:0:0:0:
236,353,25370,53,8,0:0:0:0:
392,327,25526,1,2,0:0:0:0:
315,304,25683,21,0,0:0:0:0:
392,327,25839,1,2,1:2:0:0:
314,340,25995,69,8,0:0:0:0:
470,314,26151,2,0,L|473:256,1,40,2|0,0:0|0:0,0:0:0:0:
315,304,26308,5,0,1:0:0:0:
392,327,26464,1,2,0:0:0:0:
314,340,26620,53,8,0:0:0:0:
294,225,26776,1,2,0:0:0:0:
160,272,26933,22,0,P|213:268|258:302,3,80,2|2|2|2,1:2|0:0|1:2|0:0,0:0:0:0:
191,345,27245,1,10,0:0:0:0:
149,129,27401,1,2,0:0:0:0:
93,187,27558,70,0,L|4:180,1,80,0|2,1:0|0:0,0:0:0:0:
149,129,27870,2,0,L|238:136,1,80,8|2,0:0|1:2,0:0:0:0:
246,150,28104,1,8,0:0:0:0:
430,82,28339,6,0,B|435:64|435:64|422:34,1,40,10|8,0:0|0:0,0:0:0:0:
353,70,28495,1,8,0:0:0:0:
480,160,28651,1,2,1:2:0:0:
480,160,28729,1,0,1:0:0:0:
480,160,28808,54,0,L|426:201,1,40,4|0,1:0|0:0,0:0:0:0:
330,148,28964,2,0,L|401:171,1,40,4|0,1:0|0:0,0:0:0:0:
475,277,29119,22,0,L|404:254,1,40,4|0,1:0|0:0,0:0:0:0:
325,265,29276,2,0,L|379:224,1,40,4|2,1:0|0:0,0:0:0:0:
482,288,29433,70,0,L|411:265,1,40,4|0,1:0|0:0,0:0:0:0:
323,137,29589,2,0,L|394:160,1,40,4|2,1:0|0:0,0:0:0:0:
254,308,29745,5,0,1:0:0:0:
208,298,29823,1,0,1:0:0:0:
169,327,29901,1,0,1:0:0:0:
123,317,29979,1,0,1:0:0:0:
84,346,30058,53,4,1:2:0:0:
99,192,30214,1,2,0:0:0:0:
179,221,30370,21,8,0:0:0:0:
82,148,30526,1,2,0:0:0:0:
19,200,30683,69,0,0:0:0:0:
34,46,30839,1,2,1:2:0:0:
114,75,30995,5,8,0:0:0:0:
17,2,31151,2,0,L|25:76,1,40,2|0,0:0|0:0,0:0:0:0:
179,221,31308,53,0,1:0:0:0:
194,67,31464,1,2,0:0:0:0:
136,221,31620,21,8,0:0:0:0:
235,159,31776,2,0,L|274:154,1,40,2|0,0:0|0:0,0:0:0:0:
414,369,31933,70,0,P|349:367|317:326,3,80,2|2|2|2,1:2|0:0|1:2|0:0,0:0:0:0:
436,288,32245,6,0,B|477:280|477:280|486:328,1,80,10|2,0:0|0:0,0:0:0:0:
306,287,32401,2,0,B|265:295|265:295|256:247,1,80,2|2,1:2|0:0,0:0:0:0:
354,174,32558,53,0,1:0:0:0:
473,188,32714,1,2,0:0:0:0:
396,150,32870,21,8,0:0:0:0:
233,181,33026,1,2,0:0:0:0:
188,87,33183,69,0,1:0:0:0:
307,101,33339,1,2,1:2:0:0:
230,63,33495,5,8,0:0:0:0:
67,94,33651,2,0,L|73:35,1,40,2|0,0:0|0:0,0:0:0:0:
26,212,33808,53,0,1:0:0:0:
145,226,33964,1,2,1:2:0:0:
0,250,34120,21,8,0:0:0:0:
82,39,34276,2,0,L|141:45,1,40,2|0,0:0|0:0,0:0:0:0:
230,63,34433,70,0,B|258:38|258:38|254:10|211:0,1,80,6|2,1:2|0:0,0:0:0:0:
237,142,34589,2,0,B|209:167|209:167|213:195|256:205,1,80,6|2,1:2|0:0,0:0:0:0:
307,101,34745,2,0,L|419:88,1,80,10|2,0:0|0:0,0:0:0:0:
485,31,34901,1,6,1:2:0:0:
485,31,34979,1,2,1:2:0:0:
485,31,35058,5,4,1:2:0:0:
438,226,35214,1,2,0:0:0:0:
506,178,35370,53,8,0:0:0:0:
269,72,35526,1,2,0:0:0:0:
417,79,35683,21,0,0:0:0:0:
370,274,35839,1,2,1:2:0:0:
438,226,35995,69,8,0:0:0:0:
201,120,36151,2,0,L|140:130,1,40,2|0,0:0|0:0,0:0:0:0:
265,169,36308,5,0,1:0:0:0:
218,364,36464,1,2,0:0:0:0:
295,367,36620,53,8,0:0:0:0:
85,148,36776,2,0,L|88:83,1,40,2|0,0:0|0:0,0:0:0:0:
57,223,36933,21,2,1:2:0:0:
87,256,37011,1,2,0:0:0:0:
103,293,37089,1,2,1:2:0:0:
84,328,37167,1,2,0:0:0:0:
52,359,37245,69,10,0:0:0:0:
162,86,37401,1,2,0:0:0:0:
252,335,37558,5,0,1:0:0:0:
356,360,37714,1,2,0:0:0:0:
208,318,37870,53,8,0:0:0:0:
287,303,38026,1,2,1:2:0:0:
287,303,38104,2,0,B|301:264|301:264|272:207,1,80,10|2,0:0|1:2,0:0:0:0:
271,218,38339,2,0,L|336:223,1,40,10|0,0:0|0:0,0:0:0:0:
111,236,38495,21,2,1:2:0:0:
111,236,38573,2,0,L|204:243,1,80,10|0,0:0|0:0,0:0:0:0:
81,259,38808,69,4,1:0:0:0:
83,263,38912,1,4,1:0:0:0:
85,267,39016,1,4,1:0:0:0:
45,181,39120,5,4,1:0:0:0:
43,185,39224,1,4,1:0:0:0:
41,189,39328,1,4,1:0:0:0:
78,104,39433,53,4,1:0:0:0:
80,108,39537,1,4,1:0:0:0:
82,112,39641,1,4,1:0:0:0:
153,150,39745,21,8,0:0:0:0:
202,146,39823,1,8,0:0:0:0:
245,127,39901,53,8,0:0:0:0:
294,123,39979,1,8,0:0:0:0:
340,139,40058,5,4,1:2:0:0:
246,303,40214,2,0,B|241:311|241:311|242:303|242:303|237:310|237:310|238:302|238:302|233:310|233:310|234:302|234:302|229:310|229:310|230:302|230:302|225:309|225:309|226:301|226:301|221:309|221:309|222:301|222:301|217:309|217:309|218:301|218:301|213:308|213:308|214:300|214:300|209:308|209:308|210:300|210:300,1,120,0|0,1:0|0:0,0:0:0:0:
306,251,40526,5,8,0:0:0:0:
147,358,40683,2,0,B|138:270|138:270|144:277|144:277|131:162,1,180.000006866455,8|0,0:0|0:0,0:0:0:0:
96,278,40995,53,0,1:0:0:0:
320,329,41151,2,0,B|338:337|338:337|317:348,2,40,0|0|0,1:0|1:0|1:0,0:0:0:0:
490,309,41464,6,0,B|508:317|508:317|487:328,1,40,0|0,1:0|1:0,0:0:0:0:
414,329,41620,1,0,1:0:0:0:
426,178,41776,1,8,0:0:0:0:
438,27,41933,6,0,L|447:103,1,40,8|0,0:0|0:0,0:0:0:0:
426,178,42089,2,0,B|444:186|444:186|423:197,1,40,0|0,1:0|1:0,0:0:0:0:
286,170,42245,1,12,0:0:0:0:
501,227,42401,1,0,1:0:0:0:
297,302,42558,54,0,L|306:378,1,40,0|0,1:0|1:0,0:0:0:0:
219,300,42714,2,0,B|210:313|210:313|217:312|217:312|205:316|205:316|212:317|212:317|199:317|199:317|206:320|206:320|193:316|193:316|199:321|199:321|187:314|187:314|191:321|191:321|182:310|182:310|183:318|183:318|173:310,1,120,0|0,1:0|0:0,0:0:0:0:
216,220,43026,5,8,0:0:0:0:
39,264,43183,2,0,L|148:273,1,60.0000022888184,4|0,1:2|0:0,0:0:0:0:
92,347,43339,2,0,L|-17:337,1,60.0000022888184,4|0,1:2|0:0,0:0:0:0:
233,207,43495,5,0,1:0:0:0:
71,100,43651,2,0,B|65:81|65:81|81:50,2,40,0|0|0,1:0|1:0|1:0,0:0:0:0:
225,69,43964,2,0,B|219:50|219:50|235:19,1,40,0|0,1:0|1:0,0:0:0:0:
300,5,44120,1,0,1:0:0:0:
146,36,44276,1,4,1:2:0:0:
460,72,44433,53,12,0:2:0:0:
306,103,44589,1,0,1:0:0:0:
306,103,44667,1,0,1:0:0:0:
306,103,44745,1,12,0:2:0:0:
493,194,44901,2,0,L|486:248,1,40,12|8,0:2|0:0,0:0:0:0:
427,282,45058,5,4,1:0:0:0:
344,232,45214,2,0,B|348:235|348:235|344:239|344:239|349:243|349:243|345:247|345:247|349:251|349:251|346:255|346:255|350:259|350:259|346:263|346:263|351:267|351:267|347:271|347:271|351:275|351:275|348:279|348:279|352:283|352:283|348:287,1,80,0|0,1:0|1:0,0:0:0:0:
438,131,45526,5,12,0:0:0:0:
336,343,45683,2,0,B|338:286|338:286|341:290|341:290|344:219,1,120.000004577637,12|0,0:0|0:0,0:0:0:0:
160,359,45995,53,0,1:0:0:0:
224,307,46151,2,0,P|243:303|250:342,2,40,0|0|0,1:0|1:0|1:0,0:0:0:0:
30,251,46464,2,0,P|49:247|56:286,1,40,0|0,1:0|1:0,0:0:0:0:
82,337,46620,5,0,1:0:0:0:
208,192,46776,2,0,L|201:132,1,40,8|0,0:0|0:0,0:0:0:0:
88,32,46933,1,8,0:0:0:0:
19,71,47089,2,0,P|4:93|21:117,1,40,0|0,1:0|1:0,0:0:0:0:
99,145,47245,5,4,1:2:0:0:
270,124,47401,1,0,1:0:0:0:
84,156,47558,54,0,L|91:84,2,40,0|0|0,1:0|1:0|1:0,0:0:0:0:
331,242,47870,5,0,1:0:0:0:
174,111,48026,1,8,0:0:0:0:
162,192,48183,5,4,1:2:0:0:
172,202,48339,1,4,1:2:0:0:
316,56,48495,53,0,1:0:0:0:
326,46,48651,2,0,L|395:35,1,40,0|0,1:0|1:0,0:0:0:0:
476,135,48808,6,0,L|465:188,1,40,0|0,1:0|1:0,0:0:0:0:
509,247,48964,1,0,1:0:0:0:
509,247,49120,1,0,1:0:0:0:
264,246,49276,6,0,L|253:193,1,40,0|0,1:0|1:0,0:0:0:0:
297,134,49432,1,0,1:0:0:0:
297,134,49588,1,0,1:0:0:0:
118,133,49745,53,8,0:0:0:0:
118,133,49901,2,0,L|107:186,1,40,0|0,1:0|1:0,0:0:0:0:
330,295,50058,5,4,1:2:0:0:
203,319,50214,2,0,B|179:348|179:348|199:328|199:328|191:341|191:341|204:326|204:326|202:335|202:335|209:325|209:325|208:332,1,120,0|0,1:0|0:0,0:0:0:0:
136,270,50526,5,8,0:0:0:0:
349,383,50683,2,0,L|363:186,1,180.000006866455,8|0,0:0|0:0,0:0:0:0:
392,295,50995,53,0,1:0:0:0:
255,206,51151,2,0,P|270:217|268:236,2,40,0|0|0,1:0|1:0|1:0,0:0:0:0:
136,270,51464,6,0,P|151:281|149:300,1,40,0|0,1:0|1:0,0:0:0:0:
97,358,51620,1,0,1:0:0:0:
171,199,51776,1,8,0:0:0:0:
50,35,51933,6,0,P|13:100|57:177,1,160,8|0,0:0|1:0,0:0:0:0:
127,114,52167,1,0,1:0:0:0:
110,126,52245,2,0,L|117:60,1,40,4|0,1:2|0:0,0:0:0:0:
249,165,52401,2,0,L|315:172,1,40,0|0,1:0|0:0,0:0:0:0:
353,220,52558,53,0,1:0:0:0:
298,350,52714,2,0,L|289:259,1,80,0|0,1:0|1:0,0:0:0:0:
368,86,53026,5,8,0:0:0:0:
495,172,53183,2,0,B|515:178|515:178|483:184,1,40,4|0,1:2|0:0,0:0:0:0:
418,164,53339,2,0,B|398:158|398:158|430:152,1,40,4|0,1:2|0:0,0:0:0:0:
481,333,53495,5,0,1:0:0:0:
398,291,53651,2,0,B|406:301|406:301|402:329,2,40,0|0|0,1:0|1:0|1:0,0:0:0:0:
251,228,53964,2,0,B|259:238|259:238|255:266,1,40,0|0,1:0|1:0,0:0:0:0:
186,303,54120,1,0,1:0:0:0:
151,57,54276,1,4,1:2:0:0:
10,142,54433,54,0,L|218:131,1,160,12|0,0:0|1:0,0:0:0:0:
226,78,54667,1,0,1:0:0:0:
242,59,54745,2,0,P|268:76|277:102,1,40,12|0,0:0|0:0,0:0:0:0:
394,180,54901,1,12,0:0:0:0:
398,160,54979,1,8,0:0:0:0:
402,140,55058,5,0,1:0:0:0:
278,204,55214,2,0,B|292:206|299:218|299:218|298:204|298:204|304:217|304:217|304:202|320:188,1,80,0|0,1:0|1:0,0:0:0:0:
475,305,55526,5,8,0:0:0:0:
260,319,55683,2,0,P|355:303|415:378,1,180.000006866455,8|0,0:0|0:0,0:0:0:0:
377,266,55995,1,0,1:0:0:0:
240,361,56151,2,0,L|233:303,2,40,0|0|0,1:0|1:0|1:0,0:0:0:0:
77,297,56464,54,0,L|70:239,1,40,0|0,1:0|1:0,0:0:0:0:
12,208,56620,1,0,1:0:0:0:
142,346,56776,1,8,0:0:0:0:
194,62,56933,6,0,P|219:150|130:175,1,160,8|0,0:0|1:0,0:0:0:0:
116,130,57167,1,0,1:0:0:0:
98,118,57245,2,0,L|91:52,1,40,4|0,1:2|0:0,0:0:0:0:
256,229,57401,2,0,L|320:238,1,40,0|0,1:0|0:0,0:0:0:0:
227,305,57558,6,0,B|221:325|221:325|233:355,2,40,0|0|0,1:0|1:0|1:0,0:0:0:0:
304,371,57870,1,0,1:0:0:0:
144,354,58026,1,8,0:0:0:0:
353,290,58183,53,0,1:0:0:0:
343,299,58339,1,0,1:0:0:0:
151,275,58495,5,0,1:0:0:0:
141,266,58651,1,0,1:0:0:0:
370,122,58808,5,0,0:0:0:0:
435,172,58964,2,0,L|427:239,1,40,0|0,1:0|1:0,0:0:0:0:
352,199,59120,53,0,1:0:0:0:
342,208,59276,1,0,0:0:0:0:
105,172,59433,5,0,1:0:0:0:
184,160,59589,1,0,1:0:0:0:
422,58,59745,5,8,0:0:0:0:
343,46,59901,1,8,0:0:0:0:
96,192,60058,22,0,B|166:192|166:192|233:81|233:81|277:302|277:302|343:192|343:192|454:192,1,640,2|0,0:3|0:0,0:0:0:0:
96,192,62558,38,0,B|166:192|166:192|236:100|236:100|276:284|276:284|343:192|343:192|454:192,1,575.999982421876,2|0,0:3|0:0,0:0:0:0:
96,192,65058,38,0,B|166:192|166:192|236:116|236:116|276:264|276:264|343:192|343:192|440:192,1,512,2|0,0:3|0:0,0:0:0:0:
96,192,67558,38,0,B|166:192|166:192|236:136|236:136|276:244|276:244|343:192|343:192|440:192,1,447.999986328125,2|0,0:3|0:0,0:0:0:0:
114,149,69433,70,0,L|109:99,1,40,2|2,0:0|0:0,0:0:0:0:
49,58,69745,2,0,B|46:38|46:38|63:8,1,40,2|2,0:0|0:0,0:0:0:0:
182,75,70058,54,0,B|218:93|218:93|259:79,1,80,2|0,0:3|0:0,0:0:0:0:
256,81,70370,2,0,L|250:-4,1,80,2|2,0:0|0:0,0:0:0:0:
182,75,70683,38,0,B|218:93|218:93|259:79,1,80,2|0,0:0|0:0,0:0:0:0:
256,81,70995,2,0,L|250:-4,1,80,2|2,0:0|0:0,0:0:0:0:
182,75,71308,38,0,B|218:93|218:93|259:79,1,80,2|0,0:0|0:0,0:0:0:0:
256,81,71620,2,0,L|250:-4,1,80,2|2,0:0|0:0,0:0:0:0:
182,75,71933,38,0,B|218:93|218:93|259:79,1,80,2|0,0:0|0:0,0:0:0:0:
256,81,72245,2,0,L|250:-4,1,80,2|2,0:0|0:0,0:0:0:0:
321,217,72558,38,0,B|292:231|292:231|260:220,1,64,2|2,0:3|0:0,0:0:0:0:
261,220,72870,2,0,L|265:152,1,64,2|2,0:0|0:0,0:0:0:0:
321,217,73183,22,0,B|292:231|292:231|260:220,1,64,0|2,0:0|0:0,0:0:0:0:
261,220,73495,2,0,L|265:152,1,64,2|2,0:0|0:0,0:0:0:0:
321,217,73808,54,0,B|292:231|292:231|260:220,1,64,0|2,0:0|0:0,0:0:0:0:
261,220,74120,2,0,L|265:152,1,64,2|2,0:0|0:0,0:0:0:0:
321,217,74433,22,0,B|292:231|292:231|260:220,1,64,0|2,0:0|0:0,0:0:0:0:
261,220,74745,2,0,L|265:152,1,64,2|2,0:0|0:0,0:0:0:0:
212,344,75058,54,0,B|232:354|232:354|255:346,1,47.9999985351563,2|2,0:3|0:0,0:0:0:0:
255,345,75370,2,0,L|251:296,1,47.9999985351563,0|0,0:0|0:0,0:0:0:0:
212,344,75683,38,0,B|232:354|232:354|255:346,1,47.9999985351563,2|0,0:0|0:0,0:0:0:0:
255,345,75995,2,0,L|251:296,1,47.9999985351563,2|2,0:0|0:0,0:0:0:0:
212,344,76308,38,0,B|232:354|232:354|255:346,1,47.9999985351563,2|0,0:0|0:0,0:0:0:0:
255,345,76620,2,0,L|251:296,1,47.9999985351563,2|2,0:0|0:0,0:0:0:0:
212,344,76933,38,0,B|232:354|232:354|255:346,1,47.9999985351563,2|0,0:0|0:0,0:0:0:0:
255,345,77245,2,0,L|251:296,1,47.9999985351563,2|2,0:0|0:0,0:0:0:0:
424,296,77558,38,0,L|420:340,1,32,2|0,0:3|0:0,0:0:0:0:
340,312,77870,2,0,L|342:280,1,32,2|2,0:0|0:0,0:0:0:0:
420,284,78183,22,0,L|416:328,1,32,2|0,0:0|0:0,0:0:0:0:
336,300,78495,2,0,L|338:268,1,32,2|2,0:0|0:0,0:0:0:0:
416,272,78808,54,0,L|412:316,1,32,2|2,0:0|0:0,0:0:0:0:
332,288,79120,2,0,L|334:256,1,32,2|2,0:0|0:0,0:0:0:0:
412,260,79433,22,0,L|408:304,1,32,8|0,0:3|0:0,0:0:0:0:
328,276,79745,2,0,L|330:244,1,32,0|0,0:0|0:0,0:0:0:0:
96,192,80058,6,0,B|166:192|166:192|236:156|236:156|276:224|276:224|343:192|343:192|440:192,1,383.99998828125,2|2,0:3|0:0,0:0:0:0:
96,192,82558,38,0,B|166:192|166:192|232:160|232:160|276:220|276:220|343:192|343:192|440:192,1,371.200011328125,2|2,0:3|0:0,0:0:0:0:
96,192,85058,38,0,B|166:192|166:192|232:168|232:168|276:216|276:216|343:192|343:192|440:192,1,358.400004375,2|2,0:3|0:0,0:0:0:0:
100,192,87558,38,0,B|166:192|166:192|232:188|232:188|276:196|276:196|343:192|343:192|436:192,1,324.000007910156,2|0,0:3|0:0,0:0:0:0:
423,192,88808,38,0,B|77:192|77:192|77:188|77:188|74:192,1,352.000010742188,2|2,0:0|3:2,0:0:0:0:
351,277,99433,54,0,P|394:206|365:141,1,160,2|2,0:0|0:0,0:0:0:0:
365,141,100058,6,0,B|348:107|348:107|361:50,1,80,2|0,1:2|0:0,0:0:0:0:
462,130,100370,2,0,B|471:89|471:89|454:55,1,80,0|0,3:0|0:0,0:0:0:0:
370,235,100683,1,0,0:0:0:0:
370,235,100839,2,0,L|193:230,1,160,0|0,3:0|3:0,0:0:0:0:
63,285,101308,2,0,B|48:338|79:381|79:381|69:341|95:299,1,160,0|0,1:0|3:0,0:0:0:0:
159,352,101933,38,0,P|223:343|241:313,1,80,0|0,0:0|3:0,0:0:0:0:
307,349,102245,1,2,1:2:0:0:
370,235,102401,1,2,3:2:0:0:
445,265,102558,22,0,L|453:88,1,160,2|0,1:2|3:0,0:0:0:0:
452,105,103183,2,0,P|394:81|383:44,1,80,0|0,0:0|0:0,0:0:0:0:
319,33,103651,1,0,3:0:0:0:
319,33,103808,2,0,P|258:94|188:70,1,160,2|0,1:2|3:0,0:0:0:0:
68,20,104276,6,0,B|134:51|115:133|115:133|101:96,1,160,2|0,0:0|0:0,0:0:0:0:
31,100,104745,1,2,0:0:0:0:
31,182,104901,1,0,3:0:0:0:
31,182,104979,1,0,3:0:0:0:
31,182,105058,38,0,L|200:155,1,160,2|0,1:2|3:0,0:0:0:0:
188,156,105683,22,0,P|177:219|198:258,1,80,0|0,0:0|3:0,0:0:0:0:
270,163,105995,2,0,P|276:202|264:240,1,80,0|0,0:0|0:0,0:0:0:0:
234,85,106308,6,0,B|194:57|194:4|194:4|173:101|58:97,2,240,2|2|2,1:2|1:2|1:2,0:0:0:0:
303,45,107401,1,0,3:0:0:0:
303,45,107558,2,0,P|395:41|421:121,1,160,2|0,1:2|0:3,0:0:0:0:
494,131,108026,2,0,B|480:249|480:249|464:195,1,160,2|0,1:2|0:0,0:0:0:0:
403,168,108495,1,2,1:2:0:0:
306,296,108651,1,0,3:0:0:0:
305,295,108808,38,0,P|364:343|435:315,1,160,0|0,1:0|3:0,0:0:0:0:
305,211,109276,2,0,P|276:215|256:230,1,40,0|0,0:0|0:0,0:0:0:0:
305,211,109433,2,0,B|326:153|326:153|291:80,2,120,2|0|0,3:2|3:0|3:0,0:0:0:0:
190,217,110058,22,0,P|140:234|101:222,1,80,0|0,1:0|0:0,0:0:0:0:
163,140,110370,2,0,L|171:48,1,80,0|0,3:0|1:0,0:0:0:0:
43,277,110683,1,0,0:0:0:0:
20,183,110839,1,0,3:0:0:0:
43,277,110995,2,0,L|148:262,1,80,2|0,1:2|3:0,0:0:0:0:
323,338,111308,6,0,P|252:358|191:283,1,160,0|2,0:0|3:2,0:0:0:0:
194,303,111776,1,0,1:0:0:0:
434,357,112089,37,2,3:2:0:0:
434,357,112245,2,0,B|405:350|407:325|407:325|435:281,1,80,0|0,0:0|3:0,0:0:0:0:
442,286,112479,1,0,3:0:0:0:
459,275,112558,22,0,L|450:176,1,80,2|0,1:2|1:0,0:0:0:0:
494,130,112870,1,0,3:0:0:0:
408,85,113026,2,0,P|348:162|280:126,1,160,0|0,1:0|0:0,0:0:0:0:
243,93,113495,2,0,L|147:88,1,80,0|0,1:0|3:0,0:0:0:0:
116,181,113808,6,0,B|133:217|133:217|111:280,1,80,2|0,1:2|0:0,0:0:0:0:
76,320,114120,1,0,3:0:0:0:
76,320,114276,2,0,L|84:138,1,160,2|2,1:2|0:0,0:0:0:0:
207,251,114745,1,0,0:0:0:0:
223,338,114901,1,0,3:0:0:0:
223,338,114979,1,0,3:0:0:0:
223,338,115058,38,0,P|178:359|135:333,1,80,2|0,1:2|1:0,0:0:0:0:
207,251,115370,21,0,3:0:0:0:
207,251,115448,2,0,B|216:233|216:233|203:198,1,40,0|2,0:0|1:2,0:0:0:0:
352,354,115839,5,0,3:0:0:0:
434,380,115995,2,0,L|424:283,1,80,2|2,1:2|3:2,0:0:0:0:
352,354,116308,38,0,P|306:360|263:332,1,80,0|0,0:0|0:0,0:0:0:0:
428,216,116620,2,0,B|466:195|466:195|476:219|440:245,1,80,0|2,3:0|1:2,0:0:0:0:
350,197,116933,2,0,B|332:163|332:163|352:106,1,80,0|0,0:0|3:0,0:0:0:0:
417,88,117245,21,2,1:2:0:0:
486,17,117401,2,0,B|495:34|495:34|487:57,1,40,0|0,3:0|0:0,0:0:0:0:
417,88,117558,5,8,0:0:0:0:
274,79,117714,1,8,0:0:0:0:
285,71,117870,37,8,0:0:0:0:
142,62,118026,1,8,0:0:0:0:
71,179,118183,21,8,0:0:0:0:
155,168,118339,1,8,0:0:0:0:
292,153,118495,69,8,0:0:0:0:
376,142,118651,1,8,0:0:0:0:
343,281,118808,69,8,0:0:0:0:
332,286,118886,1,8,0:0:0:0:
321,291,118964,1,8,0:0:0:0:
310,296,119042,1,8,0:0:0:0:
257,287,119120,5,8,0:0:0:0:
246,282,119198,1,8,0:0:0:0:
235,277,119276,1,8,0:0:0:0:
224,272,119354,1,8,0:0:0:0:
187,284,119433,22,0,L|194:319,6,20,8|0|0|0|0|0|0,0:0|0:0|0:0|0:0|0:0|0:0|0:0,0:0:0:0:
108,272,119745,70,0,L|111:256,12,10,8|0|0|0|0|0|0|0|0|0|0|0|0,0:0|0:0|0:0|0:0|0:0|0:0|0:0|0:0|0:0|0:0|0:0|0:0|0:0,0:0:0:0:
37,303,120058,53,4,1:0:0:0:
85,116,120214,2,0,B|105:123|105:123|119:152,1,40,2|2,0:0|0:0,0:0:0:0:
49,191,120370,2,0,B|124:186|124:186|135:188|135:188|251:181,1,160,10|2,0:0|0:0,0:0:0:0:
430,333,120683,21,0,1:0:0:0:
312,235,120839,2,0,L|320:182,1,40,2|2,0:0|0:0,0:0:0:0:
360,302,120995,2,0,L|351:126,1,160,10|2,0:0|0:0,0:0:0:0:
446,322,121308,53,0,1:0:0:0:
312,235,121464,2,0,P|287:214|266:214,1,40,2|2,0:0|0:0,0:0:0:0:
278,310,121620,2,0,P|181:322|146:248,1,160,10|2,0:0|0:0,0:0:0:0:
10,345,121933,6,0,L|19:403,3,40,2|2|2|2,1:2|0:0|0:0|0:0,0:0:0:0:
30,307,122245,1,10,0:0:0:0:
33,267,122323,1,2,0:0:0:0:
37,227,122401,1,2,0:0:0:0:
40,187,122479,1,2,0:0:0:0:
44,147,122557,69,0,1:0:0:0:
169,201,122714,2,0,P|193:199|209:177,1,40,2|2,0:0|0:0,0:0:0:0:
280,213,122870,2,0,B|314:150|314:150|291:102|234:117,1,160,10|2,0:0|0:0,0:0:0:0:
132,333,123183,22,0,L|185:340,1,40,0|0,1:0|0:0,0:0:0:0:
242,299,123339,2,0,L|281:293,1,40,2|2,1:2|0:0,0:0:0:0:
399,334,123495,2,0,B|388:356|388:356|335:287|393:228,1,160,10|2,0:0|1:2,0:0:0:0:
496,90,123808,53,0,1:0:0:0:
501,265,123964,2,0,L|446:273,1,40,2|2,1:2|1:2,0:0:0:0:
388,232,124120,6,0,B|340:218|332:176|332:176|375:123|433:155,1,160,10|0,0:0|1:0,0:0:0:0:
461,270,124354,2,0,B|493:310|477:369|477:369|456:342|388:343,1,160,8|0,0:0|0:0,0:0:0:0:
457,192,124589,1,0,1:0:0:0:
263,215,124745,5,8,0:0:0:0:
184,353,124901,2,0,P|165:362|139:353,1,40,0|0,1:0|1:0,0:0:0:0:
77,323,125058,53,0,1:0:0:0:
263,215,125214,2,0,B|273:233|273:233|264:264,1,40,2|2,0:0|0:0,0:0:0:0:
184,272,125370,2,0,L|192:77,1,160,10|2,0:0|0:0,0:0:0:0:
271,333,125683,21,0,1:0:0:0:
401,190,125839,2,0,L|460:182,1,40,2|2,0:0|0:0,0:0:0:0:
471,256,125995,2,0,P|395:310|326:242,1,160,10|2,0:0|0:0,0:0:0:0:
159,36,126308,53,0,1:0:0:0:
327,59,126464,1,2,0:0:0:0:
211,144,126620,21,10,0:0:0:0:
101,155,126776,1,2,0:0:0:0:
241,234,126933,54,0,L|300:241,3,40,2|2|2|2,1:2|0:0|0:0|0:0,0:0:0:0:
226,224,127245,5,10,0:0:0:0:
209,261,127323,1,2,0:0:0:0:
192,297,127401,1,2,0:0:0:0:
209,334,127479,1,2,0:0:0:0:
226,370,127557,69,0,1:0:0:0:
386,285,127714,2,0,L|451:276,1,40,2|2,0:0|0:0,0:0:0:0:
464,364,127870,2,0,L|451:168,1,160,10|2,0:0|0:0,0:0:0:0:
280,238,128183,22,0,B|275:219|275:219|285:187,1,40,0|0,1:0|0:0,0:0:0:0:
315,131,128339,2,0,B|320:112|320:112|310:80,1,40,2|2,1:2|0:0,0:0:0:0:
216,159,128495,2,0,L|229:-37,1,160,10|2,0:0|0:0,0:0:0:0:
156,216,128808,53,0,1:0:0:0:
3,335,128964,1,2,1:2:0:0:
3,335,129042,1,2,1:2:0:0:
3,335,129120,6,0,P|99:335|91:234,1,160,10|2,0:0|1:2,0:0:0:0:
156,216,129354,2,0,B|90:214|70:273|89:313|89:313|133:340,1,160,8|2,0:0|0:0,0:0:0:0:
185,363,129589,2,0,L|254:351,1,40,2|0,1:2|0:0,0:0:0:0:
286,306,129745,1,2,1:2:0:0:
327,311,129823,1,2,0:0:0:0:
363,291,129901,1,2,1:2:0:0:
404,296,129979,1,0,1:0:0:0:
440,276,130058,70,0,B|429:294|429:294|441:325,1,40,4|2,1:0|0:0,0:0:0:0:
359,384,130214,2,0,B|370:366|370:366|358:335,1,40,2|2,0:0|0:0,0:0:0:0:
302,299,130370,1,10,0:0:0:0:
97,195,130526,1,2,0:0:0:0:
72,273,130683,22,0,B|83:291|83:291|71:322,1,40,0|2,1:0|0:0,0:0:0:0:
153,381,130839,2,0,B|142:363|142:363|154:332,1,40,2|2,0:0|0:0,0:0:0:0:
210,296,130995,1,10,0:0:0:0:
415,192,131151,1,2,0:0:0:0:
440,270,131308,54,0,B|429:288|429:288|441:319,1,40,0|2,1:0|0:0,0:0:0:0:
359,378,131464,2,0,B|370:360|370:360|358:329,1,40,2|2,0:0|0:0,0:0:0:0:
302,293,131620,1,10,0:0:0:0:
97,189,131776,1,2,0:0:0:0:
72,267,131933,6,0,B|83:285|83:285|71:316,1,40,2|2,1:2|0:0,0:0:0:0:
153,375,132089,2,0,B|142:357|142:357|154:326,1,40,2|2,0:0|0:0,0:0:0:0:
210,290,132245,6,0,L|260:298,1,40
415,186,132401,2,0,B|418:166|418:166|402:138,1,40
278,210,132558,69,0,1:0:0:0:
393,327,132714,2,0,L|444:319,1,40,2|2,0:0|0:0,0:0:0:0:
488,264,132870,1,10,0:0:0:0:
253,107,133026,1,2,0:0:0:0:
234,196,133183,21,0,1:0:0:0:
119,313,133339,2,0,L|68:305,1,40,2|2,1:2|0:0,0:0:0:0:
24,250,133495,1,10,0:0:0:0:
259,93,133651,1,0,1:0:0:0:
278,182,133808,53,0,1:0:0:0:
393,299,133964,2,0,L|444:291,1,40,2|2,1:2|1:2,0:0:0:0:
488,236,134120,6,0,P|414:159|347:220,1,160,10|0,0:0|1:0,0:0:0:0:
295,263,134354,2,0,B|314:294|314:294|255:350|176:290,1,160,8|0,0:0|0:0,0:0:0:0:
141,235,134589,2,0,L|90:227,1,40,2|0,1:2|0:0,0:0:0:0:
22,370,134745,5,10,0:0:0:0:
95,322,134901,1,2,1:2:0:0:
87,314,134980,1,2,1:2:0:0:
79,306,135058,54,0,L|137:317,1,40,2|0,1:2|0:0,0:0:0:0:
189,363,135214,2,0,B|209:365|209:365|226:354,1,40,2|2,1:2|0:0,0:0:0:0:
195,203,135370,2,0,L|188:373,1,160,10|2,0:0|1:2,0:0:0:0:
424,240,135683,22,0,L|366:251,1,40,2|0,1:2|0:0,0:0:0:0:
314,297,135839,2,0,B|294:299|294:299|277:288,1,40,2|2,1:2|0:0,0:0:0:0:
308,137,135995,2,0,L|315:307,1,160,10|2,0:0|1:2,0:0:0:0:
72,185,136308,54,0,L|130:196,1,40,2|0,1:2|0:0,0:0:0:0:
182,242,136464,2,0,B|202:244|202:244|219:233,1,40,2|2,1:2|0:0,0:0:0:0:
188,82,136620,2,0,L|181:252,1,160,10|2,0:0|1:2,0:0:0:0:
417,117,136933,6,0,L|359:128,1,40,0|2,1:0|0:0,0:0:0:0:
301,14,137089,1,2,1:2:0:0:
301,14,137167,1,2,0:0:0:0:
301,14,137245,2,0,L|308:184,1,160,10|2,0:0|1:2,0:0:0:0:
119,313,137558,69,10,0:0:0:0:
208,327,137714,1,10,0:0:0:0:
411,271,137870,5,10,0:0:0:0:
322,257,138026,1,10,0:0:0:0:
304,57,138183,5,10,0:0:0:0:
393,71,138339,1,10,0:0:0:0:
190,127,138495,53,10,0:0:0:0:
101,113,138651,1,10,0:0:0:0:
119,313,138808,69,8,0:0:0:0:
168,299,138886,1,8,0:0:0:0:
208,327,138964,1,8,0:0:0:0:
248,355,139042,1,8,0:0:0:0:
297,341,139120,21,8,0:0:0:0:
346,327,139198,1,8,0:0:0:0:
386,355,139276,1,8,0:0:0:0:
426,383,139354,1,8,0:0:0:0:
475,369,139433,6,0,L|468:327,1,40,8|0,0:0|0:0,0:0:0:0:
463,363,139511,2,0,L|456:321,1,40,8|0,0:0|0:0,0:0:0:0:
488,320,139589,6,0,L|481:278,1,40,8|0,0:0|0:0,0:0:0:0:
476,314,139667,2,0,L|469:272,1,40,8|0,0:0|0:0,0:0:0:0:
440,268,139745,6,0,L|421:296,2,20
385,290,139823,6,0,L|354:305,2,20
326,282,139901,6,0,L|292:280,2,20
278,246,139979,6,0,L|250:228,2,20
257,190,140058,5,0,0:0:0:0:
