osu file format v14

[General]
AudioFilename: audio.mp3
AudioLeadIn: 0
PreviewTime: 97174
Countdown: 0
SampleSet: Soft
StackLeniency: 0.7
Mode: 0
LetterboxInBreaks: 0
EpilepsyWarning: 1
WidescreenStoryboard: 1

[Editor]
Bookmarks: 21075,38653,39908,128815
DistanceSpacing: 1.2
BeatDivisor: 8
GridSize: 8
TimelineZoom: 2.799999

[Metadata]
Title:R.I.P.
TitleUnicode:R.I.P.
Artist:eicateve
ArtistUnicode:eicateve
Creator:Firika
Version:Insane
Source:CHUNITHM CRYSTAL
Tags:BMS RIP Rest in Peace G2R2018 -GO BACK 2 YOUR ROOTS 2018 climax- 旅立った彼女へ Her requiem えいか eicaTV シ 死 hrchem TOHRU MiTSUHASHi SEGA Quantum Rosta Necho sudaasd Reincarnation
BeatmapID:2312593
BeatmapSetID:1103441

[Difficulty]
HPDrainRate:5
CircleSize:4
OverallDifficulty:8
ApproachRate:9
SliderMultiplier:1.6
SliderTickRate:1

[Events]
//Background and Video events
0,0,"333321.jpg",0,0
Video,-42,"optc.flv"
//Break Periods
//Storyboard Layer 0 (Background)
//Storyboard Layer 1 (Fail)
//Storyboard Layer 2 (Pass)
//Storyboard Layer 3 (Foreground)
//Storyboard Layer 4 (Overlay)
//Storyboard Sound Samples
Sample,88854,0,"stopped.mp3",40
Sample,95690,0,"FriendLeft.wav",100

[TimingPoints]
58,312.5,4,2,2,60,1,0
58,-133.333333333333,4,2,2,60,0,0
10058,-200,4,2,2,60,0,0
17558,-100,4,2,2,60,0,0
20058,-100,4,2,2,70,0,0
30058,-83.3333333333333,4,2,2,80,0,0
33183,-83.3333333333333,4,2,2,80,0,0
38808,-66.6666666666667,4,2,2,80,0,0
39745,-83.3333333333333,4,2,2,80,0,0
40058,-250,4,2,2,80,0,1
49979,-250,4,2,2,80,0,0
50058,-250,4,2,2,90,0,1
60058,-333.333333333333,4,2,3,50,0,0
69433,-200,4,2,3,55,0,0
70058,-133.333333333333,4,2,3,60,0,0
79433,-208.333333333333,4,2,3,50,0,0
95058,-200,4,2,2,60,0,0
99433,-100,4,2,5,60,0,0
100058,-133.333333333333,4,2,5,70,0,0
110058,-125,4,2,5,80,0,0
117558,-100,4,2,2,80,0,0
120058,-100,4,2,2,80,0,1
129979,-100,4,2,2,80,0,0
130058,-83.3333333333333,4,2,2,90,0,1
140058,-100,4,2,2,60,0,0
143183,-100,4,2,3,60,0,0

[Colours]
Combo1 : 64,255,112
Combo2 : 212,212,212
Combo3 : 106,106,106
Combo4 : 255,64,69
Combo5 : 64,112,255
Combo6 : 255,207,64
SliderTrackOverride : 0,0,0

[HitObjects]
173,27,58,5,2,3:2:0:0:
173,27,215,2,0,L|162:96,1,60.0000022888184,2|2,0:0|0:0,0:0:0:0:
52,104,526,5,2,3:2:0:0:
52,104,683,2,0,L|63:173,1,60.0000022888184,2|2,0:0|0:0,0:0:0:0:
186,20,995,69,2,3:2:0:0:
186,20,1151,2,0,L|175:89,1,60.0000022888184,2|2,0:0|0:0,0:0:0:0:
39,97,1464,5,2,3:2:0:0:
39,97,1620,2,0,L|50:166,1,60.0000022888184,2|2,0:0|0:0,0:0:0:0:
173,27,1933,70,0,L|162:96,1,60.0000022888184,2|0,3:2|0:0,0:0:0:0:
52,104,2245,6,0,L|63:173,1,60.0000022888184,2|0,3:2|0:0,0:0:0:0:
179,213,2558,69,2,3:2:0:0:
179,213,2714,2,0,P|208:200|241:201,1,60.0000022888184,2|2,0:0|0:0,0:0:0:0:
356,134,3026,5,2,3:2:0:0:
356,134,3182,2,0,P|326:121|293:122,1,60.0000022888184,2|2,0:0|0:0,0:0:0:0:
166,199,3495,69,2,3:2:0:0:
166,199,3651,2,0,P|195:186|228:187,1,60.0000022888184,2|2,0:0|0:0,0:0:0:0:
369,120,3964,5,2,3:2:0:0:
369,120,4120,2,0,P|339:107|306:108,1,60.0000022888184,2|2,0:0|0:0,0:0:0:0:
179,213,4433,70,0,P|208:200|241:201,1,60.0000022888184,2|0,3:2|0:0,0:0:0:0:
356,134,4745,6,0,P|326:121|293:122,1,60.0000022888184,2|0,3:2|0:0,0:0:0:0:
437,238,5058,70,0,L|428:310,2,60.0000022888184,2|2|2,3:2|0:0|0:0,0:0:0:0:
310,342,5526,6,0,L|301:270,2,60.0000022888184,2|2|2,3:2|0:0|0:0,0:0:0:0:
454,227,5995,70,0,L|446:286,2,60.0000022888184,2|2|2,3:2|0:0|0:0,0:0:0:0:
293,332,6464,6,0,L|284:260,2,60.0000022888184,2|2|2,3:2|0:0|0:0,0:0:0:0:
437,238,6933,70,0,L|428:310,1,60.0000022888184,2|0,3:2|0:0,0:0:0:0:
310,342,7245,6,0,L|301:270,1,60.0000022888184,2|0,3:2|0:0,0:0:0:0:
215,177,7558,69,2,3:2:0:0:
215,177,7714,2,0,P|172:201|143:201,1,60.0000022888184,2|2,0:0|0:0,0:0:0:0:
76,228,8026,5,2,3:2:0:0:
76,228,8182,2,0,P|76:178|91:153,1,60.0000022888184,2|2,0:0|0:0,0:0:0:0:
101,82,8495,70,0,P|143:107|157:132,1,60.0000022888184,2|2,3:2|0:0,0:0:0:0:
70,238,8808,5,2,0:0:0:0:
70,238,8964,2,0,P|57:190|65:162,1,60.0000022888184,0|0,3:0|0:0,0:0:0:0:
226,177,9276,69,2,0:0:0:0:
226,177,9433,2,0,P|190:211|162:218,1,60.0000022888184,0|0,3:0|0:0,0:0:0:0:
95,70,9745,5,2,0:0:0:0:
109,71,9823,1,0,0:0:0:0:
124,75,9901,1,0,0:0:0:0:
138,81,9979,1,0,0:0:0:0:
151,89,10058,70,0,B|253:22|381:61|381:61|342:126|385:215|501:173|484:106,1,480,0|0,1:0|1:0,0:0:0:0:
484,107,12558,6,0,B|447:216|481:343|481:343|447:216|360:140,1,480,0|0,1:0|1:0,0:0:0:0:
295,221,14589,2,0,P|256:213|217:221,1,80,0|0,1:0|0:0,0:0:0:0:
151,140,15058,70,0,B|64:216|30:343|30:343|64:216|28:107,1,480,0|0,1:0|1:0,0:0:0:0:
210,59,17558,5,8,0:0:0:0:
151,140,17714,1,8,0:0:0:0:
110,49,17870,69,8,0:0:0:0:
151,140,18026,1,8,0:0:0:0:
210,59,18183,5,8,0:0:0:0:
251,150,18339,1,8,0:0:0:0:
310,69,18495,69,8,0:0:0:0:
251,150,18651,1,8,0:0:0:0:
310,68,18808,5,8,0:0:0:0:
328,61,18886,1,8,0:0:0:0:
348,57,18964,1,8,0:0:0:0:
367,58,19042,1,8,0:0:0:0:
387,63,19120,1,8,0:0:0:0:
404,73,19198,1,8,0:0:0:0:
419,86,19276,1,8,0:0:0:0:
431,102,19354,1,8,0:0:0:0:
439,120,19433,6,0,L|446:149,6,20,8|0|0|0|0|0|0,0:0|0:0|0:0|0:0|0:0|0:0|0:0,0:0:0:0:
455,215,19745,54,0,L|455:235,6,20,8|0|0|0|0|0|0,0:0|0:0|0:0|0:0|0:0|0:0|0:0,0:0:0:0:
399,294,20058,22,0,P|363:280|323:281,1,80,4|2,1:2|0:0,0:0:0:0:
242,229,20370,2,0,L|251:150,1,80,8|2,0:0|0:0,0:0:0:0:
263,54,20683,1,0,0:0:0:0:
263,54,20839,1,2,1:2:0:0:
153,101,20995,2,0,P|122:76|83:74,1,80,8|2,0:0|0:0,0:0:0:0:
65,82,21229,1,0,0:0:0:0:
65,82,21308,54,0,L|56:161,1,80,0|2,1:0|0:0,0:0:0:0:
45,256,21620,1,8,0:0:0:0:
160,223,21776,1,2,0:0:0:0:
160,223,21854,1,0,0:0:0:0:
160,223,21933,2,0,L|165:264,3,40,2|2|2|2,1:2|0:0|1:2|0:0,0:0:0:0:
230,308,22245,1,10,0:0:0:0:
251,294,22323,1,2,0:0:0:0:
275,286,22401,1,2,1:2:0:0:
300,286,22479,1,2,0:0:0:0:
324,293,22558,22,0,P|361:316|411:315,1,80,0|2,1:0|0:0,0:0:0:0:
482,274,22870,2,0,L|474:179,1,80,8|2,0:0|0:0,0:0:0:0:
465,98,23183,1,0,1:0:0:0:
465,98,23339,1,2,1:2:0:0:
355,51,23495,2,0,P|345:89|315:115,1,80,8|2,0:0|0:0,0:0:0:0:
298,125,23729,1,0,0:0:0:0:
298,125,23808,70,0,L|206:117,1,80,0|2,1:0|1:2,0:0:0:0:
134,165,24120,1,8,0:0:0:0:
61,102,24276,1,2,0:0:0:0:
61,102,24354,2,0,L|57:60,1,40,8|0,0:0|0:0,0:0:0:0:
133,165,24589,1,2,1:2:0:0:
118,183,24667,1,2,0:0:0:0:
106,205,24745,1,10,0:0:0:0:
99,229,24823,1,2,0:0:0:0:
97,254,24901,1,2,1:2:0:0:
100,278,24979,1,2,1:2:0:0:
108,302,25058,6,0,L|205:293,1,80,0|2,1:0|0:0,0:0:0:0:
274,251,25370,2,0,P|313:253|343:278,1,80,8|2,0:0|0:0,0:0:0:0:
396,358,25683,1,0,0:0:0:0:
396,358,25839,1,2,1:2:0:0:
473,301,25995,2,0,L|480:221,1,80,8|2,0:0|0:0,0:0:0:0:
468,205,26229,1,0,0:0:0:0:
468,205,26308,54,0,L|475:125,1,80,0|2,1:0|0:0,0:0:0:0:
358,152,26620,2,0,L|350:72,1,80,8|2,0:0|0:0,0:0:0:0:
242,21,26933,1,2,1:2:0:0:
240,40,27011,1,2,0:0:0:0:
238,60,27089,1,2,1:2:0:0:
236,80,27167,1,2,0:0:0:0:
235,101,27245,2,0,L|227:180,1,80,10|2,0:0|0:0,0:0:0:0:
140,264,27558,21,0,1:0:0:0:
59,212,27714,1,2,0:0:0:0:
140,264,27870,2,0,L|132:343,1,80,8|2,0:0|1:2,0:0:0:0:
142,361,28104,1,8,0:0:0:0:
142,361,28183,1,0,0:0:0:0:
256,328,28339,2,0,L|256:288,2,40,10|8|8,0:0|0:0|0:0,0:0:0:0:
370,361,28650,1,2,1:2:0:0:
370,361,28729,1,0,1:0:0:0:
370,361,28808,53,4,1:0:0:0:
465,351,28964,1,4,1:0:0:0:
504,263,29120,21,4,1:0:0:0:
409,273,29276,1,4,1:0:0:0:
353,195,29433,53,4,1:0:0:0:
448,185,29589,1,4,1:0:0:0:
486,97,29745,21,0,1:0:0:0:
486,72,29823,1,0,1:0:0:0:
474,50,29901,53,0,1:0:0:0:
454,36,29979,1,0,1:0:0:0:
430,31,30058,22,0,P|394:54|338:53,1,95.9999970703126,4|2,1:2|0:0,0:0:0:0:
256,128,30370,2,0,L|256:224,1,95.9999970703126,8|2,0:0|0:0,0:0:0:0:
170,54,30683,1,0,0:0:0:0:
170,54,30839,1,2,1:2:0:0:
63,98,30995,2,0,P|45:142|49:189,1,95.9999970703126,8|2,0:0|0:0,0:0:0:0:
60,211,31229,1,0,0:0:0:0:
60,211,31308,70,0,L|154:227,1,95.9999970703126,0|2,1:0|0:0,0:0:0:0:
216,324,31620,2,0,L|121:340,1,95.9999970703126,8|2,0:0|0:0,0:0:0:0:
271,222,31933,1,2,1:2:0:0:
298,211,32011,1,2,0:0:0:0:
327,209,32089,1,2,1:2:0:0:
354,218,32167,1,2,0:0:0:0:
377,235,32245,2,0,L|429:228,3,47.9999985351563,10|2|2|2,0:0|0:0|1:2|0:0,0:0:0:0:
439,209,32558,6,0,P|468:238|457:306,1,95.9999970703126,0|2,1:0|0:0,0:0:0:0:
392,377,32870,2,0,L|296:371,1,95.9999970703126,8|2,0:0|0:0,0:0:0:0:
200,305,33183,1,0,1:0:0:0:
200,305,33339,1,2,1:2:0:0:
306,254,33495,2,0,P|321:210|313:163,1,95.9999970703126,8|2,0:0|0:0,0:0:0:0:
299,144,33729,1,0,0:0:0:0:
299,144,33808,54,0,L|203:134,1,95.9999970703126,0|2,1:0|1:2,0:0:0:0:
103,191,34120,1,8,0:0:0:0:
43,92,34276,1,2,0:0:0:0:
43,92,34354,1,0,0:0:0:0:
43,92,34433,2,0,P|36:69|40:45,1,47.9999985351563,6|2,1:2|0:0,0:0:0:0:
133,68,34589,2,0,P|149:50|171:42,1,47.9999985351563,6|2,1:2|0:0,0:0:0:0:
203,134,34745,1,10,0:0:0:0:
203,134,34823,1,2,0:0:0:0:
203,134,34901,2,0,P|226:138|244:153,1,47.9999985351563,2|2,1:2|1:2,3:0:0:0:
325,120,35058,22,0,L|421:130,1,95.9999970703126,4|2,1:2|0:0,0:0:0:0:
492,219,35370,2,0,P|466:257|419:260,1,95.9999970703126,8|2,0:0|0:0,0:0:0:0:
318,215,35683,1,0,0:0:0:0:
318,215,35839,1,2,1:2:0:0:
240,299,35995,2,0,P|195:315|148:315,1,95.9999970703126,8|2,0:0|0:0,0:0:0:0:
125,325,36229,1,0,0:0:0:0:
126,326,36308,70,0,P|77:296|39:306,1,95.9999970703126,0|2,1:0|0:0,0:0:0:0:
5,195,36620,2,0,L|106:182,1,95.9999970703126,8|2,0:0|0:0,0:0:0:0:
190,110,36933,1,2,1:2:0:0:
213,126,37011,1,2,0:0:0:0:
240,135,37089,1,2,1:2:0:0:
269,135,37167,1,2,0:0:0:0:
296,127,37245,2,0,P|337:105|385:109,1,95.9999970703126,10|2,0:0|0:0,0:0:0:0:
366,243,37558,5,0,1:0:0:0:
467,193,37714,1,2,0:0:0:0:
366,243,37870,2,0,P|324:220|276:224,1,95.9999970703126,8|2,0:0|1:2,0:0:0:0:
255,215,38104,2,0,P|231:255|185:266,1,95.9999970703126,10|2,0:0|1:2,0:0:0:0:
163,258,38339,1,10,0:0:0:0:
45,234,38495,1,2,1:2:0:0:
45,234,38573,2,0,L|36:182,1,47.9999985351563,10|0,0:0|0:0,0:0:0:0:
140,146,38808,54,0,P|118:102|84:82,2,80.0000030517579,4|4|4,1:0|1:0|1:0,0:0:0:0:
214,119,39120,2,0,L|228:40,2,80.0000030517579,4|4|4,1:0|1:0|1:0,0:0:0:0:
276,170,39433,2,0,P|313:136|352:129,2,80.0000030517579,4|4|4,1:0|1:0|1:0,0:0:0:0:
193,219,39745,21,8,0:0:0:0:
191,230,39823,1,8,0:0:0:0:
189,242,39901,1,8,0:0:0:0:
187,254,39979,1,8,0:0:0:0:
185,266,40058,69,4,1:2:0:0:
111,327,40214,6,0,P|85:310|54:313,1,64,0|8,1:0|0:0,0:0:0:0:
283,233,40683,54,0,L|276:170,1,64,8|0,0:0|1:0,0:0:0:0:
185,359,41151,6,0,B|236:366|236:366|257:354|257:354|309:360,1,128,0|8,1:0|0:0,0:0:0:0:
491,292,41933,5,8,0:0:0:0:
414,246,42089,1,0,1:0:0:0:
414,246,42167,1,0,1:0:0:0:
414,246,42245,2,0,L|378:254,1,32,12|0,0:0|1:0,0:0:0:0:
268,231,42558,53,0,1:0:0:0:
268,231,42636,1,0,1:0:0:0:
268,231,42714,1,0,1:0:0:0:
338,176,42870,2,0,L|342:140,1,32,0|8,1:0|0:0,0:0:0:0:
352,55,43183,5,4,1:2:0:0:
352,55,43339,1,4,1:2:0:0:
352,55,43495,1,0,1:0:0:0:
232,26,43651,6,0,B|239:77|239:77|227:98|227:98|233:150,1,128,0|4,1:0|1:2,0:0:0:0:
79,126,44433,53,12,0:2:0:0:
65,214,44589,5,0,1:0:0:0:
65,214,44667,1,0,1:0:0:0:
65,214,44745,1,12,0:2:0:0:
149,182,44901,5,12,0:2:0:0:
149,182,44979,1,8,0:0:0:0:
149,182,45058,1,4,1:0:0:0:
163,270,45214,54,0,L|173:333,1,64,0|12,1:0|0:0,0:0:0:0:
387,277,45683,6,0,P|355:271|331:251,1,64,12|0,0:0|1:0,0:0:0:0:
149,182,46151,6,0,B|200:175|200:175|221:187|221:187|273:181,1,128,0|8,1:0|0:0,0:0:0:0:
407,80,46933,53,8,0:0:0:0:
466,148,47089,1,0,1:0:0:0:
466,148,47167,1,0,1:0:0:0:
466,148,47245,2,0,L|463:182,1,32,4|0,1:2|1:0,0:0:0:0:
387,277,47557,5,0,1:0:0:0:
387,277,47636,1,0,1:0:0:0:
387,277,47714,1,0,1:0:0:0:
472,307,47870,2,0,L|504:300,1,32,0|8,1:0|0:0,0:0:0:0:
404,365,48183,5,4,1:2:0:0:
404,365,48339,1,4,1:2:0:0:
404,365,48495,1,0,1:0:0:0:
319,335,48651,53,0,1:0:0:0:
305,341,48729,1,0,1:0:0:0:
290,345,48808,1,0,1:0:0:0:
274,348,48885,1,0,1:0:0:0:
258,349,48963,1,0,1:0:0:0:
170,327,49120,5,0,1:0:0:0:
232,263,49276,5,0,1:0:0:0:
232,263,49354,1,0,1:0:0:0:
232,263,49433,2,0,L|240:231,1,32,0|0,1:0|1:0,0:0:0:0:
142,198,49745,53,8,0:0:0:0:
127,97,49901,1,0,0:0:0:0:
127,97,49979,1,0,0:0:0:0:
127,97,50058,5,4,1:2:0:0:
266,121,50214,6,0,L|261:57,1,64,0|8,1:0|0:0,0:0:0:0:
391,195,50683,54,0,P|424:176|454:177,1,64,8|0,0:0|1:0,0:0:0:0:
488,316,51151,6,0,B|436:310|436:310|415:322|415:322|364:315,1,128,0|8,1:0|0:0,0:0:0:0:
228,240,51933,5,8,0:0:0:0:
160,298,52089,1,0,1:0:0:0:
160,298,52167,1,0,1:0:0:0:
160,298,52245,2,0,L|164:334,1,32,4|0,1:2|1:0,0:0:0:0:
51,374,52558,53,0,1:0:0:0:
51,374,52636,1,0,1:0:0:0:
51,374,52714,1,0,1:0:0:0:
41,285,52870,2,0,L|38:253,1,32,0|8,1:0|0:0,0:0:0:0:
135,167,53183,5,4,1:2:0:0:
135,167,53339,1,4,1:2:0:0:
135,167,53495,1,0,1:0:0:0:
105,49,53651,6,0,B|156:42|156:42|177:54|177:54|229:48,1,128,0|4,1:0|1:2,0:0:0:0:
368,117,54433,53,12,0:0:0:0:
389,30,54589,5,0,1:0:0:0:
389,30,54667,1,0,1:0:0:0:
389,30,54745,1,12,0:0:0:0:
476,51,54901,5,12,0:0:0:0:
476,51,54979,1,8,0:0:0:0:
476,51,55058,1,0,1:0:0:0:
456,138,55214,54,0,P|473:163|474:195,1,64,0|8,1:0|0:0,0:0:0:0:
273,300,55683,6,0,L|208:304,1,64,8|0,0:0|1:0,0:0:0:0:
370,329,56151,6,0,B|376:277|376:277|364:256|364:256|371:205,1,128,0|8,1:0|0:0,0:0:0:0:
288,75,56933,53,8,0:0:0:0:
200,59,57089,1,0,1:0:0:0:
200,59,57167,1,0,1:0:0:0:
200,59,57245,2,0,L|167:53,1,32,4|0,1:2|1:0,0:0:0:0:
62,107,57557,5,0,1:0:0:0:
62,107,57636,1,0,1:0:0:0:
62,107,57714,1,0,1:0:0:0:
120,175,57870,2,0,L|113:207,1,32,0|8,1:0|0:0,0:0:0:0:
26,283,58183,5,0,1:0:0:0:
26,283,58339,1,0,1:0:0:0:
26,283,58495,1,0,1:0:0:0:
79,355,58651,53,0,1:0:0:0:
79,355,58730,1,0,0:0:0:0:
79,355,58808,1,0,0:0:0:0:
157,298,58964,5,0,1:0:0:0:
173,295,59042,1,0,1:0:0:0:
189,293,59120,1,0,1:0:0:0:
265,340,59276,1,0,0:0:0:0:
352,317,59433,6,0,L|385:321,1,32,0|0,1:0|1:0,0:0:0:0:
472,336,59745,53,8,0:0:0:0:
476,347,59823,1,0,0:0:0:0:
480,358,59901,1,8,0:0:0:0:
484,370,59979,1,0,0:0:0:0:
488,381,60058,54,0,P|464:290|504:204,1,191.999994140625,2|0,0:3|0:0,0:0:0:0:
463,111,62558,38,0,P|374:132|308:68,1,191.999994140625,2|0,0:3|0:0,0:0:0:0:
205,68,65058,38,0,P|139:132|50:111,1,191.999994140625,2|0,0:3|0:0,0:0:0:0:
9,204,67558,38,0,P|49:290|25:381,1,191.999994140625,2|0,0:3|0:0,0:0:0:0:
256,312,69433,70,0,L|256:352,2,40,2|2|2,0:0|0:0|0:0,0:0:0:0:
380,153,70058,54,0,P|353:122|266:118,1,120.000004577637,2|2,0:3|0:0,0:0:0:0:
346,197,70683,38,0,P|338:157|264:110,1,120.000004577637,2|2,0:0|0:0,0:0:0:0:
295,220,71308,38,0,P|308:181|267:104,1,120.000004577637,2|2,0:0|0:0,0:0:0:0:
239,213,71933,38,0,P|269:186|273:99,1,120.000004577637,2|2,0:0|0:0,0:0:0:0:
140,150,72558,37,2,0:3:0:0:
140,150,72714,2,0,P|83:140|34:173,1,120.000004577637,2|2,0:0|0:0,0:0:0:0:
54,260,73183,21,0,0:0:0:0:
54,260,73339,2,0,P|111:270|160:237,1,120.000004577637,2|2,0:0|0:0,0:0:0:0:
140,150,73808,53,0,0:0:0:0:
140,150,73964,2,0,P|83:140|34:173,1,120.000004577637,2|2,0:0|0:0,0:0:0:0:
54,260,74433,21,0,0:0:0:0:
54,260,74589,2,0,P|111:270|160:237,1,120.000004577637,2|2,0:0|0:0,0:0:0:0:
256,288,75058,53,2,0:3:0:0:
256,288,75214,2,0,P|304:255|362:265,1,120.000004577637,2|0,0:0|0:0,0:0:0:0:
419,336,75683,38,0,B|386:309|386:309|403:161,1,180.000006866455,2|2,0:0|0:0,0:0:0:0:
482,131,76308,38,0,B|515:158|515:158|498:306,1,180.000006866455,2|2,0:0|0:0,0:0:0:0:
419,336,76933,38,0,B|386:309|386:309|403:161,1,180.000006866455,2|2,0:0|0:0,0:0:0:0:
361,91,77558,37,2,0:3:0:0:
361,91,77714,1,0,0:0:0:0:
361,91,77870,2,0,P|381:61|380:38,1,60.0000022888184,2|2,0:0|0:0,0:0:0:0:
289,37,78183,21,2,0:0:0:0:
289,37,78339,1,0,0:0:0:0:
288,36,78495,2,0,P|259:32|233:46,1,60.0000022888184,2|2,0:0|0:0,0:0:0:0:
278,126,78808,53,2,0:0:0:0:
278,126,78964,1,2,0:0:0:0:
278,126,79120,2,0,P|293:158|314:168,1,60.0000022888184,2|2,0:0|0:0,0:0:0:0:
360,90,79433,22,0,P|307:39|234:46,1,153.60000375,8|2,0:3|0:3,0:0:0:0:
256,192,80136,12,2,81308,0:0:0:0:
256,192,82558,12,2,83808,0:0:0:0:
256,192,85058,12,2,86308,0:0:0:0:
256,192,87558,12,2,88808,0:0:0:0:
256,192,88847,12,2,95058,3:2:0:0:
118,76,99433,37,2,0:0:0:0:
232,39,99745,21,2,0:0:0:0:
208,156,100058,6,0,P|265:151|320:181,1,120.000004577637,2|0,1:2|3:0,0:0:0:0:
481,101,100683,1,0,0:0:0:0:
481,101,100839,1,0,3:0:0:0:
481,101,100995,2,0,L|471:164,1,60.0000022888184,2|0,1:2|3:0,0:0:0:0:
501,245,101308,38,0,P|444:240|389:270,1,120.000004577637,0|0,1:0|3:0,0:0:0:0:
240,369,101933,1,0,0:0:0:0:
240,369,102089,1,0,3:0:0:0:
240,369,102245,2,0,P|210:341|181:337,1,60.0000022888184,2|2,1:2|3:2,0:0:0:0:
140,263,102558,22,0,P|104:296|28:295,1,120.000004577637,2|0,1:2|3:0,0:0:0:0:
131,145,103183,1,0,0:0:0:0:
131,145,103339,1,0,0:0:0:0:
131,145,103495,2,0,P|169:145|199:163,1,60.0000022888184,0|0,0:0|3:0,0:0:0:0:
261,207,103808,6,0,P|324:201|380:172,1,120.000004577637,2|0,1:2|3:0,0:0:0:0:
441,116,104276,2,0,P|449:59|397:17,1,120.000004577637,2|0,0:0|0:0,0:0:0:0:
316,10,104745,1,2,0:0:0:0:
238,55,104901,1,0,3:0:0:0:
238,55,104979,1,0,3:0:0:0:
238,55,105058,38,0,P|176:70|109:61,1,120.000004577637,2|0,1:2|3:0,0:0:0:0:
51,230,105683,1,0,0:0:0:0:
51,230,105839,1,0,3:0:0:0:
51,230,105995,2,0,L|44:170,1,60.0000022888184,0|0,0:0|0:0,0:0:0:0:
132,268,106308,22,0,P|171:241|243:245,1,120.000004577637,2|0,1:2|3:0,0:0:0:0:
323,207,106776,2,0,P|329:265|297:314,1,120.000004577637,2|0,1:2|3:0,0:0:0:0:
224,368,107245,2,0,P|189:354|158:352,1,60.0000022888184,2|0,1:2|3:0,0:0:0:0:
297,315,107558,6,0,B|383:291|382:368|467:344,2,180.000006866455,2|2|2,1:2|1:2|1:2,0:0:0:0:
241,244,108651,1,0,3:0:0:0:
241,244,108808,38,0,P|264:205|266:124,1,120.000004577637,0|0,1:0|3:0,0:0:0:0:
438,73,109433,1,0,3:0:0:0:
499,146,109589,1,0,0:0:0:0:
499,146,109667,2,0,P|495:189|452:213,1,90.0000034332277,0|0,3:0|3:0,0:0:0:0:
341,246,110058,22,0,P|282:217|218:228,1,128,0|0,1:0|3:0,0:0:0:0:
151,290,110526,2,0,P|112:299|81:231,1,128,0|0,1:0|3:0,0:0:0:0:
148,161,110995,2,0,P|161:117|152:88,1,64,2|0,1:2|3:0,0:0:0:0:
89,32,111308,5,0,0:0:0:0:
284,139,111620,1,2,3:2:0:0:
212,202,111776,2,0,P|266:235|328:224,1,128,0|2,1:0|3:2,0:0:0:0:
422,246,112245,2,0,L|485:237,1,64,0|0,0:0|3:0,0:0:0:0:
494,224,112479,1,0,3:0:0:0:
503,211,112558,38,0,P|472:185|482:102,1,128,2|0,1:2|3:0,0:0:0:0:
416,32,113026,2,0,P|368:61|288:67,1,128,0|0,1:0|0:0,0:0:0:0:
205,38,113495,1,0,1:0:0:0:
205,38,113651,1,0,3:0:0:0:
106,98,113808,22,0,P|147:117|141:203,1,128,2|0,1:2|3:0,0:0:0:0:
76,253,114276,2,0,P|47:263|28:289,1,64,2|0,1:2|0:0,0:0:0:0:
108,342,114589,2,0,P|171:340|229:365,1,128,2|0,0:0|3:0,0:0:0:0:
246,356,114979,1,0,3:0:0:0:
262,346,115058,6,0,P|266:306|346:302,1,128,2|0,1:2|3:0,0:0:0:0:
429,331,115526,2,0,P|433:269|396:219,1,128,2|0,1:2|3:0,0:0:0:0:
319,160,115995,2,0,P|284:178|254:180,1,64,2|2,1:2|3:2,0:0:0:0:
189,246,116308,38,0,P|155:220|64:209,1,128,0|0,0:0|3:0,0:0:0:0:
6,137,116776,2,0,P|8:94|83:63,1,128,2|0,1:2|3:0,0:0:0:0:
164,103,117245,2,0,L|156:179,1,64,2|0,1:2|3:0,0:0:0:0:
144,311,117558,21,8,0:0:0:0:
254,356,117714,1,8,0:0:0:0:
144,311,117870,5,8,0:0:0:0:
254,356,118026,1,8,0:0:0:0:
238,239,118183,53,8,0:0:0:0:
254,356,118339,1,8,0:0:0:0:
238,239,118495,69,8,0:0:0:0:
254,356,118651,1,8,0:0:0:0:
348,283,118808,21,8,0:0:0:0:
369,297,118886,1,8,0:0:0:0:
385,316,118964,1,8,0:0:0:0:
394,339,119042,1,8,0:0:0:0:
397,363,119120,1,8,0:0:0:0:
406,340,119198,1,8,0:0:0:0:
421,320,119276,1,8,0:0:0:0:
442,306,119354,1,8,0:0:0:0:
466,298,119433,54,0,L|496:299,6,20,8|0|0|0|0|0|0,0:0|0:0|0:0|0:0|0:0|0:0|0:0,0:0:0:0:
441,216,119745,38,0,L|457:190,6,20,8|0|0|0|0|0|0,0:0|0:0|0:0|0:0|0:0|0:0|0:0,0:0:0:0:
362,189,120058,37,4,1:0:0:0:
429,122,120214,1,2,0:0:0:0:
429,122,120292,1,2,0:0:0:0:
429,122,120370,2,0,P|431:82|416:46,1,80,10|2,0:0|0:0,0:0:0:0:
362,189,120683,21,0,1:0:0:0:
337,97,120839,1,2,0:0:0:0:
337,97,120917,1,2,0:0:0:0:
337,97,120995,2,0,P|304:74|264:69,1,80,10|2,0:0|0:0,0:0:0:0:
362,189,121308,53,0,1:0:0:0:
269,166,121464,1,2,0:0:0:0:
269,166,121542,1,2,0:0:0:0:
269,166,121620,2,0,P|232:182|209:214,1,80,10|2,0:0|0:0,0:0:0:0:
96,287,121933,21,2,1:2:0:0:
97,273,122011,1,2,0:0:0:0:
98,258,122089,1,2,0:0:0:0:
100,243,122167,1,2,0:0:0:0:
118,215,122245,2,0,L|112:160,3,40,10|2|2|2,0:0|0:0|0:0|0:0,0:0:0:0:
88,155,122558,54,0,L|95:75,1,80,0|2,1:0|0:0,0:0:0:0:
110,62,122792,1,2,0:0:0:0:
110,62,122870,2,0,P|155:76|202:71,1,80,10|2,0:0|0:0,0:0:0:0:
298,27,123183,21,0,1:0:0:0:
298,27,123339,1,2,1:2:0:0:
373,86,123495,2,0,L|459:76,1,80,10|0,0:0|0:0,0:0:0:0:
262,134,123808,53,0,1:0:0:0:
337,193,123964,1,2,1:2:0:0:
337,193,124042,1,2,1:2:0:0:
337,193,124120,2,0,L|423:183,1,80,10|0,0:0|1:0,0:0:0:0:
432,197,124354,6,0,P|434:256|462:308,1,120,8|0,0:0|1:0,0:0:0:0:
448,322,124667,1,0,0:0:0:0:
428,320,124745,1,8,0:0:0:0:
408,318,124823,1,0,0:0:0:0:
388,316,124901,2,0,L|348:324,1,40,0|0,1:0|1:0,0:0:0:0:
253,338,125058,69,0,1:0:0:0:
177,280,125214,1,2,0:0:0:0:
177,280,125292,1,2,0:0:0:0:
177,280,125370,2,0,L|186:195,1,80,10|2,0:0|0:0,0:0:0:0:
165,374,125683,21,0,1:0:0:0:
177,280,125839,1,2,0:0:0:0:
177,280,125917,1,2,0:0:0:0:
177,280,125995,2,0,L|186:195,1,80,10|2,0:0|0:0,0:0:0:0:
89,316,126308,53,0,1:0:0:0:
177,280,126464,1,2,0:0:0:0:
177,280,126542,1,2,0:0:0:0:
177,280,126620,2,0,L|186:195,1,80,10|2,0:0|0:0,0:0:0:0:
261,102,126933,21,2,1:2:0:0:
247,101,127011,1,2,0:0:0:0:
232,100,127089,1,2,0:0:0:0:
217,98,127167,1,2,0:0:0:0:
189,80,127245,2,0,L|137:86,3,40,10|2|2|2,0:0|0:0|0:0|0:0,0:0:0:0:
128,109,127558,54,0,L|48:102,1,80,0|2,1:0|0:0,0:0:0:0:
33,115,127792,1,2,0:0:0:0:
33,115,127870,2,0,P|21:174|39:209,1,80,10|2,0:0|0:0,0:0:0:0:
90,292,128183,21,0,1:0:0:0:
177,280,128339,1,2,1:2:0:0:
177,280,128417,1,2,0:0:0:0:
177,280,128495,2,0,L|187:360,1,80,10|2,0:0|0:0,0:0:0:0:
235,204,128808,53,0,1:0:0:0:
235,204,128964,1,2,1:2:0:0:
310,264,129120,2,0,L|390:254,1,80,10|2,0:0|1:2,0:0:0:0:
406,266,129354,6,0,L|393:124,1,120,8|2,0:0|1:2,0:0:0:0:
404,130,129667,1,0,0:0:0:0:
375,136,129745,1,2,1:2:0:0:
345,134,129823,1,2,0:0:0:0:
317,125,129901,1,2,1:2:0:0:
292,109,129979,1,0,1:0:0:0:
274,85,130058,69,4,1:0:0:0:
254,88,130136,1,2,0:0:0:0:
234,90,130214,1,2,0:0:0:0:
214,93,130292,1,2,0:0:0:0:
194,95,130370,2,0,L|179:190,1,95.9999970703126,10|2,0:0|0:0,0:0:0:0:
122,291,130683,21,0,1:0:0:0:
102,288,130761,1,2,0:0:0:0:
82,286,130839,1,2,0:0:0:0:
62,283,130917,1,2,0:0:0:0:
42,281,130995,2,0,L|27:187,1,95.9999970703126,10|2,0:0|0:0,0:0:0:0:
13,73,131308,53,0,1:0:0:0:
32,78,131386,1,2,0:0:0:0:
52,79,131464,1,2,0:0:0:0:
72,75,131542,1,2,0:0:0:0:
90,67,131620,2,0,P|124:43|185:45,1,95.9999970703126,10|2,0:0|0:0,0:0:0:0:
284,87,131933,5,2,1:2:0:0:
303,92,132011,1,2,0:0:0:0:
323,96,132089,1,2,0:0:0:0:
342,101,132167,1,2,0:0:0:0:
371,123,132245,2,0,L|423:106,3,47.9999985351563,10|2|2|2,0:0|0:0|0:0|0:0,0:0:0:0:
441,81,132558,69,0,1:0:0:0:
447,105,132636,1,0,0:0:0:0:
454,128,132714,1,2,0:0:0:0:
460,151,132792,1,2,0:0:0:0:
467,174,132870,2,0,P|467:221|447:264,1,95.9999970703126,10|2,0:0|0:0,0:0:0:0:
337,226,133183,21,0,1:0:0:0:
337,226,133339,1,2,1:2:0:0:
249,301,133495,2,0,L|139:289,1,95.9999970703126,10|0,0:0|1:0,0:0:0:0:
82,200,133808,53,0,1:0:0:0:
106,200,133886,1,2,0:0:0:0:
129,193,133964,1,2,1:2:0:0:
149,181,134042,1,2,1:2:0:0:
165,163,134120,2,0,L|177:63,1,95.9999970703126,10|0,0:0|1:0,0:0:0:0:
166,47,134354,6,0,P|235:58|292:17,1,143.999995605469,8|2,0:0|1:2,0:0:0:0:
306,37,134667,1,0,0:0:0:0:
329,36,134745,1,10,0:0:0:0:
353,34,134823,1,2,0:0:0:0:
377,33,134901,2,0,L|439:26,1,47.9999985351563,2|2,1:2|1:2,0:0:0:0:
500,89,135058,69,2,1:2:0:0:
410,161,135214,1,2,1:2:0:0:
410,161,135292,1,2,0:0:0:0:
410,161,135370,2,0,P|396:207|401:255,1,95.9999970703126,10|2,0:0|1:2,0:0:0:0:
462,353,135683,21,2,1:2:0:0:
439,356,135761,1,0,0:0:0:0:
415,358,135839,1,2,1:2:0:0:
391,360,135917,1,2,0:0:0:0:
367,363,135995,2,0,P|322:322|259:326,1,95.9999970703126,10|2,0:0|1:2,0:0:0:0:
176,344,136308,53,2,1:2:0:0:
86,272,136464,1,2,1:2:0:0:
86,272,136542,1,2,0:0:0:0:
86,272,136620,2,0,P|72:227|77:179,1,95.9999970703126,10|2,0:0|1:2,0:0:0:0:
136,80,136933,5,0,1:0:0:0:
160,77,137011,1,2,0:0:0:0:
184,74,137089,1,2,1:2:0:0:
207,72,137167,1,2,0:0:0:0:
231,69,137245,1,10,0:0:0:0:
336,116,137401,5,2,1:2:0:0:
336,116,137479,1,2,1:2:0:0:
336,116,137558,53,10,0:0:0:0:
243,183,137714,1,10,0:0:0:0:
375,205,137870,21,10,0:0:0:0:
282,272,138026,1,10,0:0:0:0:
354,124,138183,5,10,0:0:0:0:
261,191,138339,1,10,0:0:0:0:
393,213,138495,53,10,0:0:0:0:
300,280,138651,1,10,0:0:0:0:
242,183,138808,69,8,0:0:0:0:
222,172,138886,1,8,0:0:0:0:
199,165,138964,1,8,0:0:0:0:
175,163,139042,1,8,0:0:0:0:
151,167,139120,1,8,0:0:0:0:
129,176,139198,1,8,0:0:0:0:
109,190,139276,1,8,0:0:0:0:
93,208,139354,1,8,0:0:0:0:
82,229,139433,22,0,L|72:263,6,23.9999992675781,8|0|8|0|8|0|8,0:0|0:0|0:0|0:0|0:0|0:0|0:0,0:0:0:0:
59,331,139745,6,0,L|59:355,7,23.9999992675781,8|0|0|0|0|0|0|0,0:0|0:0|0:0|0:0|0:0|0:0|0:0|0:0,0:0:0:0:
256,192,140058,12,0,143183,0:0:0:0:
