osu file format v14

[General]
AudioFilename: audio.mp3
AudioLeadIn: 0
PreviewTime: 97174
Countdown: 0
SampleSet: Soft
StackLeniency: 0.2
Mode: 0
LetterboxInBreaks: 0
EpilepsyWarning: 1
WidescreenStoryboard: 1

[Editor]
Bookmarks: 21075,38653
DistanceSpacing: 0.4
BeatDivisor: 8
GridSize: 8
TimelineZoom: 2.799999

[Metadata]
Title:R.I.P.
TitleUnicode:R.I.P.
Artist:eicateve
ArtistUnicode:eicateve
Creator:Firika
Version:Heaven
Source:CHUNITHM CRYSTAL
Tags:BMS RIP Rest in Peace G2R2018 -GO BACK 2 YOUR ROOTS 2018 climax- 旅立った彼女へ Her requiem えいか eicaTV シ 死 hrchem TOHRU MiTSUHASHi SEGA Quantum Rosta Necho sudaasd Reincarnation
BeatmapID:2305272
BeatmapSetID:1103441

[Difficulty]
HPDrainRate:5
CircleSize:4.6
OverallDifficulty:8
ApproachRate:9.4
SliderMultiplier:1.6
SliderTickRate:1

[Events]
//Background and Video events
0,0,"333321.jpg",0,0
Video,-42,"optc.flv"
//Break Periods
//Storyboard Layer 0 (Background)
//Storyboard Layer 1 (Fail)
//Storyboard Layer 2 (Pass)
//Storyboard Layer 3 (Foreground)
//Storyboard Layer 4 (Overlay)
//Storyboard Sound Samples
Sample,88854,0,"stopped.mp3",40
Sample,95690,0,"FriendLeft.wav",100

[TimingPoints]
58,312.5,4,2,2,60,1,0
58,-133.333333333333,4,2,2,60,0,0
12558,-200,4,2,2,60,0,0
15058,-181.818181818182,4,2,2,60,0,0
17558,-100,4,2,2,60,0,0
20058,-83.3333333333333,4,2,2,70,0,0
23183,-83.3333333333333,4,2,2,70,0,0
23261,-83.3333333333333,4,2,2,5,0,0
23339,-83.3333333333333,4,2,2,70,0,0
23417,-83.3333333333333,4,2,2,5,0,0
23495,-83.3333333333333,4,2,2,70,0,0
23808,-83.3333333333333,4,2,2,70,0,0
23886,-83.3333333333333,4,2,2,5,0,0
23964,-83.3333333333333,4,2,2,70,0,0
24042,-83.3333333333333,4,2,2,5,0,0
24120,-83.3333333333333,4,2,2,70,0,0
28808,-66.6666666666667,4,2,2,70,0,0
28886,-66.6666666666667,4,2,2,5,0,0
28964,-66.6666666666667,4,2,2,70,0,0
29042,-66.6666666666667,4,2,2,5,0,0
29120,-66.6666666666667,4,2,2,70,0,0
29198,-66.6666666666667,4,2,2,5,0,0
29276,-66.6666666666667,4,2,2,70,0,0
29511,-66.6666666666667,4,2,2,5,0,0
29589,-66.6666666666667,4,2,2,70,0,0
29979,-66.6666666666667,4,2,2,70,0,0
30058,-66.6666666666667,4,2,2,80,0,0
33183,-66.6666666666667,4,2,2,80,0,0
33261,-66.6666666666667,4,2,2,5,0,0
33339,-66.6666666666667,4,2,2,80,0,0
33417,-66.6666666666667,4,2,2,5,0,0
33495,-66.6666666666667,4,2,2,80,0,0
33808,-66.6666666666667,4,2,2,80,0,0
33886,-66.6666666666667,4,2,2,5,0,0
33964,-66.6666666666667,4,2,2,80,0,0
34042,-66.6666666666667,4,2,2,5,0,0
34120,-66.6666666666667,4,2,2,80,0,0
38808,-50,4,2,2,80,0,0
39120,-66.6666666666667,4,2,2,80,0,0
39433,-83.3333333333333,4,2,2,80,0,0
40058,-83.3333333333333,4,2,2,80,0,1
40683,-200,4,2,2,80,0,1
41776,-100,4,2,2,80,0,1
42245,-100,4,2,2,80,0,1
42323,-100,4,2,2,5,0,1
42401,-100,4,2,2,80,0,1
42479,-100,4,2,2,5,0,1
42558,-100,4,2,2,80,0,1
43183,-200,4,2,2,80,0,1
44433,-100,4,2,2,80,0,1
44511,-100,4,2,2,5,0,1
44589,-100,4,2,2,80,0,1
44823,-100,4,2,2,5,0,1
44901,-100,4,2,2,80,0,1
45683,-200,4,2,2,80,0,1
46776,-100,4,2,2,80,0,1
46854,-100,4,2,2,5,0,1
46933,-100,4,2,2,80,0,1
47011,-100,4,2,2,5,0,1
47089,-100,4,2,2,80,0,1
48261,-100,4,2,2,5,0,1
48339,-100,4,2,2,80,0,1
48417,-100,4,2,2,5,0,1
48495,-100,4,2,2,80,0,1
49979,-100,4,2,2,80,0,0
50058,-100,4,2,2,90,0,1
50683,-200,4,2,2,90,0,1
51776,-100,4,2,2,90,0,1
51854,-100,4,2,2,5,0,1
51933,-100,4,2,2,90,0,1
52011,-100,4,2,2,5,0,1
52089,-100,4,2,2,90,0,1
55604,-100,4,2,2,5,0,1
55683,-100,4,2,2,90,0,1
56073,-100,4,2,2,5,0,1
56151,-100,4,2,2,90,0,1
56854,-100,4,2,2,5,0,1
56933,-100,4,2,2,90,0,1
57011,-100,4,2,2,5,0,1
57089,-100,4,2,2,90,0,1
58183,-200,4,2,2,90,0,1
59433,-100,4,2,2,90,0,1
59511,-100,4,2,2,5,0,1
59589,-100,4,2,2,90,0,1
59667,-100,4,2,2,5,0,1
59745,-100,4,2,2,90,0,1
59823,-100,4,2,2,5,0,1
59901,-100,4,2,2,90,0,1
59979,-100,4,2,2,5,0,1
60058,-200,4,2,3,50,0,0
69433,-200,4,2,3,55,0,0
70058,-133.333333333333,4,2,3,60,0,0
77558,-200,4,2,3,60,0,0
79433,-500,4,2,3,50,0,0
80058,-500,4,2,3,50,0,0
81308,-500,4,2,3,30,0,0
82558,-500,4,2,3,50,0,0
83808,-500,4,2,3,30,0,0
85058,-500,4,2,3,50,0,0
86308,-500,4,2,3,30,0,0
87558,-500,4,2,3,50,0,0
90058,-1000,4,2,3,50,0,0
94979,-1000,4,2,3,5,0,0
95058,-200,4,2,2,60,0,0
99433,-200,4,2,5,60,0,0
100058,-125,4,2,5,70,0,0
110058,-125,4,2,5,80,0,0
117558,-125,4,2,2,80,0,0
119433,-100,4,2,2,80,0,0
120058,-66.6666666666667,4,2,2,80,0,1
129979,-66.6666666666667,4,2,2,80,0,0
130058,-55.5555555555556,4,2,2,90,0,1
139745,-50,4,2,2,90,0,1
140058,-50,4,2,2,60,0,0
143183,-50,4,2,3,60,0,0

[Colours]
Combo1 : 64,255,112
Combo2 : 212,212,212
Combo3 : 106,106,106
Combo4 : 255,64,69
Combo5 : 64,112,255
Combo6 : 255,207,64
SliderTrackOverride : 0,0,0

[HitObjects]
56,336,58,6,0,P|44:308|23:287,2,60.0000022888184,2|2|2,3:2|0:0|0:0,0:0:0:0:
131,288,526,2,0,L|141:228,2,60.0000022888184,2|2|2,3:2|0:0|0:0,0:0:0:0:
185,359,995,2,0,P|205:337|232:324,2,60.0000022888184,2|2|2,3:2|0:0|0:0,0:0:0:0:
131,288,1464,2,0,L|141:228,2,60.0000022888184,2|2|2,3:2|0:0|0:0,0:0:0:0:
56,336,1933,6,0,P|44:308|23:287,1,60.0000022888184,2|0,3:2|0:0,0:0:0:0:
185,359,2245,2,0,P|205:337|232:324,1,60.0000022888184,2|0,3:2|0:0,0:0:0:0:
329,290,2558,70,0,L|404:302,2,60.0000022888184,2|2|2,3:2|0:0|0:0,0:0:0:0:
377,202,3026,2,0,L|437:202,2,60.0000022888184,2|2|2,3:2|0:0|0:0,0:0:0:0:
329,114,3495,2,0,L|404:102,2,60.0000022888184,2|2|2,3:2|0:0|0:0,0:0:0:0:
377,202,3964,2,0,L|437:202,2,60.0000022888184,2|2|2,3:2|0:0|0:0,0:0:0:0:
329,290,4433,6,0,L|404:302,1,60.0000022888184,2|0,3:2|0:0,0:0:0:0:
329,114,4745,2,0,L|404:102,1,60.0000022888184,2|0,3:2|0:0,0:0:0:0:
233,55,5058,69,2,3:2:0:0:
134,32,5214,1,2,0:0:0:0:
164,129,5370,1,2,0:0:0:0:
222,60,5526,5,2,3:2:0:0:
123,37,5682,1,2,0:0:0:0:
153,134,5838,1,2,0:0:0:0:
211,65,5995,69,2,3:2:0:0:
112,42,6151,1,2,0:0:0:0:
142,139,6307,1,2,0:0:0:0:
200,70,6464,5,2,3:2:0:0:
101,47,6620,1,2,0:0:0:0:
131,144,6776,1,2,0:0:0:0:
189,75,6933,69,2,3:2:0:0:
90,53,7089,1,0,0:0:0:0:
120,149,7245,5,2,3:2:0:0:
21,127,7401,1,0,0:0:0:0:
51,223,7558,70,0,P|40:250|44:280,1,60.0000022888184,2|2,3:2|0:0,0:0:0:0:
102,364,7870,1,2,0:0:0:0:
154,236,8026,6,0,P|159:265|176:289,1,60.0000022888184,2|2,3:2|0:0,0:0:0:0:
269,332,8338,1,2,0:0:0:0:
250,195,8495,70,0,P|269:217|296:229,1,60.0000022888184,2|2,3:2|0:0,0:0:0:0:
398,220,8808,5,2,0:0:0:0:
371,117,8964,2,0,P|343:106|313:110,1,60.0000022888184,0|0,3:0|0:0,0:0:0:0:
269,332,9276,69,2,0:0:0:0:
296,230,9433,2,0,P|276:207|249:195,1,60.0000022888184,0|0,3:0|0:0,0:0:0:0:
102,364,9745,5,2,0:0:0:0:
109,357,9823,1,0,0:0:0:0:
116,350,9901,1,0,0:0:0:0:
123,343,9979,1,0,0:0:0:0:
176,289,10058,70,0,B|147:202|46:177|46:177|101:168|101:168|148:161|171:101|131:50|83:58|83:58|13:69|13:69|50:306,1,720.000027465821,0|0,1:0|1:0,0:0:0:0:
216,312,12558,6,0,B|296:311|296:311|255:303|255:303|256:63|256:63|216:55|216:55|294:55,1,480,0|0,1:0|1:0,0:0:0:0:
378,165,14589,1,0,1:0:0:0:
336,289,15058,70,0,B|361:50|361:50|432:57|432:57|480:62|506:121|468:174|420:169|420:169|378:165,1,528.000016113282,0|0,1:0|1:0,0:0:0:0:
266,76,17558,5,8,0:0:0:0:
266,76,17714,1,8,0:0:0:0:
457,102,17870,69,8,0:0:0:0:
457,102,18026,1,8,0:0:0:0:
305,210,18183,5,8,0:0:0:0:
305,210,18339,1,8,0:0:0:0:
457,102,18495,69,8,0:0:0:0:
457,102,18651,1,8,0:0:0:0:
370,44,18808,5,8,0:0:0:0:
367,73,18886,1,8,0:0:0:0:
364,103,18964,1,8,0:0:0:0:
361,133,19042,1,8,0:0:0:0:
381,156,19120,1,8,0:0:0:0:
400,178,19198,1,8,0:0:0:0:
397,208,19276,1,8,0:0:0:0:
394,238,19354,1,8,0:0:0:0:
391,268,19433,6,0,L|387:301,2,20,8|0|0,0:0|0:0|0:0,0:0:0:0:
293,302,19589,2,0,L|289:335,2,20,8|0|0,0:0|0:0|0:0,0:0:0:0:
220,225,19745,54,0,L|202:228,12,10,8|0|0|0|0|0|0|0|0|0|0|0|0,0:0|0:0|0:0|0:0|0:0|0:0|0:0|0:0|0:0|0:0|0:0|0:0|0:0,0:0:0:0:
171,314,20058,22,0,P|133:324|82:291,1,95.9999970703126,4|2,1:2|0:0,0:0:0:0:
45,179,20370,1,8,0:0:0:0:
211,227,20526,2,0,P|178:192|169:146,1,95.9999970703126,2|0,0:0|0:0,0:0:0:0:
344,64,20839,69,2,1:2:0:0:
265,148,20995,1,8,0:0:0:0:
232,37,21151,1,2,0:0:0:0:
232,37,21229,1,0,0:0:0:0:
232,37,21308,2,0,P|167:55|130:49,1,95.9999970703126,0|2,1:0|0:0,0:0:0:0:
265,148,21620,1,8,0:0:0:0:
344,64,21776,5,2,0:0:0:0:
358,67,21854,1,0,0:0:0:0:
372,70,21933,2,0,P|382:91|384:115,1,47.9999985351563,2|2,1:2|0:0,0:0:0:0:
466,144,22089,2,0,P|464:167|454:189,1,47.9999985351563,2|2,1:2|0:0,0:0:0:0:
365,257,22245,2,0,P|355:235|353:212,1,47.9999985351563,10|2,0:0|0:0,0:0:0:0:
478,297,22401,2,0,P|498:284|511:264,1,47.9999985351563,2|2,1:2|0:0,0:0:0:0:
388,374,22558,54,0,P|306:355|283:365,1,95.9999970703126,0|2,1:0|0:0,0:0:0:0:
224,256,22870,1,8,0:0:0:0:
118,321,23026,1,2,0:0:0:0:
136,142,23183,22,0,L|131:190,1,47.9999985351563,0|0,1:0|0:0,0:0:0:0:
221,187,23339,2,0,L|216:235,1,47.9999985351563,2|0,1:2|0:0,0:0:0:0:
118,321,23495,1,8,0:0:0:0:
22,224,23651,1,2,0:0:0:0:
31,222,23729,1,0,0:0:0:0:
40,220,23808,70,0,L|18:178,1,47.9999985351563,0|0,1:0|0:0,0:0:0:0:
131,190,23964,2,0,L|136:142,1,47.9999985351563,2|0,1:2|0:0,0:0:0:0:
216,234,24120,1,8,0:0:0:0:
151,340,24276,5,2,0:0:0:0:
118,321,24354,2,0,B|169:317|169:317|186:327|186:327|258:321,1,143.999995605469,8|2,0:0|1:2,0:0:0:0:
281,301,24667,1,2,0:0:0:0:
308,290,24745,1,10,0:0:0:0:
337,291,24823,1,2,0:0:0:0:
363,302,24901,1,2,1:2:0:0:
383,323,24979,1,2,1:2:0:0:
394,349,25058,54,0,L|405:250,1,95.9999970703126,0|2,1:0|0:0,0:0:0:0:
418,130,25370,1,8,0:0:0:0:
216,234,25526,2,0,L|205:138,1,95.9999970703126,2|0,0:0|0:0,0:0:0:0:
191,14,25839,21,2,1:2:0:0:
306,64,25995,1,8,0:0:0:0:
205,138,26151,1,2,0:0:0:0:
205,138,26229,1,0,0:0:0:0:
205,138,26308,70,0,P|162:116|114:113,1,95.9999970703126,0|2,1:0|0:0,0:0:0:0:
306,64,26620,1,8,0:0:0:0:
199,244,26776,1,2,0:0:0:0:
202,263,26854,1,0,0:0:0:0:
190,291,26933,5,2,1:2:0:0:
224,281,27011,1,2,0:0:0:0:
260,283,27089,1,2,1:2:0:0:
293,296,27167,1,2,0:0:0:0:
320,320,27245,2,0,P|331:297|357:282,1,47.9999985351563,10|0,0:0|0:0,0:0:0:0:
472,259,27401,1,2,0:0:0:0:
311,196,27558,54,0,P|314:148|331:103,1,95.9999970703126,0|2,1:0|0:0,0:0:0:0:
190,291,27870,1,8,0:0:0:0:
92,175,28026,1,2,1:2:0:0:
81,191,28104,2,0,L|28:196,1,47.9999985351563,8|0,0:0|0:0,0:0:0:0:
190,291,28339,21,10,0:0:0:0:
194,268,28417,1,8,0:0:0:0:
199,244,28495,1,8,0:0:0:0:
78,367,28651,69,2,1:2:0:0:
78,367,28729,1,0,1:0:0:0:
77,366,28808,6,0,P|50:352|20:349,1,60.0000022888184,4|0,1:0|0:0,0:0:0:0:
73,238,28964,2,0,P|56:212|32:195,1,60.0000022888184,4|0,1:0|0:0,0:0:0:0:
230,333,29120,54,0,P|213:307|189:290,1,60.0000022888184,4|0,1:0|0:0,0:0:0:0:
290,218,29276,2,0,P|288:188|276:160,1,60.0000022888184,4|2,1:0|0:0,0:0:0:0:
378,378,29433,22,0,P|376:348|364:320,1,60.0000022888184,4|0,1:0|0:0,0:0:0:0:
487,309,29589,2,0,P|500:282|503:252,1,60.0000022888184,4|2,1:0|0:0,0:0:0:0:
383,148,29745,53,0,1:0:0:0:
387,118,29823,1,0,1:0:0:0:
390,88,29901,1,0,1:0:0:0:
394,58,29979,1,0,1:0:0:0:
398,29,30058,22,0,B|356:48|356:48|282:39,1,120.000004577637,4|2,1:2|0:0,0:0:0:0:
39,59,30370,1,8,0:0:0:0:
398,29,30526,2,0,B|353:17|353:17|282:38,1,120.000004577637,2|0,0:0|0:0,0:0:0:0:
121,127,30839,69,2,1:2:0:0:
277,161,30995,1,8,0:0:0:0:
170,279,31151,1,2,0:0:0:0:
170,279,31229,1,0,0:0:0:0:
170,279,31308,2,0,P|120:246|61:242,1,120.000004577637,0|2,1:0|0:0,0:0:0:0:
277,161,31620,1,8,0:0:0:0:
337,344,31776,5,2,0:0:0:0:
348,339,31854,1,0,0:0:0:0:
359,333,31933,2,0,P|369:305|367:276,1,60.0000022888184,2|2,1:2|0:0,0:0:0:0:
469,264,32089,2,0,P|463:234|447:209,1,60.0000022888184,2|2,1:2|0:0,0:0:0:0:
304,172,32245,2,0,P|310:142|326:117,1,60.0000022888184,10|2,0:0|0:0,0:0:0:0:
502,131,32401,2,0,P|481:108|455:94,1,60.0000022888184,2|2,1:2|0:0,0:0:0:0:
305,19,32558,54,0,P|252:46|192:48,1,120.000004577637,0|2,1:0|0:0,0:0:0:0:
55,7,32870,1,8,0:0:0:0:
165,198,33026,1,2,0:0:0:0:
193,48,33183,22,0,P|176:74|171:103,1,60.0000022888184,0|0,1:0|0:0,0:0:0:0:
76,88,33339,2,0,P|75:117|85:145,1,60.0000022888184,2|0,1:2|0:0,0:0:0:0:
165,198,33495,1,8,0:0:0:0:
382,122,33651,69,2,0:0:0:0:
373,129,33729,1,0,0:0:0:0:
364,136,33808,2,0,P|339:119|309:116,1,60.0000022888184,0|0,1:0|0:0,0:0:0:0:
165,198,33964,2,0,P|190:182|220:179,1,60.0000022888184,2|0,1:2|0:0,0:0:0:0:
340,236,34120,1,8,0:0:0:0:
469,135,34276,1,2,0:0:0:0:
466,159,34354,1,0,0:0:0:0:
444,187,34433,5,6,1:2:0:0:
472,193,34511,1,2,0:0:0:0:
491,216,34589,1,6,1:2:0:0:
492,245,34667,1,2,0:0:0:0:
474,268,34745,53,10,0:0:0:0:
489,310,34823,1,2,0:0:0:0:
468,348,34901,1,6,1:2:0:0:
426,358,34979,1,2,1:2:0:0:
389,332,35058,22,0,P|333:310|275:322,1,120.000004577637,4|2,1:2|0:0,0:0:0:0:
51,303,35370,1,8,0:0:0:0:
389,332,35526,2,0,P|331:344|275:322,1,120.000004577637,2|0,0:0|0:0,0:0:0:0:
156,180,35839,69,2,1:2:0:0:
340,236,35995,1,8,0:0:0:0:
200,368,36151,1,2,0:0:0:0:
200,368,36229,1,0,0:0:0:0:
199,367,36308,2,0,P|186:310|214:259,1,120.000004577637,0|2,1:0|0:0,0:0:0:0:
340,236,36620,1,8,0:0:0:0:
371,109,36776,5,2,0:0:0:0:
389,106,36854,1,0,0:0:0:0:
407,103,36933,53,2,1:2:0:0:
444,124,37011,1,2,0:0:0:0:
483,106,37089,1,2,1:2:0:0:
489,63,37167,1,2,0:0:0:0:
458,34,37245,1,10,0:0:0:0:
394,179,37401,1,2,0:0:0:0:
301,52,37558,21,0,1:0:0:0:
192,73,37714,1,2,0:0:0:0:
301,52,37870,1,8,0:0:0:0:
192,73,38026,69,2,1:2:0:0:
203,55,38104,2,0,P|219:81|222:110,1,60.0000022888184,10|0,0:0|0:0,0:0:0:0:
277,189,38261,5,2,1:2:0:0:
295,180,38339,2,0,P|296:209|283:236,1,60.0000022888184,10|0,0:0|0:0,0:0:0:0:
292,331,38495,53,2,1:2:0:0:
312,333,38573,2,0,P|298:358|273:375,1,60.0000022888184,10|0,0:0|0:0,0:0:0:0:
24,47,38808,21,4,1:0:0:0:
150,69,38912,2,0,P|214:61|270:20,1,106.666666666667,4|4,1:0|1:0,0:0:0:0:
17,127,39120,53,4,1:0:0:0:
128,146,39224,2,0,L|206:159,1,80.0000030517579,4|4,1:0|1:0,0:0:0:0:
11,207,39433,5,4,1:0:0:0:
106,224,39537,2,0,P|132:235|158:260,1,63.9999980468751,4|4,1:0|1:0,0:0:0:0:
43,297,39745,5,8,0:0:0:0:
42,308,39824,1,8,0:0:0:0:
41,320,39902,1,8,0:0:0:0:
40,332,39980,1,8,0:0:0:0:
39,344,40058,69,4,1:2:0:0:
125,351,40214,1,0,1:0:0:0:
205,357,40370,1,0,1:0:0:0:
417,319,40526,5,8,0:0:0:0:
235,199,40683,2,0,L|240:239,1,40,8|0,0:0|0:0,0:0:0:0:
205,357,40995,1,0,1:0:0:0:
371,185,41151,70,0,L|368:208,1,20,0|0,1:0|1:0,0:0:0:0:
359,275,41308,1,0,1:0:0:0:
371,185,41464,6,0,L|368:208,1,20,0|0,1:0|1:0,0:0:0:0:
359,275,41620,1,0,1:0:0:0:
316,125,41776,54,0,P|298:133|278:136,1,40,8|0,0:0|0:0,0:0:0:0:
440,144,41933,2,0,P|456:155|475:161,1,40,8|0,0:0|0:0,0:0:0:0:
359,275,42089,21,0,1:0:0:0:
359,275,42167,1,0,1:0:0:0:
359,275,42245,2,0,L|353:314,1,40,12|0,0:0|0:0,0:0:0:0:
240,239,42401,2,0,L|235:199,1,40,0|0,1:0|0:0,0:0:0:0:
273,58,42558,69,0,1:0:0:0:
273,58,42636,1,0,1:0:0:0:
273,58,42714,1,0,1:0:0:0:
351,42,42870,1,0,1:0:0:0:
205,16,43026,1,8,0:0:0:0:
127,32,43183,6,0,L|123:71,1,40,4|4,1:2|1:2,0:0:0:0:
111,190,43495,1,0,1:0:0:0:
49,104,43651,1,0,1:0:0:0:
30,112,43729,1,0,1:0:0:0:
12,121,43807,1,0,1:0:0:0:
189,118,43964,1,0,1:0:0:0:
203,133,44042,1,0,1:0:0:0:
216,147,44120,1,0,1:0:0:0:
99,309,44276,69,4,1:2:0:0:
99,309,44355,1,0,1:0:0:0:
99,309,44433,70,0,L|103:270,1,40,12|0,0:2|0:0,0:0:0:0:
111,190,44589,1,0,1:0:0:0:
111,190,44667,1,0,1:0:0:0:
111,190,44745,2,0,L|71:195,1,40,12|0,0:2|0:0,0:0:0:0:
200,244,44901,2,0,L|195:284,1,40,12|8,0:2|0:0,0:0:0:0:
243,359,45058,5,4,1:0:0:0:
317,330,45214,1,0,1:0:0:0:
385,372,45370,1,0,1:0:0:0:
274,215,45526,5,12,0:0:0:0:
479,192,45683,2,0,L|474:232,1,40,12|0,0:0|0:0,0:0:0:0:
459,343,45995,1,0,1:0:0:0:
309,115,46151,70,0,L|328:116,1,20,0|0,1:0|1:0,0:0:0:0:
400,123,46308,1,0,1:0:0:0:
309,115,46464,6,0,L|328:116,1,20,0|0,1:0|1:0,0:0:0:0:
400,123,46621,1,0,1:0:0:0:
302,34,46776,54,0,P|282:37|265:46,1,40,8|0,0:0|0:0,0:0:0:0:
227,118,46933,2,0,P|207:114|189:105,1,40,8|0,0:0|0:0,0:0:0:0:
125,58,47089,5,0,1:0:0:0:
105,59,47167,1,0,1:0:0:0:
85,61,47245,1,4,1:2:0:0:
33,122,47401,1,0,1:0:0:0:
152,190,47558,5,0,1:0:0:0:
152,190,47636,1,0,1:0:0:0:
152,190,47714,1,0,1:0:0:0:
43,241,47870,1,0,1:0:0:0:
33,122,48026,1,8,0:0:0:0:
152,190,48183,2,0,L|155:231,1,40,4|0,1:2|0:0,0:0:0:0:
43,241,48339,2,0,L|46:282,1,40,4|0,1:2|0:0,0:0:0:0:
54,360,48495,1,0,1:0:0:0:
241,319,48651,69,0,1:0:0:0:
221,317,48729,1,0,1:0:0:0:
201,314,48808,1,0,1:0:0:0:
181,311,48886,1,0,1:0:0:0:
162,309,48964,1,0,1:0:0:0:
292,238,49120,1,0,1:0:0:0:
332,361,49276,5,0,1:0:0:0:
334,341,49354,1,0,1:0:0:0:
337,321,49432,1,0,1:0:0:0:
430,303,49589,1,0,1:0:0:0:
442,209,49746,53,8,0:0:0:0:
357,169,49901,2,0,L|351:129,1,40,0|0,1:0|1:0,0:0:0:0:
292,238,50058,5,4,1:2:0:0:
199,220,50214,1,0,1:0:0:0:
120,274,50370,1,0,1:0:0:0:
14,116,50526,5,8,0:0:0:0:
93,62,50683,2,0,L|98:10,1,40,8|0,0:0|0:0,0:0:0:0:
199,220,50995,1,0,1:0:0:0:
319,33,51151,70,0,L|343:36,1,20,0|0,1:0|1:0,0:0:0:0:
439,50,51308,1,0,1:0:0:0:
319,33,51464,6,0,L|343:36,1,20,0|0,1:0|1:0,0:0:0:0:
439,50,51621,1,0,1:0:0:0:
311,134,51776,54,0,L|350:128,1,40,8|0,0:0|0:0,0:0:0:0:
448,159,51933,2,0,L|487:153,1,40,8|0,0:0|0:0,0:0:0:0:
373,229,52089,21,0,1:0:0:0:
370,252,52167,1,0,1:0:0:0:
368,276,52245,1,4,1:2:0:0:
358,372,52401,1,0,1:0:0:0:
209,315,52558,69,0,1:0:0:0:
209,315,52636,1,0,1:0:0:0:
209,315,52714,1,0,1:0:0:0:
114,325,52870,1,0,1:0:0:0:
19,335,53026,69,8,0:0:0:0:
152,237,53183,21,4,1:2:0:0:
57,247,53339,1,4,1:2:0:0:
47,152,53495,1,0,1:0:0:0:
142,142,53651,2,0,L|147:96,1,40,0|0,1:0|1:0,0:0:0:0:
208,44,53808,1,0,1:0:0:0:
256,193,53964,1,0,1:0:0:0:
256,173,54042,1,0,1:0:0:0:
256,153,54120,1,0,1:0:0:0:
370,142,54276,70,0,L|365:96,1,40,4|0,1:2|1:0,0:0:0:0:
304,44,54433,69,12,0:0:0:0:
256,153,54589,1,0,1:0:0:0:
256,173,54667,1,0,1:0:0:0:
256,193,54745,1,12,0:0:0:0:
322,291,54901,1,12,0:0:0:0:
348,286,54979,1,8,0:0:0:0:
374,282,55057,5,0,1:0:0:0:
469,304,55214,1,0,1:0:0:0:
491,210,55370,1,0,1:0:0:0:
370,142,55526,6,0,L|330:146,1,40,8|0,0:0|0:0,0:0:0:0:
266,202,55683,2,0,L|186:193,1,80,8|0,0:0|0:0,0:0:0:0:
68,75,55995,70,0,L|63:114,1,40,0|0,1:0|0:0,0:0:0:0:
11,180,56151,1,0,1:0:0:0:
11,180,56229,1,0,1:0:0:0:
11,180,56308,5,0,1:0:0:0:
134,258,56464,1,0,1:0:0:0:
135,281,56542,1,0,1:0:0:0:
136,305,56620,1,0,1:0:0:0:
62,366,56776,54,0,P|38:357|16:358,1,40,8|0,0:0|0:0,0:0:0:0:
136,305,56933,2,0,L|134:265,1,40,8|0,0:0|0:0,0:0:0:0:
213,360,57089,5,0,1:0:0:0:
230,351,57167,1,0,1:0:0:0:
250,348,57245,1,4,1:2:0:0:
332,298,57401,1,0,1:0:0:0:
232,211,57558,5,0,1:0:0:0:
229,187,57636,1,0,1:0:0:0:
227,163,57714,1,0,1:0:0:0:
217,68,57870,1,0,1:0:0:0:
368,98,58026,1,8,0:0:0:0:
321,182,58183,70,0,L|325:224,1,40,0|0,1:0|1:0,0:0:0:0:
335,317,58495,1,0,1:0:0:0:
444,244,58651,2,0,L|455:161,1,80,0|0,1:0|1:0,0:0:0:0:
458,141,59042,1,0,1:0:0:0:
458,141,59120,1,0,1:0:0:0:
324,221,59276,1,0,0:0:0:0:
247,120,59433,6,0,L|208:116,1,40,0|0,1:0|0:0,0:0:0:0:
71,99,59589,2,0,L|31:94,1,40,0|0,1:0|0:0,0:0:0:0:
148,28,59745,54,0,L|144:68,1,40,8|0,0:0|0:0,0:0:0:0:
135,147,59901,2,0,L|131:187,1,40,8|0,0:0|0:0,0:0:0:0:
372,64,60058,54,0,P|459:124|365:77,1,320,2|0,0:3|0:0,0:0:0:0:
319,336,62558,22,0,P|398:267|326:343,1,320,2|0,0:3|0:0,0:0:0:0:
164,353,65058,54,0,P|129:253|178:348,1,320,2|0,0:3|0:0,0:0:0:0:
151,100,67558,22,0,P|45:103|150:86,1,320,2|0,0:3|0:0,0:0:0:0:
151,100,69433,1,2,0:0:0:0:
230,88,69589,1,2,0:0:0:0:
311,117,69745,1,2,0:0:0:0:
374,50,69901,1,2,0:0:0:0:
479,98,70058,54,0,P|478:127|466:155,1,60.0000022888184,2|0,0:3|0:0,0:0:0:0:
494,237,70370,1,2,0:0:0:0:
494,237,70526,1,2,0:0:0:0:
328,200,70683,38,0,P|354:185|383:181,1,60.0000022888184,2|0,0:0|0:0,0:0:0:0:
494,237,70995,1,2,0:0:0:0:
494,237,71151,1,2,0:0:0:0:
328,274,71308,38,0,P|354:288|383:292,1,60.0000022888184,2|0,0:0|0:0,0:0:0:0:
494,237,71620,1,2,0:0:0:0:
494,237,71776,1,2,0:0:0:0:
479,376,71933,38,0,P|478:346|466:318,1,60.0000022888184,2|0,0:0|0:0,0:0:0:0:
494,237,72245,1,2,0:0:0:0:
494,237,72401,1,2,0:0:0:0:
383,292,72558,37,2,0:3:0:0:
315,233,72714,2,0,L|319:173,2,60.0000022888184,2|2|2,0:0|0:0|0:0,0:0:0:0:
348,375,73183,21,0,0:0:0:0:
315,233,73339,2,0,L|319:173,2,60.0000022888184,2|2|2,0:0|0:0|0:0,0:0:0:0:
257,368,73808,53,0,0:0:0:0:
315,233,73964,2,0,L|319:173,2,60.0000022888184,2|2|2,0:0|0:0|0:0,0:0:0:0:
237,279,74433,21,0,0:0:0:0:
315,233,74589,2,0,L|319:173,2,60.0000022888184,2|2|2,0:0|0:0|0:0,0:0:0:0:
237,279,75058,53,2,0:3:0:0:
156,272,75214,2,0,B|201:240|245:254|245:254|237:279,1,120.000004577637,2|0,0:0|0:0,0:0:0:0:
104,209,75683,2,0,B|125:158|171:148|171:148|176:174,1,120.000004577637,2|2,0:0|0:0,0:0:0:0:
176,173,76151,1,2,0:0:0:0:
156,272,76308,38,0,B|201:240|245:254|245:254|237:279,1,120.000004577637,2|2,0:0|0:0,0:0:0:0:
237,278,76776,1,2,0:0:0:0:
104,209,76933,2,0,B|125:158|171:148|171:148|176:174,1,120.000004577637,2|2,0:0|0:0,0:0:0:0:
176,173,77401,1,2,0:0:0:0:
81,107,77558,38,0,P|76:87|78:67,1,40,2|0,0:3|0:0,0:0:0:0:
153,40,77870,1,2,0:0:0:0:
153,40,78026,1,2,0:0:0:0:
176,173,78183,22,0,P|181:153|193:137,1,40,2|0,0:0|0:0,0:0:0:0:
271,150,78495,1,2,0:0:0:0:
271,150,78651,1,2,0:0:0:0:
356,98,78808,53,2,0:0:0:0:
368,120,78964,1,2,0:0:0:0:
372,144,79120,1,2,0:0:0:0:
370,169,79276,1,2,0:0:0:0:
425,228,79433,22,0,P|445:218|476:217,1,48,8|0,0:3|0:0,0:0:0:0:
345,245,80058,54,0,L|343:263,7,16,2|2|2|2|2|2|2|2,0:3|0:0|0:0|0:0|0:0|0:0|0:0|0:0,0:0:0:0:
167,245,81308,38,0,L|169:263,7,16,2|2|2|2|2|2|2|2,0:0|0:0|0:0|0:0|0:0|0:0|0:0|0:0,0:0:0:0:
295,346,82558,38,0,L|297:331,7,16,2|2|2|2|2|2|2|2,0:3|0:0|0:0|0:0|0:0|0:0|0:0|0:0,0:0:0:0:
216,346,83808,38,0,L|215:331,7,16,2|2|2|2|2|2|2|2,0:0|0:0|0:0|0:0|0:0|0:0|0:0|0:0,0:0:0:0:
339,215,85058,38,0,P|347:209|358:207,7,16,2|2|2|2|2|2|2|2,0:3|0:0|0:0|0:0|0:0|0:0|0:0|0:0,0:0:0:0:
173,215,86308,38,0,P|164:209|154:207,7,16,2|2|2|2|2|2|2|2,0:0|0:0|0:0|0:0|0:0|0:0|0:0|0:0,0:0:0:0:
296,142,87558,38,0,P|300:132|306:126,7,16,2|2|2|2|2|2|2|2,0:3|0:0|0:0|0:0|0:0|0:0|0:0|0:0,0:0:0:0:
216,142,88808,22,0,L|201:142,7,16,2|2|2|2|2|2|2|2,0:0|0:0|0:0|0:0|0:0|0:0|0:0|0:0,0:0:0:0:
256,64,90058,6,0,B|256:256|256:256|257:259|257:259|255:261|255:261|257:263|257:263|255:265|255:265|257:266|257:266|255:268|255:268|257:270|257:270|255:271|255:271|257:273|257:273|255:275|255:275|257:276|257:276|255:278|255:278|257:279|257:279|255:281|255:281|257:282|257:282|255:284|255:284|257:286|257:286|255:288|255:288|257:289|257:289|255:291|255:291|257:293|257:293|256:298,1,252
256,317,95058,70,0,L|255:336,1,20,2|0,3:2|0:0,0:0:0:0:
362,333,99433,37,2,0:0:0:0:
85,249,99745,21,2,0:0:0:0:
470,263,100058,6,0,P|476:232|496:207,1,64,2|0,1:2|0:0,0:0:0:0:
355,205,100370,2,0,P|356:142|380:83,1,128,0|0,3:0|0:0,0:0:0:0:
232,240,100839,1,0,3:0:0:0:
232,240,100995,2,0,P|213:215|209:184,1,64,2|0,1:2|3:0,0:0:0:0:
220,49,101308,38,0,P|239:23|268:10,1,64,0|0,1:0|0:0,0:0:0:0:
380,83,101620,2,0,P|340:130|279:124,1,128,0|0,3:0|0:0,0:0:0:0:
171,114,102089,1,0,3:0:0:0:
42,84,102245,2,0,P|57:112|65:143,1,64,2|2,1:2|3:2,0:0:0:0:
87,285,102558,21,2,1:2:0:0:
87,285,102714,1,0,0:0:0:0:
87,285,102870,2,0,P|67:283|27:305,1,64,0|0,3:0|0:0,0:0:0:0:
260,184,103183,5,0,0:0:0:0:
260,184,103339,1,0,0:0:0:0:
260,184,103495,2,0,P|272:168|279:118,1,64,0|0,0:0|3:0,0:0:0:0:
221,319,103808,38,0,P|275:289|336:304,1,128,2|0,1:2|3:0,0:0:0:0:
487,216,104276,2,0,P|432:185|371:200,1,128,2|0,0:0|0:0,0:0:0:0:
254,75,104745,1,2,0:0:0:0:
349,0,104901,1,0,3:0:0:0:
361,3,104979,1,0,3:0:0:0:
373,6,105058,22,0,P|380:67|347:127,1,128,2|0,1:2|3:0,0:0:0:0:
260,184,105526,1,0,1:0:0:0:
260,184,105839,2,0,L|119:200,1,128,0|0,3:0|0:0,0:0:0:0:
43,128,106308,6,0,P|40:65|7:10,1,128,2|0,1:2|3:0,0:0:0:0:
171,114,106776,2,0,P|138:168|134:231,1,128,2|0,1:2|3:0,0:0:0:0:
80,326,107245,1,2,1:2:0:0:
80,326,107401,1,0,3:0:0:0:
197,379,107558,38,0,P|211:353|301:363,1,128,2|0,1:2|0:3,0:0:0:0:
411,299,108026,2,0,P|381:299|345:216,1,128,2|0,1:2|0:0,0:0:0:0:
410,136,108495,2,0,P|441:138|469:153,1,64,2|0,1:2|3:0,0:0:0:0:
313,85,108808,22,0,P|269:128|207:125,1,128,0|0,1:0|3:0,0:0:0:0:
86,11,109433,1,2,3:2:0:0:
34,181,109667,1,0,3:0:0:0:
64,198,109745,2,0,P|59:167|36:146,1,64,0|0,1:0|3:0,0:0:0:0:
173,44,110058,6,0,P|208:26|246:28,1,64,0|0,1:0|0:0,0:0:0:0:
336,75,110370,1,0,3:0:0:0:
138,135,110526,2,0,P|199:150|242:197,1,128,0|0,1:0|3:0,0:0:0:0:
336,75,110995,1,2,1:2:0:0:
394,217,111151,38,0,P|408:145|446:84,1,128,0|0,3:0|0:0,0:0:0:0:
497,294,111620,1,2,3:2:0:0:
378,345,111776,2,0,P|333:328|239:326,1,128,0|2,1:0|3:2,0:0:0:0:
296,139,112401,1,0,3:0:0:0:
276,153,112479,1,0,3:0:0:0:
256,167,112558,22,0,P|251:136|234:109,1,64,2|0,1:2|1:0,0:0:0:0:
132,59,112870,1,0,3:0:0:0:
175,230,113026,6,0,P|155:204|127:190,1,64,0|0,1:0|0:0,0:0:0:0:
12,187,113339,1,0,0:0:0:0:
135,324,113495,38,0,P|105:311|73:313,1,64,0|0,1:0|3:0,0:0:0:0:
12,187,113808,21,2,1:2:0:0:
12,187,113964,2,0,P|25:146|23:117,1,64,0|0,0:0|3:0,0:0:0:0:
175,230,114276,2,0,B|233:214|232:261|298:244,1,128,2|2,1:2|0:0,0:0:0:0:
339,41,114901,1,0,3:0:0:0:
362,48,114979,1,0,3:0:0:0:
385,56,115058,6,0,P|394:87|391:118,1,64,2|0,1:2|1:0,0:0:0:0:
289,271,115370,1,0,3:0:0:0:
445,309,115526,2,0,P|456:246|489:191,1,128,2|0,1:2|3:0,0:0:0:0:
289,271,115995,1,2,1:2:0:0:
199,200,116151,38,0,P|135:201|79:230,1,128,2|0,3:2|0:0,0:0:0:0:
289,271,116620,1,0,3:0:0:0:
306,157,116776,2,0,P|356:119|418:116,1,128,2|0,1:2|3:0,0:0:0:0:
396,228,117245,2,0,P|427:230|460:248,1,64,2|0,1:2|3:0,0:0:0:0:
289,271,117558,21,8,0:0:0:0:
289,271,117714,1,8,0:0:0:0:
375,108,117870,69,8,0:0:0:0:
375,108,118026,1,8,0:0:0:0:
400,335,118183,21,8,0:0:0:0:
400,335,118339,1,8,0:0:0:0:
486,172,118495,37,8,0:0:0:0:
486,172,118651,1,8,0:0:0:0:
288,270,118808,37,8,0:0:0:0:
258,260,118886,1,8,0:0:0:0:
226,260,118964,1,8,0:0:0:0:
196,270,119042,1,8,0:0:0:0:
170,289,119120,1,8,0:0:0:0:
140,299,119198,1,8,0:0:0:0:
108,299,119276,1,8,0:0:0:0:
78,289,119354,1,8,0:0:0:0:
52,270,119433,70,0,L|43:251,2,20,8|0|0,0:0|0:0|0:0,0:0:0:0:
92,174,119589,2,0,L|101:148,2,20,8|0|0,0:0|0:0|0:0,0:0:0:0:
196,166,119745,6,0,L|205:162,12,10,8|0|0|0|0|0|0|0|0|0|0|0|0,0:0|0:0|0:0|0:0|0:0|0:0|0:0|0:0|0:0|0:0|0:0|0:0|0:0,0:0:0:0:
281,188,120058,37,4,1:0:0:0:
218,86,120214,21,2,0:0:0:0:
250,59,120292,1,2,0:0:0:0:
291,69,120370,1,10,0:0:0:0:
388,136,120526,2,0,P|396:76|418:20,1,120.000004577637,2|0,0:0|1:0,0:0:0:0:
281,188,120839,53,2,0:0:0:0:
249,161,120917,1,2,0:0:0:0:
208,171,120995,1,10,0:0:0:0:
111,238,121151,2,0,P|102:178|80:122,1,120.000004577637,2|0,0:0|1:0,0:0:0:0:
218,290,121464,21,2,0:0:0:0:
250,263,121542,1,2,0:0:0:0:
291,273,121620,1,10,0:0:0:0:
388,340,121776,1,2,0:0:0:0:
472,221,121933,53,2,1:2:0:0:
442,223,122011,1,2,0:0:0:0:
416,236,122089,1,2,0:0:0:0:
395,258,122167,1,2,0:0:0:0:
388,340,122245,5,10,0:0:0:0:
432,334,122323,1,2,0:0:0:0:
470,309,122401,1,2,0:0:0:0:
494,271,122479,1,2,0:0:0:0:
501,227,122558,70,0,P|478:171|476:112,1,120.000004577637,0|2,1:0|0:0,0:0:0:0:
399,36,122792,1,2,0:0:0:0:
371,26,122870,2,0,P|348:81|346:140,1,120.000004577637,10|2,0:0|0:0,0:0:0:0:
291,273,123183,22,0,P|295:243|289:214,1,60.0000022888184,0|0,1:0|0:0,0:0:0:0:
162,191,123339,2,0,P|146:216|140:245,1,60.0000022888184,2|2,1:2|0:0,0:0:0:0:
201,339,123495,1,10,0:0:0:0:
235,146,123651,1,2,1:2:0:0:
116,59,123808,54,0,L|122:119,1,60.0000022888184,0|0,1:0|0:0,0:0:0:0:
235,146,123964,1,2,1:2:0:0:
246,141,124042,1,2,1:2:0:0:
257,136,124120,2,0,L|262:76,1,60.0000022888184,10|0,0:0|0:0,0:0:0:0:
400,46,124276,5,0,1:0:0:0:
378,25,124354,2,0,B|371:100|371:100|379:116|379:116|371:203,1,180.000006866455,8|0,0:0|1:0,0:0:0:0:
228,338,124745,2,0,P|277:299|337:312,1,120.000004577637,8|0,0:0|1:0,0:0:0:0:
425,289,124979,1,0,1:0:0:0:
436,307,125058,70,0,L|429:367,1,60.0000022888184,0|0,1:0|0:0,0:0:0:0:
300,213,125214,21,2,0:0:0:0:
332,186,125292,1,2,0:0:0:0:
371,202,125370,1,10,0:0:0:0:
494,66,125526,2,0,L|481:186,1,120.000004577637,2|0,0:0|1:0,0:0:0:0:
261,285,125839,53,2,0:0:0:0:
229,258,125917,1,2,0:0:0:0:
190,274,125995,1,10,0:0:0:0:
67,138,126151,2,0,L|80:258,1,120.000004577637,2|0,0:0|1:0,0:0:0:0:
300,357,126464,21,2,0:0:0:0:
332,330,126542,1,2,0:0:0:0:
371,346,126620,1,10,0:0:0:0:
494,210,126776,1,2,0:0:0:0:
344,72,126933,53,2,1:2:0:0:
339,101,127011,1,2,0:0:0:0:
339,131,127089,1,2,0:0:0:0:
346,160,127167,1,2,0:0:0:0:
358,188,127245,5,10,0:0:0:0:
379,166,127323,1,2,0:0:0:0:
395,141,127401,1,2,0:0:0:0:
406,113,127479,1,2,0:0:0:0:
411,83,127557,1,0,1:0:0:0:
257,16,127714,5,2,0:0:0:0:
257,16,127792,1,2,0:0:0:0:
257,16,127870,1,10,0:0:0:0:
101,83,128026,1,2,0:0:0:0:
238,185,128183,54,0,L|244:125,1,60.0000022888184,0|0,1:0|0:0,0:0:0:0:
101,83,128339,1,2,1:2:0:0:
91,76,128417,1,2,0:0:0:0:
81,69,128495,2,0,L|87:128,1,60.0000022888184,10|0,0:0|0:0,0:0:0:0:
100,238,128651,1,2,0:0:0:0:
199,315,128808,22,0,B|219:298|219:298|251:305,1,60.0000022888184,0|0,1:0|0:0,0:0:0:0:
100,238,128964,1,2,1:2:0:0:
100,238,129042,1,2,1:2:0:0:
100,238,129120,2,0,B|80:221|80:221|48:228,1,60.0000022888184,10|0,0:0|0:0,0:0:0:0:
244,125,129276,69,2,1:2:0:0:
244,125,129354,2,0,L|238:185,1,60.0000022888184,8|0,0:0|0:0,0:0:0:0:
326,96,129511,69,2,0:0:0:0:
331,107,129589,2,0,L|324:166,1,60.0000022888184,2|0,1:2|0:0,0:0:0:0:
407,66,129745,37,2,1:2:0:0:
412,77,129823,1,2,0:0:0:0:
417,88,129901,2,0,L|410:147,1,60.0000022888184,2|0,1:2|1:0,0:0:0:0:
474,286,130058,37,4,1:0:0:0:
430,272,130136,1,2,0:0:0:0:
385,279,130214,1,2,0:0:0:0:
347,306,130292,1,2,0:0:0:0:
326,348,130370,1,10,0:0:0:0:
225,244,130526,2,0,P|160:273|88:272,1,143.999995605469,2|0,0:0|1:0,0:0:0:0:
25,183,130761,21,2,0:0:0:0:
27,135,130839,1,2,0:0:0:0:
58,100,130917,1,2,0:0:0:0:
104,93,130995,1,10,0:0:0:0:
224,15,131151,2,0,P|262:76|269:155,1,143.999995605469,2|0,0:0|1:0,0:0:0:0:
225,243,131386,53,2,0:0:0:0:
214,289,131464,1,2,0:0:0:0:
236,331,131542,1,2,0:0:0:0:
280,348,131620,1,10,0:0:0:0:
470,245,131776,1,2,0:0:0:0:
419,43,131933,21,2,1:2:0:0:
384,40,132011,1,2,0:0:0:0:
349,48,132089,1,2,0:0:0:0:
318,66,132167,1,2,0:0:0:0:
270,146,132245,69,10,0:0:0:0:
316,135,132323,1,2,0:0:0:0:
364,139,132401,1,2,0:0:0:0:
408,157,132479,1,2,0:0:0:0:
470,245,132558,70,0,P|405:274|334:266,1,143.999995605469,0|2,1:0|0:0,0:0:0:0:
270,146,132792,1,2,0:0:0:0:
228,122,132870,2,0,P|160:110|86:148,1,143.999995605469,10|2,0:0|0:0,0:0:0:0:
28,251,133183,22,0,P|17:285|23:320,1,71.9999978027344,0|2,1:0|0:0,0:0:0:0:
208,288,133339,2,0,P|200:252|181:223,1,71.9999978027344,2|2,1:2|0:0,0:0:0:0:
94,140,133495,1,10,0:0:0:0:
128,371,133651,1,0,1:0:0:0:
262,342,133808,54,0,P|290:329|338:334,1,71.9999978027344,0|2,1:0|0:0,0:0:0:0:
436,240,133964,1,2,1:2:0:0:
449,246,134042,1,2,1:2:0:0:
462,252,134120,2,0,L|451:337,1,71.9999978027344,10|0,0:0|0:0,0:0:0:0:
365,133,134276,5,0,1:0:0:0:
375,160,134354,2,0,B|304:169|304:169|253:125|253:125|177:134,1,215.999993408203,8|2,0:0|1:2,0:0:0:0:
63,205,134745,1,10,0:0:0:0:
50,163,134823,1,2,0:0:0:0:
53,118,134901,1,2,1:2:0:0:
70,77,134979,1,2,1:2:0:0:
100,43,135058,6,0,L|171:34,1,71.9999978027344,2|0,1:2|0:0,0:0:0:0:
176,134,135214,2,0,L|247:125,1,71.9999978027344,2|2,1:2|0:0,0:0:0:0:
94,56,135370,54,0,L|165:47,1,71.9999978027344,10|0,0:0|0:0,0:0:0:0:
170,147,135526,2,0,L|241:138,1,71.9999978027344,2|0,1:2|0:0,0:0:0:0:
385,56,135683,22,0,L|378:128,1,71.9999978027344,2|0,1:2|0:0,0:0:0:0:
241,137,135839,2,0,L|248:208,1,71.9999978027344,2|2,1:2|0:0,0:0:0:0:
391,44,135995,70,0,L|384:116,1,71.9999978027344,10|0,0:0|0:0,0:0:0:0:
247,125,136151,2,0,L|254:196,1,71.9999978027344,2|0,1:2|0:0,0:0:0:0:
303,339,136308,6,0,P|333:356|369:354,1,71.9999978027344,2|0,1:2|0:0,0:0:0:0:
429,248,136464,2,0,P|398:230|363:232,1,71.9999978027344,2|2,1:2|0:0,0:0:0:0:
291,344,136620,54,0,P|321:361|357:359,1,71.9999978027344,10|0,0:0|0:0,0:0:0:0:
417,253,136776,2,0,P|386:235|351:237,1,71.9999978027344,2|0,1:2|0:0,0:0:0:0:
191,312,136933,21,0,1:0:0:0:
174,342,137011,1,2,0:0:0:0:
144,363,137089,1,2,1:2:0:0:
109,368,137167,1,2,0:0:0:0:
75,358,137245,1,10,0:0:0:0:
5,197,137401,69,2,1:2:0:0:
13,176,137479,1,2,1:2:0:0:
21,155,137558,70,0,P|39:185|43:221,1,71.9999978027344,10|0,0:0|0:0,0:0:0:0:
114,286,137714,1,10,0:0:0:0:
164,89,137870,22,0,P|176:122|174:158,1,71.9999978027344,10|0,0:0|0:0,0:0:0:0:
225,300,138026,1,10,0:0:0:0:
316,48,138183,70,0,P|322:83|314:117,1,71.9999978027344,10|0,0:0|0:0,0:0:0:0:
336,314,138339,1,10,0:0:0:0:
472,34,138495,22,0,P|472:69|458:102,1,71.9999978027344,10|0,0:0|0:0,0:0:0:0:
447,328,138651,1,10,0:0:0:0:
179,237,138808,37,8,0:0:0:0:
190,234,138886,1,8,0:0:0:0:
202,232,138964,1,8,0:0:0:0:
214,230,139042,1,8,0:0:0:0:
226,210,139120,21,8,0:0:0:0:
249,213,139198,1,8,0:0:0:0:
273,217,139276,1,8,0:0:0:0:
297,220,139354,1,8,0:0:0:0:
314,248,139433,70,0,L|309:211,1,35.9999989013672,8|0,0:0|0:0,0:0:0:0:
349,242,139511,2,0,L|344:205,1,35.9999989013672,8|0,0:0|0:0,0:0:0:0:
385,237,139589,2,0,L|380:200,1,35.9999989013672,8|0,0:0|0:0,0:0:0:0:
420,231,139667,2,0,L|415:194,1,35.9999989013672,8|0,0:0|0:0,0:0:0:0:
455,201,139745,22,0,B|473:210|473:210|493:206,1,40,8|0,0:0|0:0,0:0:0:0:
440,163,139823,2,0,B|456:151|456:151|463:132,1,40,8|0,0:0|0:0,0:0:0:0:
399,157,139900,2,0,B|397:136|397:136|384:121,1,40,8|0,0:0|0:0,0:0:0:0:
374,189,139978,2,0,B|356:179|356:179|336:184,1,40,8|0,0:0|0:0,0:0:0:0:
256,192,140058,12,2,143183,0:3:0:0:
