osu file format v14

[General]
AudioFilename: audio.mp3
AudioLeadIn: 0
PreviewTime: 97174
Countdown: 0
SampleSet: Soft
StackLeniency: 0.7
Mode: 0
LetterboxInBreaks: 0
EpilepsyWarning: 1
WidescreenStoryboard: 1

[Editor]
Bookmarks: 21075,38653,128815
DistanceSpacing: 1.4
BeatDivisor: 8
GridSize: 32
TimelineZoom: 2.799999

[Metadata]
Title:R.I.P.
TitleUnicode:R.I.P.
Artist:eicateve
ArtistUnicode:eicateve
Creator:Firika
Version:Hard
Source:CHUNITHM CRYSTAL
Tags:BMS RIP Rest in Peace G2R2018 -GO BACK 2 YOUR ROOTS 2018 climax- 旅立った彼女へ Her requiem えいか eicaTV シ 死 hrchem TOHRU MiTSUHASHi SEGA Quantum Rosta Necho sudaasd Reincarnation
BeatmapID:2311237
BeatmapSetID:1103441

[Difficulty]
HPDrainRate:5
CircleSize:3.6
OverallDifficulty:6
ApproachRate:8
SliderMultiplier:1.4
SliderTickRate:1

[Events]
//Background and Video events
0,0,"333321.jpg",0,0
Video,-42,"optc.flv"
//Break Periods
2,60258,68683
//Storyboard Layer 0 (Background)
//Storyboard Layer 1 (Fail)
//Storyboard Layer 2 (Pass)
//Storyboard Layer 3 (Foreground)
//Storyboard Layer 4 (Overlay)
//Storyboard Sound Samples
Sample,88854,0,"stopped.mp3",40
Sample,95690,0,"FriendLeft.wav",100

[TimingPoints]
58,312.5,4,2,2,60,1,0
58,-133.333333333333,4,2,2,60,0,0
10058,-200,4,2,2,60,0,0
17558,-100,4,2,2,60,0,0
20058,-83.3333333333333,4,2,2,70,0,0
30058,-83.3333333333333,4,2,2,80,0,0
33183,-83.3333333333333,4,2,2,80,0,0
38808,-66.6666666666667,4,2,2,80,0,0
39745,-83.3333333333333,4,2,2,80,0,0
40058,-100,4,2,2,80,0,1
49979,-100,4,2,2,80,0,0
50058,-100,4,2,2,90,0,1
60058,-200,4,2,3,50,0,0
69433,-200,4,2,3,55,0,0
70058,-133.333333333333,4,2,3,60,0,0
79433,-133.333333333333,4,2,3,50,0,0
95058,-200,4,2,2,60,0,0
99433,-200,4,2,5,60,0,0
100058,-125,4,2,5,70,0,0
110058,-125,4,2,5,80,0,0
117558,-100,4,2,2,80,0,0
120058,-100,4,2,2,80,0,1
129979,-100,4,2,2,80,0,0
130058,-100,4,2,2,90,0,1
140058,-100,4,2,2,60,0,0

[Colours]
Combo1 : 64,255,112
Combo2 : 212,212,212
Combo3 : 106,106,106
Combo4 : 255,64,69
Combo5 : 64,112,255
Combo6 : 255,207,64
SliderTrackOverride : 0,0,0

[HitObjects]
227,134,58,5,2,3:2:0:0:
227,134,214,2,0,L|278:124,1,52.5000020027161,2|2,0:0|0:0,0:0:0:0:
186,219,526,1,2,3:2:0:0:
186,219,683,2,0,L|210:265,1,52.5000020027161,2|2,0:0|0:0,0:0:0:0:
93,206,995,1,2,3:2:0:0:
93,206,1151,2,0,L|56:243,1,52.5000020027161,2|2,0:0|0:0,0:0:0:0:
77,113,1463,1,2,3:2:0:0:
77,113,1620,2,0,L|29:89,1,52.5000020027161,2|2,0:0|0:0,0:0:0:0:
160,69,1933,6,0,L|167:17,1,52.5000020027161,2|0,3:2|0:0,0:0:0:0:
227,134,2245,2,0,L|278:124,1,52.5000020027161,2|0,3:2|0:0,0:0:0:0:
381,150,2558,70,0,P|402:135|428:131,2,52.5000020027161,2|2|2,3:2|0:0|0:0,0:0:0:0:
437,227,3026,2,0,P|460:238|477:258,2,52.5000020027161,2|2|2,3:2|0:0|0:0,0:0:0:0:
398,313,3495,2,0,P|399:339|390:363,2,52.5000020027161,2|2|2,3:2|0:0|0:0,0:0:0:0:
303,322,3964,2,0,P|281:336|255:340,2,52.5000020027161,2|2|2,3:2|0:0|0:0,0:0:0:0:
248,246,4433,6,0,P|224:234|207:214,1,52.5000020027161,2|0,3:2|0:0,0:0:0:0:
286,160,4745,1,2,3:2:0:0:
286,160,4901,1,0,0:0:0:0:
231,81,5058,69,2,3:2:0:0:
231,81,5214,2,0,L|168:89,1,52.5000020027161,2|2,0:0|0:0,0:0:0:0:
86,70,5526,1,2,3:2:0:0:
86,70,5682,2,0,L|74:132,1,52.5000020027161,2|2,0:0|0:0,0:0:0:0:
30,204,5995,1,2,3:2:0:0:
30,204,6151,2,0,L|85:234,1,52.5000020027161,2|2,0:0|0:0,0:0:0:0:
140,298,6464,1,2,3:2:0:0:
140,298,6620,2,0,L|186:254,1,52.5000020027161,2|2,0:0|0:0,0:0:0:0:
264,222,6933,6,0,L|236:164,1,52.5000020027161,2|0,3:2|0:0,0:0:0:0:
231,81,7245,2,0,L|178:87,1,52.5000020027161,2|0,3:2|0:0,0:0:0:0:
316,118,7558,69,2,3:2:0:0:
316,118,7714,2,0,L|379:126,1,52.5000020027161,2|2,0:2|0:0,0:0:0:0:
455,88,8026,1,0,0:0:0:0:
455,88,8183,2,0,L|463:25,1,52.5000020027161,2|2,0:0|0:2,0:0:0:0:
443,182,8495,2,0,L|435:245,1,52.5000020027161,2|2,3:2|0:2,0:0:0:0:
368,124,8808,2,0,L|316:118,2,52.5000020027161,2|0|0,0:0|3:0|0:0,0:0:0:0:
455,88,9276,2,0,L|463:25,2,52.5000020027161,2|0|0,0:0|3:0|0:0,0:0:0:0:
442,182,9745,6,0,L|437:222,3,26.2500010013581,2|0|0|0,0:0|0:0|0:0|0:0,0:0:0:0:
435,234,10058,70,0,B|286:171|292:335|114:353|84:195|161:166|197:177,1,420,0|0,1:0|1:0,0:0:0:0:
119,63,12558,6,0,P|32:206|196:175,1,420,0|0,1:0|1:0,0:0:0:0:
256,116,14589,1,0,1:0:0:0:
392,63,15058,70,0,P|479:206|315:175,1,420,0|0,1:0|1:0,0:0:0:0:
95,352,17558,6,0,P|127:336|147:308,1,70,8|8,0:0|0:0,0:0:0:0:
62,261,17870,2,0,P|65:226|50:195,1,70,8|8,0:0|0:0,0:0:0:0:
103,112,18183,70,0,L|176:117,1,70,8|8,0:0|0:0,0:0:0:0:
156,213,18495,2,0,L|229:218,1,70,8|8,0:0|0:0,0:0:0:0:
313,172,18808,6,0,L|344:188,3,35,8|8|0|8,0:0|0:0|0:0|0:0,0:0:0:0:
343,209,19120,6,0,L|373:224,3,35,8|8|8|8,0:0|0:0|0:0|0:0,0:0:0:0:
383,244,19433,54,0,P|441:215|458:135,1,140,8|8,0:0|0:0,0:0:0:0:
426,55,19901,1,0,0:0:0:0:
327,78,20058,22,0,B|249:63|253:141|173:125,1,167.999994873047,4|8,1:2|0:0,0:0:0:0:
93,64,20527,1,2,0:0:0:0:
93,64,20683,2,0,P|73:100|73:142,1,83.9999974365235,0|2,0:0|1:2,0:0:0:0:
138,219,20995,1,8,0:0:0:0:
236,197,21151,1,2,0:0:0:0:
236,197,21308,70,0,B|269:237|269:237|253:352,1,167.999994873047,0|8,1:0|0:0,0:0:0:0:
350,325,21776,1,2,0:0:0:0:
350,325,21933,2,0,P|407:332|448:359,1,83.9999974365235,2|2,1:2|1:2,0:0:0:0:
500,271,22245,2,0,P|477:218|480:169,1,83.9999974365235,10|2,0:0|1:2,0:0:0:0:
377,168,22558,6,0,P|314:218|236:197,1,167.999994873047,0|8,1:0|0:0,0:0:0:0:
173,118,23026,1,2,0:0:0:0:
254,58,23183,2,0,P|299:61|335:84,2,83.9999974365235,0|2|8,1:0|1:2|0:0,0:0:0:0:
173,118,23651,1,2,0:0:0:0:
173,117,23808,54,0,P|134:133|92:138,1,83.9999974365235,0|2,1:0|1:2,0:0:0:0:
8,192,24120,1,8,0:0:0:0:
93,246,24276,1,2,0:0:0:0:
113,238,24354,2,0,P|118:300|97:359,1,125.999996154785,8|2,0:0|1:2,0:0:0:0:
194,333,24745,2,0,L|277:341,1,83.9999974365235,10|2,0:0|1:2,0:0:0:0:
290,325,24979,1,2,1:2:0:0:
303,309,25058,22,0,P|338:357|446:352,1,167.999994873047,0|8,1:0|0:0,0:0:0:0:
505,281,25526,1,2,0:0:0:0:
505,281,25683,2,0,L|494:189,1,83.9999974365235,0|2,0:0|1:2,0:0:0:0:
409,145,25995,1,8,0:0:0:0:
466,61,26151,1,2,0:0:0:0:
465,61,26308,70,0,P|403:113|321:106,1,167.999994873047,0|8,1:0|0:0,0:0:0:0:
227,144,26776,1,2,0:0:0:0:
156,71,26933,2,0,L|110:76,3,41.9999987182618,2|2|2|2,1:2|0:0|1:2|0:0,0:0:0:0:
94,70,27245,2,0,P|79:109|82:150,1,83.9999974365235,10|2,0:0|0:0,0:0:0:0:
45,244,27558,6,0,B|128:230|112:301|200:286,1,167.999994873047,0|8,1:0|0:0,0:0:0:0:
284,342,28026,2,0,P|321:321|380:328,1,83.9999974365235,2|2,1:2|0:0,0:0:0:0:
461,300,28339,2,0,L|456:343,2,41.9999987182618,10|8|8,0:0|0:0|0:0,0:0:0:0:
427,216,28651,1,2,1:2:0:0:
427,216,28729,1,0,1:0:0:0:
427,215,28808,54,0,P|466:202|491:169,1,83.9999974365235,4|4,1:0|1:0,0:0:0:0:
405,118,29120,2,0,P|413:77|396:39,1,83.9999974365235,4|4,1:0|1:0,0:0:0:0:
310,88,29433,2,0,P|278:60|237:55,1,83.9999974365235,4|4,1:0|1:0,0:0:0:0:
138,72,29745,2,0,L|130:117,3,41.9999987182618,0|0|0|0,1:0|1:0|1:0|1:0,0:0:0:0:
116,129,30058,22,0,P|183:178|177:262,1,167.999994873047,4|8,1:2|0:0,0:0:0:0:
98,315,30526,1,2,0:0:0:0:
98,315,30683,2,0,P|58:297|3:304,2,83.9999974365235,0|2|8,0:0|1:2|0:0,0:0:0:0:
189,357,31151,1,2,0:0:0:0:
189,357,31308,70,0,B|224:330|224:330|365:348,1,167.999994873047,0|8,1:0|0:0,0:0:0:0:
428,287,31776,1,2,0:0:0:0:
428,287,31933,2,0,P|409:241|375:218,1,83.9999974365235,2|2,1:2|1:2,0:0:0:0:
399,120,32245,2,0,P|439:113|471:86,1,83.9999974365235,10|2,0:0|1:2,0:0:0:0:
394,21,32558,6,0,P|321:11|217:75,1,167.999994873047,0|8,1:0|0:0,0:0:0:0:
197,142,33026,1,2,0:0:0:0:
106,102,33183,2,0,L|96:18,2,83.9999974365235,0|2|8,1:0|1:2|0:0,0:0:0:0:
66,194,33651,1,2,0:0:0:0:
65,194,33808,54,0,P|43:228|43:269,1,83.9999974365235,0|2,1:0|1:2,0:0:0:0:
92,357,34120,1,8,0:0:0:0:
179,308,34276,1,2,0:0:0:0:
190,326,34354,2,0,P|242:356|306:346,1,125.999996154785,0|6,0:0|1:2,0:0:0:0:
386,286,34745,2,0,P|427:285|463:306,1,83.9999974365235,10|6,0:0|1:2,0:0:0:0:
477,290,34979,1,2,1:2:0:0:
491,274,35058,22,0,P|495:199|439:104,1,167.999994873047,4|8,1:2|0:0,0:0:0:0:
360,156,35526,1,2,0:0:0:0:
360,156,35683,2,0,P|307:153|272:123,1,83.9999974365235,0|2,0:0|1:2,0:0:0:0:
231,49,35995,1,8,0:0:0:0:
181,137,36151,1,2,0:0:0:0:
181,137,36308,70,0,L|188:237,1,83.9999974365235,0|2,1:0|0:0,0:0:0:0:
96,266,36620,2,0,L|89:166,1,83.9999974365235,8|2,0:0|0:0,0:0:0:0:
21,107,36933,2,0,L|25:65,3,41.9999987182618,2|2|2|2,1:2|0:0|1:2|0:0,0:0:0:0:
40,49,37245,2,0,P|85:44|136:64,1,83.9999974365235,10|2,0:0|0:0,0:0:0:0:
181,137,37558,6,0,L|188:237,1,83.9999974365235,0|2,1:0|0:0,0:0:0:0:
279,262,37870,2,0,P|329:243|428:259,2,125.999996154785,8|10|10,0:0|0:0|0:0,0:0:0:0:
208,334,38495,2,0,L|212:375,1,41.9999987182618,2|10,1:2|0:0,0:0:0:0:
69,336,38808,54,0,B|34:329|34:329|7:349,2,70.0000026702882,4|4|4,1:0|1:0|1:0,0:0:0:0:
92,309,39120,6,0,B|128:301|128:301|155:321,2,70.0000026702882,4|4|4,1:0|1:0|1:0,0:0:0:0:
78,276,39433,6,0,B|42:268|42:268|15:288,2,70.0000026702882,4|4|4,1:0|1:0|1:0,0:0:0:0:
102,261,39745,54,0,L|109:220,3,41.9999987182618,8|8|8|8,0:0|0:0|0:0|0:0,0:0:0:0:
97,202,40058,5,4,1:2:0:0:
189,169,40214,2,0,L|332:186,1,140,0|8,1:0|0:0,0:0:0:0:
398,117,40683,2,0,P|425:179|405:245,1,140,8|0,0:0|1:0,0:0:0:0:
314,282,41151,6,0,L|306:335,2,35,0|0|0,1:0|1:0|1:0,0:0:0:0:
216,298,41464,2,0,L|208:351,2,35,0|0|0,1:0|1:0|1:0,0:0:0:0:
134,244,41776,1,8,0:0:0:0:
134,244,41933,2,0,L|65:257,1,70,8|0,0:0|1:0,0:0:0:0:
16,172,42245,2,0,L|84:158,1,70,12|0,0:0|1:0,0:0:0:0:
140,77,42558,53,0,1:0:0:0:
140,77,42636,1,0,1:0:0:0:
140,77,42714,1,0,1:0:0:0:
225,124,42870,2,0,P|285:115|311:95,1,70,0|8,1:0|0:0,0:0:0:0:
368,172,43183,2,0,L|358:241,2,70,4|4|0,1:2|1:2|1:0,0:0:0:0:
444,110,43651,6,0,L|491:103,2,35,0|0|0,1:0|1:0|1:0,0:0:0:0:
469,205,43964,2,0,L|516:198,2,35,0|0|0,1:0|1:0|1:0,0:0:0:0:
438,297,44276,1,4,1:2:0:0:
438,297,44354,1,0,1:0:0:0:
438,297,44433,2,0,P|415:323|383:335,1,70,12|0,0:2|1:0,0:0:0:0:
288,311,44745,2,0,P|265:284|233:272,1,70,12|12,0:2|0:2,0:0:0:0:
140,305,45058,5,4,1:0:0:0:
46,338,45214,2,0,P|38:268|4:208,1,140,0|12,1:0|0:0,0:0:0:0:
54,123,45683,2,0,L|192:143,1,140,12|0,0:0|1:0,0:0:0:0:
277,95,46151,54,0,L|272:42,2,35,0|0|0,1:0|1:0|1:0,0:0:0:0:
375,86,46464,2,0,L|370:33,2,35,0|0|0,1:0|1:0|1:0,0:0:0:0:
442,156,46776,1,8,0:0:0:0:
442,156,46933,2,0,L|432:225,1,70,8|0,0:0|1:0,0:0:0:0:
475,313,47245,2,0,P|441:323|407:320,1,70,4|0,1:2|1:0,0:0:0:0:
311,295,47558,6,0,L|305:347,2,35,0|0|0,1:0|1:0|1:0,0:0:0:0:
256,213,47870,2,0,L|176:224,1,70,0|8,1:0|0:0,0:0:0:0:
109,160,48183,2,0,L|117:90,2,70,4|4|0,1:2|1:2|1:0,0:0:0:0:
61,245,48651,1,0,1:0:0:0:
61,245,48729,1,0,1:0:0:0:
61,245,48808,6,0,L|9:251,2,35,0|0|0,1:0|1:0|1:0,0:0:0:0:
139,313,49120,1,0,1:0:0:0:
231,280,49276,1,0,1:0:0:0:
231,280,49354,1,0,1:0:0:0:
231,280,49433,2,0,L|224:383,1,70,0|0,1:0|1:0,0:0:0:0:
319,379,49745,2,0,L|323:309,1,70,8|0,0:0|1:0,0:0:0:0:
406,256,50058,53,4,1:2:0:0:
473,327,50214,2,0,P|506:267|487:201,1,140,0|8,1:0|0:0,0:0:0:0:
407,143,50683,2,0,L|243:164,1,140,8|0,0:0|1:0,0:0:0:0:
196,94,51151,6,0,L|202:59,2,35,0|0|0,1:0|1:0|1:0,0:0:0:0:
98,106,51464,2,0,L|104:71,2,35,0|0|0,1:0|1:0|1:0,0:0:0:0:
32,178,51776,1,8,0:0:0:0:
32,178,51933,2,0,L|41:249,1,70,8|0,0:0|1:0,0:0:0:0:
135,221,52245,2,0,L|144:292,1,70,4|0,1:2|1:0,0:0:0:0:
200,378,52558,5,0,1:0:0:0:
200,378,52636,1,0,1:0:0:0:
200,378,52714,1,0,1:0:0:0:
289,337,52870,2,0,P|300:304|299:269,1,70,0|8,1:0|0:0,0:0:0:0:
369,200,53183,2,0,L|455:212,2,70,4|4|0,1:2|1:2|1:0,0:0:0:0:
280,157,53651,54,0,L|240:161,2,35,0|0|0,1:0|1:0|1:0,0:0:0:0:
255,61,53964,2,0,L|215:65,2,35,0|0|0,1:0|1:0|1:0,0:0:0:0:
333,2,54276,1,4,1:2:0:0:
333,2,54354,1,0,1:0:0:0:
333,2,54433,2,0,P|361:21|396:25,1,70,12|0,0:0|1:0,0:0:0:0:
459,99,54745,2,0,P|430:118|395:122,1,70,12|12,0:0|0:0,0:0:0:0:
310,170,55058,5,0,1:0:0:0:
244,97,55214,2,0,L|104:111,1,140,0|8,1:0|0:0,0:0:0:0:
13,73,55683,2,0,P|10:142|54:195,1,140,8|0,0:0|1:0,0:0:0:0:
80,289,56151,6,0,L|69:336,2,35,0|0|0,1:0|1:0|1:0,0:0:0:0:
175,314,56464,2,0,L|164:361,2,35,0|0|0,1:0|1:0|1:0,0:0:0:0:
256,260,56776,1,8,0:0:0:0:
256,260,56933,2,0,L|325:255,1,70,8|0,0:0|1:0,0:0:0:0:
327,352,57245,2,0,L|396:347,1,70,4|0,1:2|1:0,0:0:0:0:
474,286,57558,53,0,1:0:0:0:
474,286,57636,1,0,1:0:0:0:
474,286,57714,1,0,1:0:0:0:
415,207,57870,2,0,P|431:167|431:134,1,70,0|8,1:0|0:0,0:0:0:0:
365,67,58183,2,0,L|287:74,2,70,0|0|0,1:0|1:0|1:0,0:0:0:0:
451,20,58651,6,0,L|172:45,1,280,0|0,1:0|0:0,0:0:0:0:
72,38,59433,6,0,P|73:72|90:102,1,70,0|0,1:0|1:0,0:0:0:0:
182,145,59745,2,0,P|217:148|234:160,2,35,8|0|8,0:0|0:0|0:0,0:0:0:0:
99,202,60058,21,2,0:3:0:0:
52,61,69433,22,0,L|57:21,2,35,2|2|2,0:0|0:0|0:0,0:0:0:0:
133,128,70058,54,0,P|184:123|229:95,1,105.000004005432,2|2,0:3|0:0,0:0:0:0:
319,69,70526,1,2,0:0:0:0:
319,69,70683,2,0,P|324:120|352:165,1,105.000004005432,2|2,0:0|0:0,0:0:0:0:
379,255,71151,1,2,0:0:0:0:
379,255,71308,2,0,P|327:260|282:288,1,105.000004005432,2|2,0:0|0:0,0:0:0:0:
192,315,71776,1,2,0:0:0:0:
192,315,71933,2,0,P|187:263|159:218,1,105.000004005432,2|2,0:0|0:0,0:0:0:0:
21,168,72558,37,2,0:3:0:0:
21,168,72714,2,0,P|69:157|106:110,1,105.000004005432,2|2,0:0|0:0,0:0:0:0:
175,53,73183,1,0,0:0:0:0:
175,53,73339,2,0,P|199:100|247:125,1,105.000004005432,2|2,0:0|0:0,0:0:0:0:
309,192,73808,1,0,0:0:0:0:
309,192,73964,2,0,P|351:168|406:160,1,105.000004005432,2|2,0:0|0:0,0:0:0:0:
478,221,74433,1,0,0:0:0:0:
478,221,74589,2,0,P|477:269|457:321,1,105.000004005432,2|2,0:0|0:0,0:0:0:0:
368,352,75058,37,2,0:3:0:0:
368,352,75214,2,0,P|326:327|291:283,1,105.000004005432,2|0,0:0|0:0,0:0:0:0:
200,311,75683,2,0,P|122:311|57:354,1,157.500006008148,2|2,0:0|0:0,0:0:0:0:
57,354,76308,2,0,P|95:286|90:209,1,157.500006008148,2|2,0:0|0:0,0:0:0:0:
91,209,76933,2,0,P|129:276|199:310,1,157.500006008148,2|2,0:0|0:0,0:0:0:0:
283,266,77558,21,2,0:3:0:0:
283,266,77714,2,0,P|319:257|347:261,2,52.5000020027161,0|2|2,0:0|0:0|0:0,0:0:0:0:
208,206,78183,1,2,0:0:0:0:
208,206,78339,2,0,P|218:170|235:148,2,52.5000020027161,0|2|2,0:0|0:0|0:0,0:0:0:0:
118,240,78808,1,2,0:0:0:0:
118,240,78964,2,0,P|92:213|81:187,2,52.5000020027161,2|2|2,0:0|0:0|0:0,0:0:0:0:
102,334,79433,54,0,P|168:324|250:358,1,157.500006008148,8|0,0:3|0:0,0:0:0:0:
256,192,80058,12,2,81308,0:0:0:0:
256,192,82558,12,2,83808,0:0:0:0:
256,192,85058,12,2,86308,0:0:0:0:
256,192,87558,12,2,88808,0:0:0:0:
256,192,88886,12,2,95058,3:2:0:0:
418,151,99433,6,0,P|446:132|480:136,1,70,2|2,0:0|0:0,0:0:0:0:
336,74,100058,54,0,P|285:121|232:123,1,112,2|0,1:2|3:0,0:0:0:0:
81,51,100683,2,0,P|107:58|128:76,1,56,0|0,0:0|3:0,0:0:0:0:
66,140,100995,2,0,P|93:180|92:208,1,56,2|0,1:2|3:0,0:0:0:0:
162,245,101308,2,0,L|280:236,1,112,0|0,1:0|3:0,0:0:0:0:
369,85,101933,2,0,L|373:140,1,56,0|0,0:0|3:0,0:0:0:0:
457,111,102245,2,0,L|461:166,1,56,2|2,1:2|3:2,0:0:0:0:
494,250,102558,22,0,P|443:250|383:292,1,112,2|0,1:2|3:0,0:0:0:0:
234,367,103183,1,0,0:0:0:0:
234,367,103339,2,0,P|197:339|172:337,2,56,0|0|0,0:0|0:0|3:0,0:0:0:0:
303,309,103808,2,0,P|311:236|345:198,1,112,2|0,1:2|3:0,0:0:0:0:
416,172,104276,1,2,0:0:0:0:
297,35,104589,2,0,P|271:26|244:24,1,56,0|2,0:0|0:0,0:0:0:0:
252,114,104901,1,0,3:0:0:0:
252,114,104979,1,0,3:0:0:0:
251,114,105058,6,0,P|206:145|151:150,1,112,2|0,1:2|3:0,0:0:0:0:
66,119,105526,1,0,1:0:0:0:
16,291,105839,2,0,P|65:261|129:286,1,112,0|0,3:0|0:0,0:0:0:0:
169,344,106308,2,0,L|280:335,1,112,2|0,1:2|3:0,0:0:0:0:
244,253,106776,2,0,L|355:244,1,112,2|0,1:2|3:0,0:0:0:0:
319,162,107245,2,0,L|374:157,1,56,2|0,1:2|3:0,0:0:0:0:
456,197,107558,38,0,P|465:142|439:94,1,112,2|0,1:2|0:3,0:0:0:0:
358,54,108026,1,2,1:2:0:0:
189,116,108339,1,0,0:0:0:0:
189,116,108495,2,0,L|125:106,1,56,2|0,1:2|3:0,0:0:0:0:
69,44,108808,2,0,P|42:92|52:146,1,112,0|0,1:0|3:0,0:0:0:0:
132,308,109433,2,0,P|169:285|220:292,1,84,2|0,3:2|3:0,0:0:0:0:
221,293,109745,2,0,L|228:355,1,56,0|0,1:0|3:0,0:0:0:0:
314,327,110058,22,0,L|376:334,2,56,0|0|0,1:0|0:0|3:0,0:0:0:0:
292,240,110526,2,0,P|356:230|412:203,1,112,0|0,1:0|3:0,0:0:0:0:
460,145,110995,1,2,1:2:0:0:
460,145,111151,2,0,P|455:102|381:82,1,112,0|0,3:0|0:0,0:0:0:0:
321,123,111620,1,2,3:2:0:0:
321,123,111776,2,0,P|256:104|207:108,1,112,0|2,1:0|3:2,0:0:0:0:
47,36,112401,1,0,3:0:0:0:
47,36,112479,1,0,3:0:0:0:
47,36,112558,6,0,L|58:103,1,56,2|0,1:2|1:0,0:0:0:0:
129,142,112870,1,0,3:0:0:0:
129,142,113026,2,0,L|110:252,1,112,0|0,1:0|0:0,0:0:0:0:
33,299,113495,2,0,L|44:366,1,56,0|0,1:0|3:0,0:0:0:0:
128,380,113808,2,0,P|190:351|304:357,1,168,2|2,1:2|1:2,0:0:0:0:
460,303,114589,2,0,P|413:319|360:272,1,112,2|0,0:0|3:0,0:0:0:0:
356,275,114979,1,0,3:0:0:0:
356,275,115058,38,0,P|387:227|376:113,1,168,2|2,1:2|1:2,0:0:0:0:
245,238,115839,1,0,3:0:0:0:
245,238,115995,2,0,P|243:208|222:178,1,56,2|2,1:2|3:2,0:0:0:0:
158,240,116308,2,0,P|94:214|34:229,1,112,0|0,0:0|3:0,0:0:0:0:
66,131,116776,2,0,L|56:19,1,112,2|0,1:2|3:0,0:0:0:0:
144,37,117245,2,0,L|148:92,1,56,2|0,1:2|3:0,0:0:0:0:
228,171,117558,22,0,P|276:149|314:154,1,70,8|8,0:0|0:0,0:0:0:0:
326,56,117870,2,0,P|357:73|378:101,1,70,8|8,0:0|0:0,0:0:0:0:
469,137,118183,2,0,L|461:206,1,70,8|8,0:0|0:0,0:0:0:0:
363,216,118495,2,0,L|355:285,1,70,8|8,0:0|0:0,0:0:0:0:
278,347,118808,6,0,L|234:342,3,35,8|8|8|8,0:0|0:0|0:0|0:0,0:0:0:0:
227,330,119120,70,0,L|183:335,3,35,8|8|0|8,0:0|0:0|0:0|0:0,0:0:0:0:
183,353,119433,54,0,P|148:302|65:317,1,140,8|8,0:0|0:0,0:0:0:0:
8,236,119901,1,0,0:0:0:0:
100,171,120058,22,0,P|171:209|233:196,1,140,4|10,1:0|0:0,0:0:0:0:
316,238,120526,1,2,0:0:0:0:
316,238,120683,2,0,L|392:228,1,70,0|2,1:0|0:0,0:0:0:0:
443,150,120995,2,0,L|367:140,1,70,10|2,0:0|0:0,0:0:0:0:
352,44,121308,54,0,P|317:38|286:53,1,70,0|2,1:0|0:0,0:0:0:0:
202,102,121620,2,0,P|167:107|136:92,1,70,10|2,0:0|0:0,0:0:0:0:
51,43,121933,2,0,L|21:61,3,35,2|2|2|2,1:2|0:0|0:0|0:0,0:0:0:0:
23,83,122245,2,0,L|10:117,3,35,10|2|2|2,0:0|0:0|0:0|0:0,0:0:0:0:
16,137,122558,22,0,B|37:178|37:178|23:270,1,140,0|10,1:0|0:0,0:0:0:0:
61,361,123026,1,2,0:0:0:0:
140,303,123183,1,0,1:0:0:0:
140,303,123339,1,2,1:2:0:0:
140,303,123495,2,0,P|178:291|228:301,1,70,10|2,0:0|1:2,0:0:0:0:
294,338,123808,69,0,1:0:0:0:
294,338,123964,1,2,1:2:0:0:
381,293,124120,2,0,P|386:258|377:224,1,70,10|0,0:0|1:0,0:0:0:0:
385,209,124354,2,0,P|337:236|286:245,1,105,8|0,0:0|1:0,0:0:0:0:
215,179,124745,2,0,P|166:169|131:178,1,70,8|0,0:0|1:0,0:0:0:0:
131,165,124979,1,0,1:0:0:0:
116,158,125058,6,0,P|109:110|194:68,1,140,0|10,1:0|0:0,0:0:0:0:
272,40,125526,1,2,0:0:0:0:
272,40,125683,2,0,P|317:49|346:81,1,70,0|2,1:0|0:0,0:0:0:0:
419,15,125995,2,0,P|432:46|429:81,1,70,10|2,0:0|0:0,0:0:0:0:
481,165,126308,54,0,L|411:172,1,70,0|2,1:0|0:0,0:0:0:0:
437,266,126620,2,0,L|367:273,1,70,10|2,0:0|0:0,0:0:0:0:
287,215,126933,2,0,L|238:211,3,35,2|2|2|2,1:2|0:0|0:0|0:0,0:0:0:0:
235,200,127245,2,0,L|207:240,3,35,10|2|2|2,0:0|0:0|0:0|0:0,0:0:0:0:
196,239,127558,22,0,P|205:295|139:359,1,140,0|10,1:0|0:0,0:0:0:0:
57,373,128026,1,2,0:0:0:0:
1,291,128183,1,0,1:0:0:0:
1,291,128339,1,2,1:2:0:0:
1,291,128495,2,0,P|-1:256|12:223,1,70,10|2,0:0|0:0,0:0:0:0:
91,165,128808,69,0,1:0:0:0:
91,165,128964,1,2,1:2:0:0:
79,67,129120,2,0,L|153:78,1,70,10|2,0:0|1:2,0:0:0:0:
156,93,129354,2,0,P|205:68|268:73,1,105,8|2,0:0|1:2,0:0:0:0:
359,65,129745,2,0,L|355:102,3,35,2|2|2|0,1:2|0:0|1:2|1:0,0:0:0:0:
362,120,130058,6,0,L|355:189,1,70,4|2,1:0|0:0,0:0:0:0:
342,201,130292,1,2,0:0:0:0:
329,213,130370,2,0,P|289:201|248:206,1,70,10|2,0:0|0:0,0:0:0:0:
169,150,130683,2,0,L|164:112,2,35,0|2|2,1:0|0:0|0:0,0:0:0:0:
94,224,130995,1,10,0:0:0:0:
94,224,131151,1,2,0:0:0:0:
162,304,131308,54,0,P|210:288|252:295,1,70,0|2,1:0|0:0,0:0:0:0:
245,296,131542,1,2,0:0:0:0:
262,304,131620,2,0,L|271:382,1,70,10|2,0:0|0:0,0:0:0:0:
371,345,131933,2,0,L|409:350,3,35,2|2|2|2,1:2|0:0|0:0|0:0,0:0:0:0:
424,363,132245,2,0,L|462:352,3,35,10|2|2|2,0:0|0:0|0:0|0:0,0:0:0:0:
478,355,132558,22,0,P|491:322|493:287,1,70,0|2,1:0|0:0,0:0:0:0:
488,271,132792,1,2,0:0:0:0:
483,255,132870,2,0,L|398:240,1,70,10|2,0:0|0:0,0:0:0:0:
336,171,133183,2,0,L|330:114,2,35,0|2|2,1:0|0:0|1:2,0:0:0:0:
270,252,133495,1,10,0:0:0:0:
270,252,133651,1,0,1:0:0:0:
192,181,133808,70,0,L|186:124,2,35,0|2|2,1:0|0:0|1:2,0:0:0:0:
126,262,134120,1,10,0:0:0:0:
48,191,134276,1,0,1:0:0:0:
33,182,134354,2,0,P|32:114|64:83,1,105,8|2,0:0|1:2,0:0:0:0:
144,34,134745,2,0,L|214:41,1,70,10|2,0:0|1:2,0:0:0:0:
228,52,134979,1,2,1:2:0:0:
242,63,135058,6,0,P|248:113|228:147,1,70,2|2,1:2|1:2,0:0:0:0:
260,233,135370,2,0,P|220:263|181:262,1,70,10|2,0:0|1:2,0:0:0:0:
100,233,135683,1,2,1:2:0:0:
100,233,135839,1,2,1:2:0:0:
23,304,135995,2,0,L|34:385,1,70,10|2,0:0|1:2,0:0:0:0:
100,233,136308,54,0,L|181:244,1,70,2|2,1:2|1:2,0:0:0:0:
234,160,136620,2,0,L|315:171,1,70,10|2,0:0|1:2,0:0:0:0:
386,104,136933,1,0,1:0:0:0:
386,104,137011,1,2,0:0:0:0:
386,104,137089,2,0,L|378:45,2,35,2|2|10,1:2|0:0|0:0,0:0:0:0:
478,153,137401,1,2,1:2:0:0:
478,153,137479,1,2,1:2:0:0:
478,153,137558,22,0,P|494:185|498:219,1,70,10|10,0:0|0:0,0:0:0:0:
411,277,137870,2,0,P|410:312|396:344,1,70,10|10,0:0|0:0,0:0:0:0:
293,366,138183,2,0,L|211:356,1,70,10|10,0:0|0:0,0:0:0:0:
180,262,138495,2,0,L|249:254,1,70,10|10,0:0|0:0,0:0:0:0:
345,209,138808,54,0,L|334:153,3,35,8|8|8|8,0:0|0:0|0:0|0:0,0:0:0:0:
346,155,139120,22,0,L|335:99,3,35,8|8|8|8,0:0|0:0|0:0|0:0,0:0:0:0:
322,108,139433,70,0,P|323:22|230:104,1,280,8|0,0:0|0:0,0:0:0:0:
