osu file format v14

[General]
AudioFilename: rip.mp3
AudioLeadIn: 0
PreviewTime: 101232
Countdown: 0
SampleSet: None
StackLeniency: 0.7
Mode: 3
LetterboxInBreaks: 0
SpecialStyle: 0
WidescreenStoryboard: 1

[Editor]
Bookmarks: 1232,21232,41232,61232,86075,101232,121232,141232
DistanceSpacing: 0.8
BeatDivisor: 4
GridSize: 8
TimelineZoom: 2.099999

[Metadata]
Title:R.I.P.
TitleUnicode:R.I.P.
Artist:eicateve
ArtistUnicode:eicateve
Creator:ExNeko
Version:hyper
Source:BMS
Tags:G2R2018 Climax -GO BACK 2 YOUR ROOTS 2018 climax- Her Requiem hrchem TOHRU MiTSUHASHi RIP
BeatmapID:1832539
BeatmapSetID:876877

[Difficulty]
HPDrainRate:7.5
CircleSize:4
OverallDifficulty:7.5
ApproachRate:5
SliderMultiplier:1.4
SliderTickRate:1

[Events]
//Background and Video events
0,0,"bg.jpg",0,0
//Break Periods
//Storyboard Layer 0 (Background)
//Storyboard Layer 1 (Fail)
//Storyboard Layer 2 (Pass)
//Storyboard Layer 3 (Foreground)
//Storyboard Sound Samples

[TimingPoints]
1232,312.5,4,3,1,50,1,0
121232,-100,4,3,1,50,0,1
141232,-100,4,3,1,50,0,0

[HitObjects]
64,192,1232,5,0,0:0:0:0:
192,192,1232,1,0,0:0:0:0:
320,192,1388,1,0,0:0:0:0:
448,192,1544,1,0,0:0:0:0:
192,192,1700,1,0,0:0:0:0:
320,192,1857,1,0,0:0:0:0:
448,192,2013,1,0,0:0:0:0:
64,192,2169,1,0,0:0:0:0:
192,192,2325,1,0,0:0:0:0:
320,192,2482,1,0,0:0:0:0:
64,192,2638,1,0,0:0:0:0:
192,192,2794,1,0,0:0:0:0:
320,192,2950,1,0,0:0:0:0:
64,192,3107,1,0,0:0:0:0:
192,192,3263,1,0,0:0:0:0:
448,192,3419,1,0,0:0:0:0:
320,192,3575,1,0,0:0:0:0:
192,192,3732,1,0,0:0:0:0:
448,192,3732,1,0,0:0:0:0:
64,192,3888,1,0,0:0:0:0:
320,192,4044,1,0,0:0:0:0:
192,192,4200,1,0,0:0:0:0:
64,192,4357,1,0,0:0:0:0:
320,192,4513,1,0,0:0:0:0:
192,192,4669,1,0,0:0:0:0:
320,192,4825,1,0,0:0:0:0:
448,192,4982,1,0,0:0:0:0:
192,192,5138,1,0,0:0:0:0:
320,192,5294,1,0,0:0:0:0:
448,192,5450,1,0,0:0:0:0:
192,192,5607,1,0,0:0:0:0:
320,192,5763,1,0,0:0:0:0:
448,192,5919,1,0,0:0:0:0:
64,192,6075,1,0,0:0:0:0:
320,192,6232,1,0,0:0:0:0:
448,192,6232,1,0,0:0:0:0:
192,192,6388,1,0,0:0:0:0:
64,192,6544,1,0,0:0:0:0:
320,192,6700,1,0,0:0:0:0:
192,192,6857,1,0,0:0:0:0:
64,192,7013,1,0,0:0:0:0:
320,192,7169,1,0,0:0:0:0:
192,192,7325,1,0,0:0:0:0:
448,192,7482,1,0,0:0:0:0:
320,192,7638,1,0,0:0:0:0:
192,192,7794,1,0,0:0:0:0:
448,192,7950,1,0,0:0:0:0:
64,192,8107,1,0,0:0:0:0:
192,192,8263,1,0,0:0:0:0:
320,192,8419,1,0,0:0:0:0:
64,192,8575,1,0,0:0:0:0:
320,192,8732,1,0,0:0:0:0:
448,192,8732,1,0,0:0:0:0:
192,192,8888,1,0,0:0:0:0:
448,192,9044,1,0,0:0:0:0:
320,192,9200,1,0,0:0:0:0:
192,192,9357,1,0,0:0:0:0:
448,192,9513,1,0,0:0:0:0:
64,192,9669,1,0,0:0:0:0:
192,192,9825,1,0,0:0:0:0:
320,192,9982,1,0,0:0:0:0:
448,192,9982,1,0,0:0:0:0:
64,192,10138,1,0,0:0:0:0:
192,192,10294,1,0,0:0:0:0:
320,192,10450,1,0,0:0:0:0:
64,192,10607,1,0,0:0:0:0:
192,192,10763,1,0,0:0:0:0:
320,192,10919,1,0,0:0:0:0:
192,192,11075,1,0,0:0:0:0:
64,192,11232,1,2,0:0:0:0:
448,192,11232,1,0,0:0:0:0:
320,192,11388,1,0,0:0:0:0:
192,192,11544,1,0,0:0:0:0:
448,192,11700,1,0,0:0:0:0:
320,192,11857,1,0,0:0:0:0:
192,192,12013,1,0,0:0:0:0:
64,192,12169,1,0,0:0:0:0:
192,192,12325,1,0,0:0:0:0:
320,192,12482,1,0,0:0:0:0:
64,192,12638,1,0,0:0:0:0:
192,192,12794,1,0,0:0:0:0:
320,192,12950,1,0,0:0:0:0:
64,192,13107,1,2,0:0:0:0:
448,192,13107,1,0,0:0:0:0:
192,192,13263,1,0,0:0:0:0:
320,192,13419,1,0,0:0:0:0:
192,192,13575,1,0,0:0:0:0:
64,192,13732,1,2,0:0:0:0:
448,192,13732,1,0,0:0:0:0:
320,192,13888,1,0,0:0:0:0:
192,192,14044,1,0,0:0:0:0:
448,192,14200,1,0,0:0:0:0:
320,192,14357,1,0,0:0:0:0:
192,192,14513,1,0,0:0:0:0:
320,192,14669,1,0,0:0:0:0:
64,192,14825,1,0,0:0:0:0:
192,192,14982,1,0,0:0:0:0:
320,192,15138,1,0,0:0:0:0:
64,192,15294,1,0,0:0:0:0:
192,192,15450,1,0,0:0:0:0:
320,192,15607,1,2,0:0:0:0:
448,192,15607,1,0,0:0:0:0:
64,192,15763,1,2,0:0:0:0:
192,192,15763,1,0,0:0:0:0:
320,192,15919,1,0,0:0:0:0:
448,192,16075,1,0,0:0:0:0:
64,192,16232,1,2,0:0:0:0:
192,192,16232,1,0,0:0:0:0:
320,192,16388,1,0,0:0:0:0:
448,192,16544,1,0,0:0:0:0:
192,192,16700,1,0,0:0:0:0:
320,192,16857,1,0,0:0:0:0:
448,192,17013,1,0,0:0:0:0:
320,192,17169,1,0,0:0:0:0:
192,192,17325,1,0,0:0:0:0:
64,192,17482,1,0,0:0:0:0:
320,192,17638,1,0,0:0:0:0:
192,192,17794,1,0,0:0:0:0:
64,192,17950,1,0,0:0:0:0:
320,192,18107,1,2,0:0:0:0:
448,192,18107,1,0,0:0:0:0:
192,192,18263,1,0,0:0:0:0:
64,192,18419,1,0,0:0:0:0:
448,192,18575,1,0,0:0:0:0:
64,192,18732,1,8,0:0:0:0:
192,192,18732,1,0,0:0:0:0:
320,192,18888,1,8,0:0:0:0:
448,192,18888,1,0,0:0:0:0:
192,192,19044,1,8,0:0:0:0:
320,192,19044,1,0,0:0:0:0:
64,192,19200,1,8,0:0:0:0:
448,192,19200,1,0,0:0:0:0:
64,192,19357,1,8,0:0:0:0:
192,192,19357,1,0,0:0:0:0:
320,192,19513,1,8,0:0:0:0:
448,192,19513,1,0,0:0:0:0:
64,192,19669,1,8,0:0:0:0:
320,192,19669,1,0,0:0:0:0:
192,192,19825,1,8,0:0:0:0:
448,192,19825,1,0,0:0:0:0:
64,192,19982,1,8,0:0:0:0:
320,192,19982,1,0,0:0:0:0:
192,192,20060,1,8,0:0:0:0:
448,192,20138,1,8,0:0:0:0:
320,192,20216,1,8,0:0:0:0:
64,192,20294,1,8,0:0:0:0:
192,192,20372,1,8,0:0:0:0:
448,192,20450,1,8,0:0:0:0:
320,192,20528,1,8,0:0:0:0:
64,192,20607,1,2,0:0:0:0:
192,192,20685,1,2,0:0:0:0:
320,192,20763,1,2,0:0:0:0:
448,192,20841,1,2,0:0:0:0:
64,192,20919,1,2,0:0:0:0:
192,192,20997,1,2,0:0:0:0:
320,192,21075,1,2,0:0:0:0:
448,192,21153,1,2,0:0:0:0:
64,192,21232,1,2,0:0:0:0:
192,192,21232,1,4,0:0:0:0:
320,192,21388,1,0,0:0:0:0:
64,192,21544,1,8,0:0:0:0:
448,192,21544,1,0,0:0:0:0:
192,192,21700,1,0,0:0:0:0:
320,192,21857,1,0,0:0:0:0:
64,192,22013,1,2,0:0:0:0:
192,192,22013,1,0,0:0:0:0:
320,192,22169,1,8,0:0:0:0:
448,192,22169,1,0,0:0:0:0:
64,192,22325,1,0,0:0:0:0:
192,192,22482,1,2,0:0:0:0:
448,192,22482,1,0,0:0:0:0:
320,192,22638,1,0,0:0:0:0:
64,192,22794,1,8,0:0:0:0:
192,192,22794,1,0,0:0:0:0:
448,192,22950,1,0,0:0:0:0:
320,192,23107,1,0,0:0:0:0:
64,192,23185,1,0,0:0:0:0:
192,192,23263,1,2,0:0:0:0:
320,192,23341,1,0,0:0:0:0:
64,192,23419,1,8,0:0:0:0:
448,192,23419,1,0,0:0:0:0:
192,192,23497,1,0,0:0:0:0:
320,192,23575,1,0,0:0:0:0:
448,192,23653,1,0,0:0:0:0:
64,192,23732,1,2,0:0:0:0:
192,192,23732,1,0,0:0:0:0:
320,192,23888,1,0,0:0:0:0:
64,192,24044,1,8,0:0:0:0:
448,192,24044,1,0,0:0:0:0:
192,192,24200,1,0,0:0:0:0:
320,192,24357,1,0,0:0:0:0:
64,192,24513,1,2,0:0:0:0:
448,192,24513,1,0,0:0:0:0:
192,192,24669,1,8,0:0:0:0:
320,192,24669,1,0,0:0:0:0:
64,192,24825,1,0,0:0:0:0:
320,192,24982,1,2,0:0:0:0:
448,192,24982,1,0,0:0:0:0:
448,192,25138,1,2,0:0:0:0:
64,192,25294,1,8,0:0:0:0:
192,192,25294,1,0,0:0:0:0:
320,192,25450,1,2,0:0:0:0:
64,192,25528,1,8,0:0:0:0:
192,192,25528,1,0,0:0:0:0:
448,192,25607,1,0,0:0:0:0:
192,192,25763,1,2,0:0:0:0:
320,192,25763,1,0,0:0:0:0:
64,192,25919,1,8,0:0:0:0:
448,192,25919,1,0,0:0:0:0:
192,192,26075,1,2,0:0:0:0:
320,192,26153,1,2,0:0:0:0:
64,192,26232,1,2,0:0:0:0:
448,192,26232,1,0,0:0:0:0:
192,192,26388,1,0,0:0:0:0:
320,192,26544,1,8,0:0:0:0:
448,192,26544,1,0,0:0:0:0:
192,192,26700,1,0,0:0:0:0:
64,192,26857,1,0,0:0:0:0:
320,192,27013,1,2,0:0:0:0:
448,192,27013,1,0,0:0:0:0:
64,192,27169,1,8,0:0:0:0:
192,192,27169,1,0,0:0:0:0:
448,192,27325,1,0,0:0:0:0:
64,192,27482,1,2,0:0:0:0:
192,192,27482,1,0,0:0:0:0:
320,192,27638,1,0,0:0:0:0:
192,192,27794,1,8,0:0:0:0:
448,192,27794,1,0,0:0:0:0:
64,192,27950,1,0,0:0:0:0:
320,192,28107,1,0,0:0:0:0:
192,192,28185,1,0,0:0:0:0:
64,192,28263,1,2,0:0:0:0:
448,192,28341,1,0,0:0:0:0:
64,192,28419,1,8,0:0:0:0:
192,192,28419,1,0,0:0:0:0:
320,192,28575,1,0,0:0:0:0:
64,192,28732,1,2,0:0:0:0:
448,192,28732,1,0,0:0:0:0:
320,192,28888,1,0,0:0:0:0:
64,192,29044,1,8,0:0:0:0:
192,192,29044,1,0,0:0:0:0:
448,192,29200,1,0,0:0:0:0:
64,192,29278,1,8,0:0:0:0:
192,192,29278,1,0,0:0:0:0:
320,192,29357,1,0,0:0:0:0:
64,192,29513,1,8,0:0:0:0:
192,192,29591,1,8,0:0:0:0:
320,192,29669,1,8,0:0:0:0:
448,192,29669,1,0,0:0:0:0:
448,192,29825,1,2,0:0:0:0:
320,192,29903,1,2,0:0:0:0:
64,192,29982,1,2,0:0:0:0:
192,192,29982,1,0,0:0:0:0:
320,192,30138,1,2,0:0:0:0:
448,192,30138,1,0,0:0:0:0:
64,192,30294,1,2,0:0:0:0:
320,192,30294,1,0,0:0:0:0:
192,192,30450,1,2,0:0:0:0:
448,192,30450,1,0,0:0:0:0:
64,192,30607,1,2,0:0:0:0:
192,192,30607,1,0,0:0:0:0:
320,192,30763,1,2,0:0:0:0:
448,192,30763,1,0,0:0:0:0:
64,192,30919,1,2,0:0:0:0:
192,192,30997,1,2,0:0:0:0:
320,192,31075,1,2,0:0:0:0:
448,192,31153,1,2,0:0:0:0:
64,192,31232,1,2,0:0:0:0:
192,192,31232,1,4,0:0:0:0:
320,192,31388,1,0,0:0:0:0:
64,192,31544,1,8,0:0:0:0:
448,192,31544,1,0,0:0:0:0:
192,192,31700,1,0,0:0:0:0:
320,192,31857,1,0,0:0:0:0:
64,192,32013,1,2,0:0:0:0:
448,192,32013,1,0,0:0:0:0:
192,192,32169,1,8,0:0:0:0:
320,192,32169,1,0,0:0:0:0:
64,192,32325,1,0,0:0:0:0:
320,192,32482,1,2,0:0:0:0:
448,192,32482,1,0,0:0:0:0:
192,192,32638,1,0,0:0:0:0:
64,192,32794,1,8,0:0:0:0:
448,192,32794,1,0,0:0:0:0:
320,192,32950,1,0,0:0:0:0:
192,192,33107,1,0,0:0:0:0:
448,192,33185,1,0,0:0:0:0:
320,192,33263,1,2,0:0:0:0:
192,192,33341,1,0,0:0:0:0:
64,192,33419,1,8,0:0:0:0:
448,192,33419,1,0,0:0:0:0:
320,192,33497,1,0,0:0:0:0:
192,192,33575,1,0,0:0:0:0:
64,192,33653,1,0,0:0:0:0:
320,192,33732,1,2,0:0:0:0:
448,192,33732,1,0,0:0:0:0:
192,192,33888,1,0,0:0:0:0:
64,192,34044,1,8,0:0:0:0:
448,192,34044,1,0,0:0:0:0:
320,192,34200,1,0,0:0:0:0:
192,192,34357,1,0,0:0:0:0:
64,192,34513,1,2,0:0:0:0:
448,192,34513,1,0,0:0:0:0:
192,192,34669,1,8,0:0:0:0:
320,192,34669,1,0,0:0:0:0:
448,192,34825,1,0,0:0:0:0:
64,192,34982,1,2,0:0:0:0:
192,192,34982,1,0,0:0:0:0:
64,192,35138,1,2,0:0:0:0:
320,192,35294,1,8,0:0:0:0:
448,192,35294,1,0,0:0:0:0:
192,192,35450,1,2,0:0:0:0:
320,192,35528,1,8,0:0:0:0:
448,192,35528,1,0,0:0:0:0:
64,192,35607,1,0,0:0:0:0:
192,192,35763,1,2,0:0:0:0:
320,192,35763,1,0,0:0:0:0:
64,192,35919,1,8,0:0:0:0:
448,192,35919,1,0,0:0:0:0:
320,192,36075,1,2,0:0:0:0:
192,192,36153,1,2,0:0:0:0:
64,192,36232,1,2,0:0:0:0:
448,192,36232,1,0,0:0:0:0:
320,192,36388,1,0,0:0:0:0:
64,192,36544,1,8,0:0:0:0:
192,192,36544,1,0,0:0:0:0:
320,192,36700,1,0,0:0:0:0:
448,192,36857,1,0,0:0:0:0:
64,192,37013,1,2,0:0:0:0:
192,192,37013,1,0,0:0:0:0:
320,192,37169,1,8,0:0:0:0:
448,192,37169,1,0,0:0:0:0:
64,192,37325,1,0,0:0:0:0:
320,192,37482,1,2,0:0:0:0:
448,192,37482,1,0,0:0:0:0:
192,192,37638,1,0,0:0:0:0:
64,192,37794,1,8,0:0:0:0:
320,192,37794,1,0,0:0:0:0:
448,192,37950,1,0,0:0:0:0:
192,192,38107,1,0,0:0:0:0:
320,192,38185,1,0,0:0:0:0:
448,192,38263,1,2,0:0:0:0:
64,192,38341,1,0,0:0:0:0:
320,192,38419,1,8,0:0:0:0:
448,192,38419,1,0,0:0:0:0:
192,192,38575,1,0,0:0:0:0:
64,192,38732,1,2,0:0:0:0:
448,192,38732,1,0,0:0:0:0:
192,192,38888,1,0,0:0:0:0:
320,192,39044,1,8,0:0:0:0:
448,192,39044,1,0,0:0:0:0:
64,192,39200,1,0,0:0:0:0:
320,192,39278,1,8,0:0:0:0:
448,192,39278,1,0,0:0:0:0:
192,192,39357,1,0,0:0:0:0:
320,192,39513,1,8,0:0:0:0:
448,192,39513,1,0,0:0:0:0:
64,192,39669,1,0,0:0:0:0:
320,192,39747,1,8,0:0:0:0:
448,192,39747,1,0,0:0:0:0:
192,192,39825,1,0,0:0:0:0:
64,192,39903,1,0,0:0:0:0:
320,192,39982,1,2,0:0:0:0:
448,192,39982,1,0,0:0:0:0:
192,192,40086,1,2,0:0:0:0:
448,192,40190,1,2,0:0:0:0:
320,192,40294,1,2,0:0:0:0:
192,192,40294,1,0,0:0:0:0:
64,192,40398,1,2,0:0:0:0:
192,192,40502,1,2,0:0:0:0:
320,192,40607,1,2,0:0:0:0:
448,192,40607,1,0,0:0:0:0:
64,192,40711,1,2,0:0:0:0:
192,192,40815,1,2,0:0:0:0:
448,192,40919,1,8,0:0:0:0:
64,192,40919,1,0,0:0:0:0:
320,192,40997,1,8,0:0:0:0:
192,192,41075,1,8,0:0:0:0:
64,192,41153,1,8,0:0:0:0:
320,192,41232,1,2,0:0:0:0:
448,192,41232,1,4,0:0:0:0:
448,192,41388,1,2,0:0:0:0:
64,192,41544,1,2,0:0:0:0:
192,192,41544,1,0,0:0:0:0:
320,192,41700,1,8,0:0:0:0:
448,192,41700,1,0,0:0:0:0:
320,192,41857,1,8,0:0:0:0:
448,192,41857,1,0,0:0:0:0:
64,192,42169,1,2,0:0:0:0:
192,192,42169,1,0,0:0:0:0:
64,192,42325,1,2,0:0:0:0:
320,192,42482,1,2,0:0:0:0:
448,192,42482,1,0,0:0:0:0:
64,192,42638,1,2,0:0:0:0:
192,192,42716,1,2,0:0:0:0:
320,192,42794,1,2,0:0:0:0:
448,192,42794,1,0,0:0:0:0:
64,192,42950,1,8,0:0:0:0:
192,192,42950,1,0,0:0:0:0:
64,192,43107,1,8,0:0:0:0:
192,192,43107,1,0,0:0:0:0:
448,192,43263,1,2,0:0:0:0:
320,192,43341,1,2,0:0:0:0:
64,192,43419,1,8,0:0:0:0:
192,192,43419,1,0,0:0:0:0:
192,192,43575,1,2,0:0:0:0:
64,192,43732,1,2,0:0:0:0:
448,192,43732,1,0,0:0:0:0:
320,192,43810,1,2,0:0:0:0:
192,192,43888,1,2,0:0:0:0:
64,192,44044,1,2,0:0:0:0:
192,192,44044,1,0,0:0:0:0:
320,192,44200,1,8,0:0:0:0:
448,192,44200,1,0,0:0:0:0:
64,192,44357,1,8,0:0:0:0:
192,192,44357,1,0,0:0:0:0:
64,192,44513,1,8,0:0:0:0:
192,192,44513,1,0,0:0:0:0:
320,192,44669,1,2,0:0:0:0:
448,192,44669,1,0,0:0:0:0:
448,192,44825,1,2,0:0:0:0:
64,192,44982,1,2,0:0:0:0:
192,192,44982,1,0,0:0:0:0:
64,192,45138,1,2,0:0:0:0:
192,192,45216,1,2,0:0:0:0:
320,192,45294,1,2,0:0:0:0:
448,192,45294,1,0,0:0:0:0:
448,192,45450,1,8,0:0:0:0:
320,192,45528,1,8,0:0:0:0:
64,192,45607,1,8,0:0:0:0:
192,192,45607,1,0,0:0:0:0:
448,192,45763,1,2,0:0:0:0:
320,192,45841,1,2,0:0:0:0:
64,192,45919,1,8,0:0:0:0:
192,192,45919,1,0,0:0:0:0:
192,192,46075,1,8,0:0:0:0:
320,192,46153,1,8,0:0:0:0:
64,192,46232,1,2,0:0:0:0:
448,192,46232,1,0,0:0:0:0:
64,192,46388,1,2,0:0:0:0:
320,192,46544,1,2,0:0:0:0:
448,192,46544,1,0,0:0:0:0:
64,192,46700,1,8,0:0:0:0:
192,192,46700,1,0,0:0:0:0:
64,192,46857,1,8,0:0:0:0:
192,192,46857,1,0,0:0:0:0:
320,192,47169,1,2,0:0:0:0:
448,192,47169,1,0,0:0:0:0:
448,192,47325,1,2,0:0:0:0:
64,192,47482,1,2,0:0:0:0:
192,192,47482,1,0,0:0:0:0:
448,192,47638,1,2,0:0:0:0:
320,192,47716,1,2,0:0:0:0:
64,192,47794,1,2,0:0:0:0:
192,192,47794,1,0,0:0:0:0:
320,192,47950,1,8,0:0:0:0:
448,192,47950,1,0,0:0:0:0:
320,192,48107,1,8,0:0:0:0:
448,192,48107,1,0,0:0:0:0:
64,192,48263,1,2,0:0:0:0:
192,192,48341,1,2,0:0:0:0:
320,192,48419,1,8,0:0:0:0:
448,192,48419,1,0,0:0:0:0:
448,192,48575,1,2,0:0:0:0:
64,192,48732,1,2,0:0:0:0:
192,192,48732,1,0,0:0:0:0:
320,192,48810,1,2,0:0:0:0:
448,192,48888,1,2,0:0:0:0:
64,192,49044,1,2,0:0:0:0:
192,192,49044,1,0,0:0:0:0:
320,192,49200,1,8,0:0:0:0:
448,192,49200,1,0,0:0:0:0:
64,192,49357,1,8,0:0:0:0:
192,192,49357,1,0,0:0:0:0:
64,192,49513,1,8,0:0:0:0:
192,192,49513,1,0,0:0:0:0:
320,192,49669,1,2,0:0:0:0:
448,192,49669,1,0,0:0:0:0:
192,192,49825,1,2,0:0:0:0:
320,192,49903,1,2,0:0:0:0:
64,192,49982,1,8,0:0:0:0:
448,192,49982,1,0,0:0:0:0:
192,192,50060,1,2,0:0:0:0:
320,192,50138,1,2,0:0:0:0:
64,192,50294,1,2,0:0:0:0:
192,192,50294,1,0,0:0:0:0:
64,192,50450,1,2,0:0:0:0:
192,192,50528,1,2,0:0:0:0:
320,192,50607,1,2,0:0:0:0:
448,192,50607,1,0,0:0:0:0:
64,192,50763,1,2,0:0:0:0:
192,192,50763,1,0,0:0:0:0:
320,192,50919,1,2,0:0:0:0:
448,192,50919,1,0,0:0:0:0:
448,192,51075,1,2,0:0:0:0:
320,192,51153,1,2,0:0:0:0:
64,192,51232,1,2,0:0:0:0:
192,192,51232,1,4,0:0:0:0:
64,192,51388,1,2,0:0:0:0:
320,192,51544,1,2,0:0:0:0:
448,192,51544,1,0,0:0:0:0:
64,192,51700,1,8,0:0:0:0:
192,192,51700,1,0,0:0:0:0:
64,192,51857,1,8,0:0:0:0:
192,192,51857,1,0,0:0:0:0:
320,192,52169,1,2,0:0:0:0:
448,192,52169,1,0,0:0:0:0:
448,192,52325,1,2,0:0:0:0:
64,192,52482,1,2,0:0:0:0:
192,192,52482,1,0,0:0:0:0:
448,192,52638,1,2,0:0:0:0:
320,192,52716,1,2,0:0:0:0:
64,192,52794,1,2,0:0:0:0:
192,192,52794,1,0,0:0:0:0:
320,192,52950,1,8,0:0:0:0:
448,192,52950,1,0,0:0:0:0:
320,192,53107,1,8,0:0:0:0:
448,192,53107,1,0,0:0:0:0:
64,192,53263,1,2,0:0:0:0:
192,192,53341,1,2,0:0:0:0:
320,192,53419,1,8,0:0:0:0:
448,192,53419,1,0,0:0:0:0:
320,192,53575,1,2,0:0:0:0:
64,192,53732,1,2,0:0:0:0:
448,192,53732,1,0,0:0:0:0:
192,192,53810,1,2,0:0:0:0:
320,192,53888,1,2,0:0:0:0:
320,192,54044,1,2,0:0:0:0:
448,192,54044,1,0,0:0:0:0:
64,192,54200,1,8,0:0:0:0:
192,192,54200,1,0,0:0:0:0:
320,192,54357,1,8,0:0:0:0:
448,192,54357,1,0,0:0:0:0:
320,192,54513,1,8,0:0:0:0:
448,192,54513,1,0,0:0:0:0:
64,192,54669,1,2,0:0:0:0:
192,192,54669,1,0,0:0:0:0:
64,192,54825,1,2,0:0:0:0:
320,192,54982,1,2,0:0:0:0:
448,192,54982,1,0,0:0:0:0:
448,192,55138,1,2,0:0:0:0:
320,192,55216,1,2,0:0:0:0:
64,192,55294,1,2,0:0:0:0:
192,192,55294,1,0,0:0:0:0:
64,192,55450,1,8,0:0:0:0:
192,192,55528,1,8,0:0:0:0:
320,192,55607,1,8,0:0:0:0:
448,192,55607,1,0,0:0:0:0:
64,192,55763,1,2,0:0:0:0:
192,192,55841,1,2,0:0:0:0:
320,192,55919,1,8,0:0:0:0:
448,192,55919,1,0,0:0:0:0:
320,192,56075,1,8,0:0:0:0:
192,192,56153,1,8,0:0:0:0:
64,192,56232,1,2,0:0:0:0:
448,192,56232,1,0,0:0:0:0:
448,192,56388,1,2,0:0:0:0:
64,192,56544,1,2,0:0:0:0:
192,192,56544,1,0,0:0:0:0:
320,192,56700,1,8,0:0:0:0:
448,192,56700,1,0,0:0:0:0:
320,192,56857,1,8,0:0:0:0:
448,192,56857,1,0,0:0:0:0:
64,192,57169,1,2,0:0:0:0:
192,192,57169,1,0,0:0:0:0:
64,192,57325,1,2,0:0:0:0:
320,192,57482,1,2,0:0:0:0:
448,192,57482,1,0,0:0:0:0:
64,192,57638,1,2,0:0:0:0:
192,192,57716,1,2,0:0:0:0:
320,192,57794,1,2,0:0:0:0:
448,192,57794,1,0,0:0:0:0:
64,192,57950,1,8,0:0:0:0:
192,192,57950,1,0,0:0:0:0:
64,192,58107,1,8,0:0:0:0:
192,192,58107,1,0,0:0:0:0:
448,192,58263,1,2,0:0:0:0:
320,192,58341,1,2,0:0:0:0:
64,192,58419,1,8,0:0:0:0:
192,192,58419,1,0,0:0:0:0:
64,192,58575,1,2,0:0:0:0:
320,192,58732,1,2,0:0:0:0:
448,192,58732,1,0,0:0:0:0:
192,192,58810,1,2,0:0:0:0:
64,192,58888,1,2,0:0:0:0:
320,192,59044,1,2,0:0:0:0:
448,192,59044,1,0,0:0:0:0:
64,192,59200,1,8,0:0:0:0:
192,192,59200,1,0,0:0:0:0:
320,192,59357,1,8,0:0:0:0:
448,192,59357,1,0,0:0:0:0:
320,192,59513,1,8,0:0:0:0:
448,192,59513,1,0,0:0:0:0:
64,192,59669,1,2,0:0:0:0:
192,192,59669,1,0,0:0:0:0:
64,192,59825,1,2,0:0:0:0:
192,192,59903,1,2,0:0:0:0:
320,192,59982,1,2,0:0:0:0:
320,192,60138,1,2,0:0:0:0:
192,192,60216,1,2,0:0:0:0:
64,192,60294,1,2,0:0:0:0:
64,192,60450,1,2,0:0:0:0:
192,192,60528,1,2,0:0:0:0:
320,192,60607,1,8,0:0:0:0:
448,192,60607,1,0,0:0:0:0:
448,192,60763,1,2,0:0:0:0:
320,192,60841,1,2,0:0:0:0:
64,192,60919,1,8,0:0:0:0:
192,192,60919,1,0,0:0:0:0:
192,192,61075,1,8,0:0:0:0:
320,192,61153,1,8,0:0:0:0:
64,192,61232,128,4,64357:0:0:0:0:
448,192,61232,1,0,0:0:0:0:
448,192,62482,1,0,0:0:0:0:
448,192,63732,1,0,0:0:0:0:
320,192,64357,128,0,66232:0:0:0:0:
448,192,64982,1,0,0:0:0:0:
192,192,66232,128,0,69982:0:0:0:0:
448,192,66232,1,0,0:0:0:0:
448,192,67482,1,0,0:0:0:0:
448,192,68732,1,0,0:0:0:0:
448,192,69982,128,0,71232:0:0:0:0:
320,192,70607,1,0,0:0:0:0:
192,192,70763,1,0,0:0:0:0:
64,192,70919,1,0,0:0:0:0:
320,192,71075,1,0,0:0:0:0:
64,192,71232,1,0,0:0:0:0:
192,192,71232,1,0,0:0:0:0:
320,192,71388,1,0,0:0:0:0:
448,192,71544,1,0,0:0:0:0:
192,192,71700,1,0,0:0:0:0:
320,192,71857,1,0,0:0:0:0:
192,192,72013,1,0,0:0:0:0:
64,192,72169,1,0,0:0:0:0:
320,192,72325,1,0,0:0:0:0:
64,192,72482,1,0,0:0:0:0:
192,192,72482,1,0,0:0:0:0:
448,192,72638,1,0,0:0:0:0:
320,192,72794,1,0,0:0:0:0:
192,192,72950,1,0,0:0:0:0:
64,192,73107,1,0,0:0:0:0:
320,192,73263,1,0,0:0:0:0:
192,192,73419,1,0,0:0:0:0:
320,192,73575,1,0,0:0:0:0:
64,192,73732,1,0,0:0:0:0:
448,192,73732,1,0,0:0:0:0:
192,192,73888,1,0,0:0:0:0:
320,192,74044,1,0,0:0:0:0:
64,192,74200,1,0,0:0:0:0:
192,192,74357,1,0,0:0:0:0:
320,192,74513,1,0,0:0:0:0:
448,192,74669,1,0,0:0:0:0:
320,192,74825,1,0,0:0:0:0:
64,192,74982,1,0,0:0:0:0:
192,192,74982,1,0,0:0:0:0:
448,192,75138,1,0,0:0:0:0:
320,192,75294,1,0,0:0:0:0:
192,192,75450,1,0,0:0:0:0:
448,192,75607,1,0,0:0:0:0:
64,192,75763,1,0,0:0:0:0:
192,192,75919,1,0,0:0:0:0:
320,192,76075,1,0,0:0:0:0:
64,192,76232,1,0,0:0:0:0:
192,192,76232,1,0,0:0:0:0:
448,192,76388,1,0,0:0:0:0:
320,192,76544,1,0,0:0:0:0:
192,192,76700,1,0,0:0:0:0:
448,192,76857,1,0,0:0:0:0:
320,192,77013,1,0,0:0:0:0:
64,192,77169,1,0,0:0:0:0:
192,192,77325,1,0,0:0:0:0:
320,192,77482,1,0,0:0:0:0:
448,192,77482,1,0,0:0:0:0:
192,192,77638,1,0,0:0:0:0:
64,192,77794,1,0,0:0:0:0:
448,192,77950,1,0,0:0:0:0:
192,192,78107,1,0,0:0:0:0:
320,192,78263,1,0,0:0:0:0:
448,192,78419,1,0,0:0:0:0:
64,192,78575,1,0,0:0:0:0:
192,192,78732,1,0,0:0:0:0:
448,192,78732,1,0,0:0:0:0:
320,192,78888,1,0,0:0:0:0:
64,192,79044,1,0,0:0:0:0:
192,192,79200,1,0,0:0:0:0:
448,192,79357,1,0,0:0:0:0:
320,192,79513,1,0,0:0:0:0:
192,192,79669,1,0,0:0:0:0:
64,192,79825,1,0,0:0:0:0:
320,192,79982,1,0,0:0:0:0:
448,192,79982,1,0,0:0:0:0:
192,192,80138,1,0,0:0:0:0:
448,192,80294,1,0,0:0:0:0:
64,192,80450,1,0,0:0:0:0:
192,192,80607,1,0,0:0:0:0:
320,192,80763,1,0,0:0:0:0:
64,192,80919,1,0,0:0:0:0:
448,192,81075,1,0,0:0:0:0:
320,192,81232,1,0,0:0:0:0:
64,192,81329,1,0,0:0:0:0:
192,192,81388,1,0,0:0:0:0:
448,192,81544,1,0,0:0:0:0:
320,192,81700,1,0,0:0:0:0:
192,192,81857,1,0,0:0:0:0:
64,192,82013,1,0,0:0:0:0:
448,192,82169,1,0,0:0:0:0:
192,192,82325,1,0,0:0:0:0:
320,192,82482,1,0,0:0:0:0:
192,192,82612,1,0,0:0:0:0:
448,192,82638,1,0,0:0:0:0:
64,192,82794,1,0,0:0:0:0:
192,192,82950,1,0,0:0:0:0:
320,192,83107,1,0,0:0:0:0:
64,192,83263,1,0,0:0:0:0:
192,192,83419,1,0,0:0:0:0:
448,192,83575,1,0,0:0:0:0:
320,192,83732,1,0,0:0:0:0:
192,192,83888,1,0,0:0:0:0:
448,192,84018,1,0,0:0:0:0:
64,192,84044,1,0,0:0:0:0:
320,192,84200,1,0,0:0:0:0:
192,192,84357,1,0,0:0:0:0:
448,192,84513,1,0,0:0:0:0:
64,192,84669,1,0,0:0:0:0:
192,192,84825,1,0,0:0:0:0:
320,192,84982,1,0,0:0:0:0:
64,192,85138,1,0,0:0:0:0:
448,192,85294,1,0,0:0:0:0:
192,192,85320,1,0,0:0:0:0:
320,192,85450,1,0,0:0:0:0:
192,192,85607,1,0,0:0:0:0:
448,192,85763,1,0,0:0:0:0:
320,192,85919,1,0,0:0:0:0:
192,192,86075,1,0,0:0:0:0:
64,192,86232,1,0,0:0:0:0:
448,192,86388,1,0,0:0:0:0:
192,192,86544,1,0,0:0:0:0:
64,192,86700,1,0,0:0:0:0:
320,192,86700,1,0,0:0:0:0:
448,192,86857,1,0,0:0:0:0:
64,192,87013,1,0,0:0:0:0:
192,192,87169,1,0,0:0:0:0:
320,192,87325,1,0,0:0:0:0:
64,192,87482,1,0,0:0:0:0:
192,192,87638,1,0,0:0:0:0:
448,192,87794,1,0,0:0:0:0:
320,192,87950,1,0,0:0:0:0:
448,192,88067,1,0,0:0:0:0:
192,192,88107,1,0,0:0:0:0:
64,192,88263,1,0,0:0:0:0:
320,192,88419,1,0,0:0:0:0:
192,192,88575,1,0,0:0:0:0:
448,192,88732,1,0,0:0:0:0:
64,192,88888,1,0,0:0:0:0:
192,192,89044,1,0,0:0:0:0:
320,192,89200,1,0,0:0:0:0:
64,192,89357,1,0,0:0:0:0:
448,192,89513,1,0,0:0:0:0:
192,192,89565,1,0,0:0:0:0:
320,192,89669,1,0,0:0:0:0:
192,192,89825,1,0,0:0:0:0:
448,192,89982,1,0,0:0:0:0:
64,192,90034,128,0,96232:0:0:0:0:
320,192,90138,1,0,0:0:0:0:
192,192,90294,1,0,0:0:0:0:
448,192,90450,1,0,0:0:0:0:
320,192,90607,1,0,0:0:0:0:
192,192,90763,1,0,0:0:0:0:
320,192,90919,1,0,0:0:0:0:
448,192,91075,1,0,0:0:0:0:
448,192,96232,1,0,0:0:0:0:
64,192,100607,1,0,0:0:0:0:
192,192,100607,1,0,0:0:0:0:
192,192,100919,1,0,0:0:0:0:
320,192,100919,1,0,0:0:0:0:
64,192,101232,1,2,0:0:0:0:
320,192,101232,1,4,0:0:0:0:
448,192,101232,128,0,101544:0:0:0:0:
64,192,101388,1,0,0:0:0:0:
192,192,101544,1,8,0:0:0:0:
320,192,101544,1,0,0:0:0:0:
64,192,101700,1,0,0:0:0:0:
320,192,101857,1,0,0:0:0:0:
192,192,102013,1,8,0:0:0:0:
448,192,102013,1,0,0:0:0:0:
64,192,102169,1,0,0:0:0:0:
64,192,102325,128,8,102638:0:0:0:0:
320,192,102325,1,0,0:0:0:0:
320,192,102482,1,2,0:0:0:0:
448,192,102482,1,0,0:0:0:0:
192,192,102638,1,0,0:0:0:0:
64,192,102794,1,8,0:0:0:0:
448,192,102794,1,0,0:0:0:0:
320,192,102950,1,0,0:0:0:0:
192,192,103107,1,0,0:0:0:0:
64,192,103263,1,8,0:0:0:0:
448,192,103263,1,0,0:0:0:0:
192,192,103419,128,0,103732:0:0:0:0:
320,192,103575,128,8,103888:0:0:0:0:
64,192,103732,1,2,0:0:0:0:
448,192,103732,128,0,104044:0:0:0:0:
192,192,103888,1,0,0:0:0:0:
64,192,104044,1,8,0:0:0:0:
320,192,104044,1,0,0:0:0:0:
192,192,104200,1,0,0:0:0:0:
448,192,104357,1,0,0:0:0:0:
320,192,104513,1,0,0:0:0:0:
192,192,104669,1,0,0:0:0:0:
64,192,104825,1,8,0:0:0:0:
448,192,104825,1,0,0:0:0:0:
192,192,104982,1,2,0:0:0:0:
320,192,104982,128,0,105294:0:0:0:0:
448,192,105138,1,0,0:0:0:0:
64,192,105294,1,8,0:0:0:0:
192,192,105294,1,0,0:0:0:0:
192,192,105450,128,0,105763:0:0:0:0:
448,192,105607,1,0,0:0:0:0:
64,192,105763,128,0,106075:0:0:0:0:
320,192,105919,128,0,106232:0:0:0:0:
192,192,106075,1,8,0:0:0:0:
64,192,106232,1,2,0:0:0:0:
448,192,106232,128,0,106544:0:0:0:0:
192,192,106388,1,0,0:0:0:0:
64,192,106544,1,8,0:0:0:0:
192,192,106544,1,0,0:0:0:0:
320,192,106700,1,0,0:0:0:0:
448,192,106857,1,0,0:0:0:0:
64,192,107013,1,8,0:0:0:0:
192,192,107013,128,0,107325:0:0:0:0:
448,192,107169,1,0,0:0:0:0:
64,192,107325,1,8,0:0:0:0:
320,192,107325,128,0,107638:0:0:0:0:
192,192,107482,1,2,0:0:0:0:
448,192,107482,128,0,107794:0:0:0:0:
64,192,107638,1,0,0:0:0:0:
64,192,107794,1,8,0:0:0:0:
192,192,107794,1,0,0:0:0:0:
320,192,107950,128,0,108263:0:0:0:0:
192,192,108107,1,0,0:0:0:0:
64,192,108263,1,8,0:0:0:0:
448,192,108263,1,0,0:0:0:0:
192,192,108419,128,0,108732:0:0:0:0:
320,192,108575,1,8,0:0:0:0:
64,192,108732,128,2,109044:0:0:0:0:
448,192,108732,1,0,0:0:0:0:
320,192,108888,1,0,0:0:0:0:
320,192,109044,1,8,0:0:0:0:
448,192,109044,1,0,0:0:0:0:
192,192,109200,128,0,109513:0:0:0:0:
64,192,109357,1,0,0:0:0:0:
448,192,109513,1,0,0:0:0:0:
320,192,109669,128,0,109982:0:0:0:0:
64,192,109825,1,8,0:0:0:0:
192,192,109825,1,0,0:0:0:0:
64,192,109982,1,2,0:0:0:0:
448,192,109982,1,0,0:0:0:0:
192,192,110138,1,0,0:0:0:0:
320,192,110294,1,8,0:0:0:0:
448,192,110294,1,0,0:0:0:0:
192,192,110450,1,2,0:0:0:0:
64,192,110607,128,8,110919:0:0:0:0:
320,192,110607,1,0,0:0:0:0:
448,192,110763,128,2,111075:0:0:0:0:
320,192,110841,1,8,0:0:0:0:
192,192,110919,1,0,0:0:0:0:
320,192,111075,1,8,0:0:0:0:
64,192,111232,1,2,0:0:0:0:
192,192,111232,128,4,111544:0:0:0:0:
448,192,111232,1,0,0:0:0:0:
448,192,111388,1,0,0:0:0:0:
64,192,111544,1,8,0:0:0:0:
320,192,111544,1,0,0:0:0:0:
320,192,111700,128,0,112013:0:0:0:0:
192,192,111857,1,0,0:0:0:0:
64,192,112013,1,8,0:0:0:0:
448,192,112013,1,0,0:0:0:0:
320,192,112169,128,0,112482:0:0:0:0:
448,192,112169,1,0,0:0:0:0:
64,192,112325,1,8,0:0:0:0:
192,192,112325,1,0,0:0:0:0:
64,192,112482,1,2,0:0:0:0:
448,192,112482,1,0,0:0:0:0:
320,192,112638,1,0,0:0:0:0:
64,192,112794,1,8,0:0:0:0:
192,192,112794,128,0,113107:0:0:0:0:
320,192,112950,1,0,0:0:0:0:
448,192,113107,1,0,0:0:0:0:
64,192,113263,1,8,0:0:0:0:
320,192,113263,128,0,113575:0:0:0:0:
448,192,113419,1,0,0:0:0:0:
192,192,113575,1,8,0:0:0:0:
320,192,113653,1,8,0:0:0:0:
64,192,113732,1,2,0:0:0:0:
448,192,113732,128,0,114044:0:0:0:0:
192,192,113888,1,0,0:0:0:0:
64,192,114044,1,8,0:0:0:0:
192,192,114044,1,0,0:0:0:0:
320,192,114200,1,0,0:0:0:0:
448,192,114357,1,0,0:0:0:0:
192,192,114513,1,0,0:0:0:0:
320,192,114669,1,0,0:0:0:0:
64,192,114825,1,8,0:0:0:0:
448,192,114825,1,0,0:0:0:0:
192,192,114982,1,2,0:0:0:0:
320,192,114982,128,0,115294:0:0:0:0:
64,192,115138,1,0,0:0:0:0:
64,192,115294,1,8,0:0:0:0:
192,192,115294,1,0,0:0:0:0:
448,192,115450,128,0,115763:0:0:0:0:
192,192,115607,1,0,0:0:0:0:
320,192,115763,128,0,116075:0:0:0:0:
64,192,115919,1,0,0:0:0:0:
192,192,116075,1,8,0:0:0:0:
320,192,116153,1,8,0:0:0:0:
64,192,116232,128,2,116544:0:0:0:0:
448,192,116232,1,0,0:0:0:0:
192,192,116388,1,0,0:0:0:0:
320,192,116544,1,8,0:0:0:0:
448,192,116544,1,0,0:0:0:0:
192,192,116700,128,0,117013:0:0:0:0:
448,192,116857,1,0,0:0:0:0:
64,192,117013,1,8,0:0:0:0:
320,192,117013,1,0,0:0:0:0:
64,192,117169,128,0,117482:0:0:0:0:
320,192,117325,1,8,0:0:0:0:
448,192,117325,1,0,0:0:0:0:
192,192,117482,1,2,0:0:0:0:
448,192,117482,1,0,0:0:0:0:
320,192,117638,128,0,117950:0:0:0:0:
64,192,117794,1,8,0:0:0:0:
192,192,117794,1,0,0:0:0:0:
192,192,117950,128,0,118263:0:0:0:0:
448,192,118107,1,0,0:0:0:0:
64,192,118263,1,8,0:0:0:0:
320,192,118263,128,0,118575:0:0:0:0:
192,192,118419,128,0,118732:0:0:0:0:
64,192,118575,128,8,118732:0:0:0:0:
448,192,118575,1,0,0:0:0:0:
320,192,118732,1,8,0:0:0:0:
448,192,118732,1,0,0:0:0:0:
64,192,118888,1,8,0:0:0:0:
192,192,118888,1,0,0:0:0:0:
192,192,119044,1,8,0:0:0:0:
448,192,119044,1,0,0:0:0:0:
64,192,119200,1,8,0:0:0:0:
320,192,119200,1,0,0:0:0:0:
192,192,119357,1,8,0:0:0:0:
320,192,119357,1,0,0:0:0:0:
64,192,119513,1,8,0:0:0:0:
448,192,119513,1,0,0:0:0:0:
64,192,119669,1,8,0:0:0:0:
192,192,119669,1,0,0:0:0:0:
320,192,119825,1,8,0:0:0:0:
448,192,119825,1,0,0:0:0:0:
192,192,119982,1,8,0:0:0:0:
448,192,119982,1,0,0:0:0:0:
64,192,120060,1,8,0:0:0:0:
320,192,120138,1,8,0:0:0:0:
448,192,120216,1,8,0:0:0:0:
192,192,120294,1,8,0:0:0:0:
64,192,120372,1,8,0:0:0:0:
320,192,120450,1,8,0:0:0:0:
448,192,120528,1,8,0:0:0:0:
64,192,120607,1,2,0:0:0:0:
192,192,120607,1,0,0:0:0:0:
320,192,120685,1,2,0:0:0:0:
448,192,120763,1,2,0:0:0:0:
64,192,120841,1,2,0:0:0:0:
192,192,120919,1,2,0:0:0:0:
320,192,120997,1,2,0:0:0:0:
448,192,121075,1,2,0:0:0:0:
320,192,121153,1,2,0:0:0:0:
64,192,121232,1,4,0:0:0:0:
192,192,121232,1,2,0:0:0:0:
320,192,121388,1,0,0:0:0:0:
64,192,121544,1,8,0:0:0:0:
448,192,121544,1,2,0:0:0:0:
192,192,121700,1,0,0:0:0:0:
320,192,121857,1,2,0:0:0:0:
448,192,121857,1,0,0:0:0:0:
64,192,122013,1,0,0:0:0:0:
192,192,122169,1,8,0:0:0:0:
320,192,122169,1,2,0:0:0:0:
448,192,122325,1,0,0:0:0:0:
64,192,122482,1,2,0:0:0:0:
192,192,122482,1,0,0:0:0:0:
320,192,122638,1,0,0:0:0:0:
192,192,122794,1,2,0:0:0:0:
448,192,122794,1,8,0:0:0:0:
64,192,122950,1,0,0:0:0:0:
192,192,123107,1,2,0:0:0:0:
320,192,123107,1,0,0:0:0:0:
448,192,123185,1,0,0:0:0:0:
320,192,123263,1,0,0:0:0:0:
192,192,123341,1,0,0:0:0:0:
64,192,123419,1,2,0:0:0:0:
448,192,123419,1,8,0:0:0:0:
192,192,123497,1,0,0:0:0:0:
320,192,123575,1,0,0:0:0:0:
448,192,123653,1,0,0:0:0:0:
64,192,123732,1,2,0:0:0:0:
192,192,123732,1,0,0:0:0:0:
320,192,123888,1,0,0:0:0:0:
192,192,124044,1,2,0:0:0:0:
448,192,124044,1,8,0:0:0:0:
64,192,124200,1,0,0:0:0:0:
192,192,124357,1,2,0:0:0:0:
320,192,124357,1,0,0:0:0:0:
192,192,124513,1,2,0:0:0:0:
64,192,124669,1,2,0:0:0:0:
448,192,124669,1,8,0:0:0:0:
192,192,124825,1,0,0:0:0:0:
320,192,124982,1,2,0:0:0:0:
448,192,124982,1,0,0:0:0:0:
320,192,125138,1,2,0:0:0:0:
64,192,125294,1,2,0:0:0:0:
192,192,125294,1,8,0:0:0:0:
448,192,125450,1,0,0:0:0:0:
64,192,125528,1,8,0:0:0:0:
192,192,125528,1,0,0:0:0:0:
320,192,125607,1,2,0:0:0:0:
448,192,125607,1,0,0:0:0:0:
192,192,125763,1,2,0:0:0:0:
64,192,125919,1,2,0:0:0:0:
448,192,125919,1,8,0:0:0:0:
320,192,126075,1,2,0:0:0:0:
192,192,126153,1,2,0:0:0:0:
64,192,126232,1,2,0:0:0:0:
448,192,126232,1,0,0:0:0:0:
320,192,126388,1,0,0:0:0:0:
64,192,126544,1,2,0:0:0:0:
192,192,126544,1,8,0:0:0:0:
448,192,126700,1,0,0:0:0:0:
192,192,126857,1,2,0:0:0:0:
320,192,126857,1,0,0:0:0:0:
64,192,127013,1,0,0:0:0:0:
320,192,127169,1,2,0:0:0:0:
448,192,127169,1,8,0:0:0:0:
192,192,127325,1,0,0:0:0:0:
64,192,127482,1,2,0:0:0:0:
320,192,127482,1,0,0:0:0:0:
448,192,127638,1,0,0:0:0:0:
64,192,127794,1,2,0:0:0:0:
192,192,127794,1,8,0:0:0:0:
320,192,127950,1,0,0:0:0:0:
64,192,128107,1,2,0:0:0:0:
192,192,128107,1,0,0:0:0:0:
448,192,128185,1,0,0:0:0:0:
320,192,128263,1,0,0:0:0:0:
192,192,128341,1,0,0:0:0:0:
320,192,128419,1,2,0:0:0:0:
448,192,128419,1,8,0:0:0:0:
64,192,128575,1,0,0:0:0:0:
192,192,128653,1,0,0:0:0:0:
320,192,128732,1,2,0:0:0:0:
448,192,128732,1,0,0:0:0:0:
192,192,128888,1,0,0:0:0:0:
64,192,129044,1,2,0:0:0:0:
448,192,129044,1,8,0:0:0:0:
320,192,129200,1,0,0:0:0:0:
64,192,129357,1,2,0:0:0:0:
192,192,129357,1,0,0:0:0:0:
64,192,129513,1,2,0:0:0:0:
320,192,129669,1,2,0:0:0:0:
448,192,129669,1,8,0:0:0:0:
64,192,129825,1,0,0:0:0:0:
192,192,129982,1,2,0:0:0:0:
320,192,129982,1,0,0:0:0:0:
192,192,130138,1,2,0:0:0:0:
320,192,130294,1,2,0:0:0:0:
448,192,130294,1,8,0:0:0:0:
64,192,130450,1,0,0:0:0:0:
320,192,130528,1,8,0:0:0:0:
448,192,130528,1,0,0:0:0:0:
64,192,130607,1,2,0:0:0:0:
192,192,130607,1,0,0:0:0:0:
320,192,130763,1,2,0:0:0:0:
448,192,130763,128,0,131232:0:0:0:0:
64,192,130919,1,0,0:0:0:0:
320,192,131075,1,2,0:0:0:0:
192,192,131153,1,2,0:0:0:0:
64,192,131232,1,4,0:0:0:0:
320,192,131232,1,2,0:0:0:0:
192,192,131388,1,0,0:0:0:0:
64,192,131544,1,8,0:0:0:0:
448,192,131544,1,2,0:0:0:0:
320,192,131700,1,0,0:0:0:0:
64,192,131857,1,2,0:0:0:0:
192,192,131857,1,0,0:0:0:0:
448,192,132013,1,0,0:0:0:0:
192,192,132169,1,8,0:0:0:0:
320,192,132169,1,2,0:0:0:0:
64,192,132325,1,0,0:0:0:0:
320,192,132482,1,2,0:0:0:0:
448,192,132482,1,0,0:0:0:0:
192,192,132638,1,0,0:0:0:0:
64,192,132794,1,2,0:0:0:0:
320,192,132794,1,8,0:0:0:0:
448,192,132950,1,0,0:0:0:0:
192,192,133107,1,2,0:0:0:0:
320,192,133107,1,0,0:0:0:0:
64,192,133185,1,0,0:0:0:0:
192,192,133263,1,0,0:0:0:0:
320,192,133341,1,0,0:0:0:0:
64,192,133419,1,2,0:0:0:0:
448,192,133419,1,8,0:0:0:0:
192,192,133497,1,0,0:0:0:0:
320,192,133575,1,0,0:0:0:0:
64,192,133653,1,0,0:0:0:0:
192,192,133732,1,2,0:0:0:0:
448,192,133732,1,0,0:0:0:0:
320,192,133888,1,0,0:0:0:0:
64,192,134044,1,2,0:0:0:0:
192,192,134044,1,8,0:0:0:0:
448,192,134200,1,0,0:0:0:0:
192,192,134357,1,2,0:0:0:0:
320,192,134357,1,0,0:0:0:0:
320,192,134513,1,2,0:0:0:0:
64,192,134669,1,2,0:0:0:0:
448,192,134669,1,8,0:0:0:0:
320,192,134825,1,0,0:0:0:0:
64,192,134982,1,2,0:0:0:0:
192,192,134982,1,0,0:0:0:0:
192,192,135138,1,2,0:0:0:0:
320,192,135294,1,2,0:0:0:0:
448,192,135294,1,8,0:0:0:0:
64,192,135450,1,0,0:0:0:0:
320,192,135528,1,8,0:0:0:0:
448,192,135528,1,0,0:0:0:0:
64,192,135607,1,2,0:0:0:0:
192,192,135607,1,0,0:0:0:0:
320,192,135763,1,2,0:0:0:0:
64,192,135919,1,2,0:0:0:0:
448,192,135919,1,8,0:0:0:0:
64,192,136075,1,2,0:0:0:0:
192,192,136153,1,2,0:0:0:0:
320,192,136232,1,2,0:0:0:0:
448,192,136232,1,0,0:0:0:0:
320,192,136388,1,2,0:0:0:0:
64,192,136544,1,2,0:0:0:0:
192,192,136544,1,8,0:0:0:0:
320,192,136700,1,2,0:0:0:0:
448,192,136700,1,0,0:0:0:0:
64,192,136857,1,2,0:0:0:0:
192,192,136857,1,0,0:0:0:0:
64,192,137013,1,2,0:0:0:0:
320,192,137169,1,2,0:0:0:0:
448,192,137169,1,8,0:0:0:0:
64,192,137325,1,2,0:0:0:0:
192,192,137325,1,0,0:0:0:0:
320,192,137482,1,2,0:0:0:0:
448,192,137482,1,0,0:0:0:0:
448,192,137638,1,2,0:0:0:0:
64,192,137794,1,2,0:0:0:0:
192,192,137794,1,8,0:0:0:0:
320,192,137950,1,2,0:0:0:0:
448,192,137950,1,0,0:0:0:0:
64,192,138107,1,2,0:0:0:0:
192,192,138107,1,0,0:0:0:0:
192,192,138263,1,2,0:0:0:0:
320,192,138419,1,2,0:0:0:0:
448,192,138419,1,8,0:0:0:0:
64,192,138575,1,2,0:0:0:0:
192,192,138575,1,0,0:0:0:0:
320,192,138732,1,8,0:0:0:0:
448,192,138732,1,0,0:0:0:0:
64,192,138888,1,8,0:0:0:0:
192,192,138888,1,0,0:0:0:0:
192,192,139044,1,8,0:0:0:0:
448,192,139044,1,0,0:0:0:0:
64,192,139200,1,8,0:0:0:0:
320,192,139200,1,0,0:0:0:0:
320,192,139357,1,8,0:0:0:0:
448,192,139357,1,0,0:0:0:0:
64,192,139513,1,8,0:0:0:0:
192,192,139513,1,0,0:0:0:0:
64,192,139669,1,8,0:0:0:0:
448,192,139669,1,0,0:0:0:0:
192,192,139825,1,8,0:0:0:0:
320,192,139825,1,0,0:0:0:0:
448,192,139982,1,8,0:0:0:0:
192,192,139982,1,0,0:0:0:0:
64,192,140060,1,8,0:0:0:0:
320,192,140138,1,8,0:0:0:0:
192,192,140216,1,8,0:0:0:0:
448,192,140294,1,8,0:0:0:0:
64,192,140372,1,8,0:0:0:0:
320,192,140450,1,8,0:0:0:0:
192,192,140528,1,8,0:0:0:0:
448,192,140607,1,2,0:0:0:0:
64,192,140607,1,0,0:0:0:0:
320,192,140685,1,2,0:0:0:0:
192,192,140763,1,2,0:0:0:0:
64,192,140841,1,2,0:0:0:0:
448,192,140919,1,2,0:0:0:0:
320,192,140997,1,2,0:0:0:0:
192,192,141075,1,2,0:0:0:0:
64,192,141153,1,2,0:0:0:0:
