osu file format v14

[General]
AudioFilename: audio.mp3
AudioLeadIn: 0
PreviewTime: 120071
Countdown: 0
SampleSet: Soft
StackLeniency: 0.3
Mode: 0
LetterboxInBreaks: 0
WidescreenStoryboard: 1

[Editor]
DistanceSpacing: 1.2
BeatDivisor: 8
GridSize: 32
TimelineZoom: 3.299999

[Metadata]
Title:R.I.P.
TitleUnicode:R.I.P.
Artist:eicateve
ArtistUnicode:eicateve
Creator:AncuL
Version:CiyusMiapah's Extra
Source:BMS
Tags:-go back 2 your roots climax- G2R2018 rip rest in peace hrchem tohru mitsuhashi her requiem 旅立った彼女へ CiyusMiapah Ciyus Miapah Fort Error-
BeatmapID:1877155
BeatmapSetID:883416

[Difficulty]
HPDrainRate:5
CircleSize:4
OverallDifficulty:8.5
ApproachRate:9.5
SliderMultiplier:1.7
SliderTickRate:1

[Events]
//Background and Video events
0,0,"1230339_20181105141122_title.jpg",0,0
Video,0,"optc.flv"
//Break Periods
2,95350,99000
//Storyboard Layer 0 (Background)
//Storyboard Layer 1 (Fail)
//Storyboard Layer 2 (Pass)
//Storyboard Layer 3 (Foreground)
//Storyboard Sound Samples

[TimingPoints]
150,312.5,4,2,0,60,1,0
150,-100,4,2,0,30,0,0
10150,-100,4,2,0,45,0,0
12025,-200,4,2,0,45,0,0
12650,-100,4,2,0,45,0,0
14681,-200,4,2,0,45,0,0
15150,-100,4,2,0,45,0,0
17650,-100,4,2,0,60,0,0
19525,-100,4,2,0,60,0,0
19837,-100,4,2,0,60,0,0
20150,-100,4,2,0,60,0,0
28900,-100,4,2,0,60,0,0
30150,-83.3333333333333,4,2,0,60,0,0
34525,-100,4,2,0,60,0,0
34681,-100,4,2,0,60,0,0
35306,-100,4,2,0,60,0,0
38196,-100,4,2,0,60,0,0
38900,-100,4,2,0,60,0,0
40150,-50,4,2,0,60,0,0
40306,-100,4,2,0,60,0,0
40618,-50,4,2,0,60,0,0
40775,-133.333333333333,4,2,0,60,0,0
41087,-50,4,2,0,60,0,0
41243,-100,4,2,0,60,0,0
41868,-50,4,2,0,60,0,0
42806,-62.5,4,2,0,60,0,0
42962,-76.9230769230769,4,2,0,60,0,0
43118,-50,4,2,0,60,0,0
43275,-100,4,2,0,60,0,0
43743,-100,4,2,0,60,0,0
44368,-50,4,2,0,60,0,0
44525,-100,4,2,0,60,0,0
44681,-100,4,2,0,60,0,0
44837,-50,4,2,0,60,0,0
45150,-100,4,2,0,60,0,0
45618,-50,4,2,0,60,0,0
45775,-100,4,2,0,60,0,0
46868,-50,4,2,0,60,0,0
47025,-100,4,2,0,60,0,0
48118,-50,4,2,0,60,0,0
48275,-100,4,2,0,60,0,0
49056,-100,4,2,0,60,0,0
50150,-100,4,2,0,60,0,0
50618,-50,4,2,0,60,0,0
50775,-100,4,2,0,60,0,0
51087,-50,4,2,0,60,0,0
52025,-100,4,2,0,60,0,0
53275,-100,4,2,0,60,0,0
53743,-100,4,2,0,60,0,0
53900,-50,4,2,0,60,0,0
54368,-100,4,2,0,60,0,0
55150,-100,4,2,0,60,0,0
56087,-50,4,2,0,60,0,0
56243,-100,4,2,0,60,0,0
56400,-50,4,2,0,60,0,0
56556,-100,4,2,0,60,0,0
58275,-100,4,2,0,60,0,0
58821,-100,4,2,0,60,0,0
59837,-200,4,2,0,60,0,0
60150,-500,4,2,0,30,0,0
67650,-1000,4,2,0,30,0,0
70150,-200,4,2,0,30,0,0
80150,-200,4,2,0,20,0,0
88978,-100,4,2,0,30,0,0
99525,-200,4,2,0,45,0,0
100150,-100,4,2,0,60,0,0
110150,-83.3333333333333,4,2,0,60,0,0
119525,-100,4,2,0,60,0,0
119837,-100,4,2,0,60,0,0
120150,-80,4,2,0,70,0,1
124212,-100,4,2,0,70,0,1
124681,-100,4,2,0,70,0,1
125150,-80,4,2,0,70,0,1
129212,-100,4,2,0,70,0,1
129525,-100,4,2,0,70,0,1
129681,-100,4,2,0,70,0,1
130150,-74.0740740740741,4,2,0,70,0,1
138900,-100,4,2,0,70,0,1
139525,-100,4,2,0,70,0,1
139837,-100,4,2,0,70,0,1
140110,-100,4,2,0,60,0,0

[Colours]
Combo1 : 0,255,0
Combo2 : 198,198,193
Combo3 : 148,148,143
Combo4 : 164,255,160
Combo5 : 255,215,255
Combo6 : 255,0,0
Combo7 : 0,128,255
Combo8 : 255,128,0

[HitObjects]
343,132,150,6,0,L|444:140,2,85
241,136,618,1,0,0:0:0:0:
223,148,775,1,0,0:0:0:0:
203,151,931,1,0,0:0:0:0:
127,220,1087,1,0,0:0:0:0:
111,207,1243,1,0,0:0:0:0:
102,188,1400,1,0,0:0:0:0:
11,139,1556,1,0,0:0:0:0:
20,120,1712,1,0,0:0:0:0:
36,107,1868,1,0,0:0:0:0:
64,8,2025,1,0,0:0:0:0:
84,12,2181,1,0,0:0:0:0:
101,24,2337,1,0,0:0:0:0:
165,102,2493,1,0,0:0:0:0:
265,121,2650,5,0,0:0:0:0:
366,108,2806,1,0,0:0:0:0:
447,47,2962,1,0,0:0:0:0:
470,146,3118,1,0,0:0:0:0:
452,156,3275,1,0,0:0:0:0:
442,175,3431,1,0,0:0:0:0:
341,186,3587,1,0,0:0:0:0:
341,207,3744,1,0,0:0:0:0:
353,224,3900,1,0,0:0:0:0:
303,313,4056,1,0,0:0:0:0:
321,323,4213,1,0,0:0:0:0:
342,321,4369,1,0,0:0:0:0:
437,356,4525,1,0,0:0:0:0:
455,345,4682,1,0,0:0:0:0:
463,326,4838,1,0,0:0:0:0:
398,247,4993,1,0,0:0:0:0:
297,226,5150,101,0,0:0:0:0:
199,255,5306,1,0,0:0:0:0:
142,339,5462,1,0,0:0:0:0:
82,256,5618,1,0,0:0:0:0:
73,236,5774,1,0,0:0:0:0:
55,226,5930,1,0,0:0:0:0:
113,142,6087,1,0,0:0:0:0:
120,123,6243,1,0,0:0:0:0:
115,103,6399,1,0,0:0:0:0:
213,75,6556,1,0,0:0:0:0:
231,67,6712,1,0,0:0:0:0:
242,49,6868,1,0,0:0:0:0:
328,104,7025,1,0,0:0:0:0:
346,111,7181,1,0,0:0:0:0:
367,106,7337,1,0,0:0:0:0:
410,198,7493,1,0,0:0:0:0:
384,297,7650,5,0,0:0:0:0:
309,365,7806,1,0,0:0:0:0:
165,349,7962,1,0,0:0:0:0:
241,281,8118,1,0,0:0:0:0:
166,349,8274,1,0,0:0:0:0:
22,333,8430,1,0,0:0:0:0:
95,261,8587,101,0,0:0:0:0:
170,193,8743,1,0,0:0:0:0:
314,209,8899,1,0,0:0:0:0:
241,281,9056,1,0,0:0:0:0:
316,213,9212,1,0,0:0:0:0:
460,229,9368,1,0,0:0:0:0:
232,302,9525,5,0,0:0:0:0:
232,302,9681,1,0,0:0:0:0:
186,67,9837,1,0,0:0:0:0:
364,146,9993,1,0,0:0:0:0:
142,214,10150,102,0,L|55:241,2,85
232,260,10618,1,0,0:0:0:0:
235,280,10774,1,0,0:0:0:0:
238,301,10930,1,0,0:0:0:0:
337,274,11087,1,0,0:0:0:0:
350,291,11243,1,0,0:0:0:0:
364,307,11399,1,0,0:0:0:0:
432,230,11556,1,0,0:0:0:0:
451,238,11712,1,0,0:0:0:0:
471,245,11868,1,0,0:0:0:0:
422,130,12025,2,0,P|432:124|469:116,3,42.5
314,110,12650,6,0,L|321:16,2,85
213,126,13119,1,0,0:0:0:0:
216,146,13275,1,0,0:0:0:0:
220,167,13431,1,0,0:0:0:0:
149,241,13587,1,0,0:0:0:0:
166,254,13743,1,0,0:0:0:0:
184,266,13899,1,0,0:0:0:0:
251,343,14056,1,0,0:0:0:0:
264,326,14212,1,0,0:0:0:0:
276,308,14368,1,0,0:0:0:0:
377,322,14525,1,0,0:0:0:0:
340,207,14681,2,0,L|326:162,1,42.5
384,338,14993,1,0,0:0:0:0:
433,175,15150,102,0,L|451:74,1,85
412,254,15462,1,0,0:0:0:0:
344,177,15618,2,0,L|322:131,2,42.5
396,264,15931,1,0,0:0:0:0:
295,246,16087,2,0,L|253:225,2,42.5
391,281,16400,1,0,0:0:0:0:
304,334,16556,1,0,0:0:0:0:
399,298,16712,1,0,0:0:0:0:
495,266,16868,1,0,0:0:0:0:
304,334,17025,2,0,L|211:324,1,85
92,334,17337,1,0,0:0:0:0:
97,325,17415,1,0,0:0:0:0:
100,315,17493,1,0,0:0:0:0:
101,304,17571,1,0,0:0:0:0:
99,294,17650,5,0,0:0:0:0:
38,181,17806,1,0,0:0:0:0:
75,59,17962,1,0,0:0:0:0:
192,10,18118,1,0,0:0:0:0:
162,134,18275,1,0,0:0:0:0:
285,102,18431,1,0,0:0:0:0:
403,149,18587,1,0,0:0:0:0:
464,260,18743,1,0,0:0:0:0:
343,215,18900,101,0,0:0:0:0:
302,201,18978,1,0,0:0:0:0:
260,198,19056,1,0,0:0:0:0:
218,205,19134,1,0,0:0:0:0:
180,223,19212,1,0,0:0:0:0:
147,249,19290,1,0,0:0:0:0:
121,283,19368,1,0,0:0:0:0:
105,322,19446,1,0,0:0:0:0:
99,364,19525,2,0,P|80:349|70:344,12,21.25
103,68,20150,5,0,0:0:0:0:
224,104,20306,1,0,0:0:0:0:
60,168,20462,2,0,L|153:176,1,85
270,196,20775,1,0,0:0:0:0:
170,275,20931,1,0,0:0:0:0:
382,302,21087,2,0,L|289:294,1,85
289,299,21321,1,0,0:0:0:0:
280,307,21400,101,0,0:0:0:0:
303,181,21556,1,0,0:0:0:0:
167,303,21712,2,0,P|138:314|85:316,1,85
73,308,21946,1,0,0:0:0:0:
73,308,22025,1,0,0:0:0:0:
122,190,22181,1,0,0:0:0:0:
131,179,22259,1,0,0:0:0:0:
138,167,22337,1,0,0:0:0:0:
142,153,22415,1,0,0:0:0:0:
144,139,22493,1,0,0:0:0:0:
143,125,22571,1,0,0:0:0:0:
139,111,22650,6,0,P|151:75|194:36,1,85
280,123,22962,2,0,P|268:159|225:198,1,85
123,252,23275,1,0,0:0:0:0:
218,335,23431,1,0,0:0:0:0:
259,115,23587,2,0,P|253:141|271:197,1,85
283,209,23821,1,0,0:0:0:0:
299,219,23900,101,0,0:0:0:0:
101,260,24056,1,0,0:0:0:0:
314,227,24212,2,0,L|405:217,1,85
410,231,24446,2,0,P|377:239|368:248,1,42.5
78,256,24681,1,0,0:0:0:0:
86,236,24759,1,0,0:0:0:0:
100,220,24837,2,0,L|154:221,1,42.5
259,194,24993,1,0,0:0:0:0:
259,194,25071,1,0,0:0:0:0:
259,194,25150,5,0,0:0:0:0:
259,300,25306,1,0,0:0:0:0:
288,116,25462,2,0,P|282:148|293:201,1,85
160,290,25775,1,0,0:0:0:0:
367,266,25931,1,0,0:0:0:0:
191,203,26087,2,0,P|216:216|278:223,1,85
292,198,26321,1,0,0:0:0:0:
318,175,26400,2,0,L|416:186,1,85
237,120,26712,2,0,P|240:94|269:36,1,85
287,291,27025,1,0,0:0:0:0:
226,137,27181,1,0,0:0:0:0:
219,116,27259,1,0,0:0:0:0:
206,100,27337,2,0,P|230:72|318:81,1,127.5
344,174,27650,102,0,P|324:189|299:187,1,42.5
154,212,27806,2,0,P|173:234|176:259,1,42.5
251,363,27962,2,0,P|260:330|318:297,1,85
311,207,28196,2,0,P|352:212|399:244,1,85
171,232,28431,2,0,P|144:239|127:236,1,42.5
343,121,28587,2,0,P|373:123|388:134,1,42.5
147,148,28743,2,0,P|118:143|104:135,1,42.5
335,30,28900,5,0,0:0:0:0:
335,30,29056,1,0,0:0:0:0:
244,119,29212,1,0,0:0:0:0:
244,119,29368,1,0,0:0:0:0:
326,217,29525,1,0,0:0:0:0:
326,217,29681,1,0,0:0:0:0:
251,320,29837,1,0,0:0:0:0:
251,320,29915,1,0,0:0:0:0:
251,320,29993,1,0,0:0:0:0:
251,320,30071,1,0,0:0:0:0:
251,320,30150,102,0,P|194:298|149:313,1,101.999996887207
56,207,30462,1,0,0:0:0:0:
190,161,30618,2,0,P|219:141|252:69,1,101.999996887207
40,214,30931,1,0,0:0:0:0:
208,185,31087,1,0,0:0:0:0:
89,46,31243,2,0,P|82:87|94:150,1,101.999996887207
151,276,31556,1,0,0:0:0:0:
281,333,31712,1,0,0:0:0:0:
143,294,31868,1,0,0:0:0:0:
324,239,32025,5,0,0:0:0:0:
336,247,32103,1,0,0:0:0:0:
352,263,32181,1,0,0:0:0:0:
225,183,32337,1,0,0:0:0:0:
189,195,32415,1,0,0:0:0:0:
151,192,32493,1,0,0:0:0:0:
336,119,32650,102,0,P|371:98|447:106,2,101.999996887207
235,205,33118,2,0,P|193:222|128:210,1,101.999996887207
405,175,33431,1,0,0:0:0:0:
405,175,33587,1,0,0:0:0:0:
266,301,33743,2,0,P|240:315|155:325,1,101.999996887207
405,175,34056,1,0,0:0:0:0:
405,175,34212,1,0,0:0:0:0:
201,101,34368,1,0,0:0:0:0:
362,287,34525,6,0,P|368:312|370:330,2,42.5
305,87,34837,2,0,L|320:36,2,42.5
252,271,35150,101,0,0:0:0:0:
403,182,35306,1,0,0:0:0:0:
403,182,35462,1,0,0:0:0:0:
239,287,35618,2,0,P|195:293|111:193,1,170
422,167,36087,1,0,0:0:0:0:
234,301,36243,2,0,P|190:307|106:207,1,170
438,146,36712,1,0,0:0:0:0:
198,223,36868,1,0,0:0:0:0:
294,83,37025,5,0,0:0:0:0:
299,92,37103,1,0,0:0:0:0:
303,102,37181,1,0,0:0:0:0:
304,112,37259,1,0,0:0:0:0:
304,123,37337,1,0,0:0:0:0:
208,334,37493,1,0,0:0:0:0:
322,297,37650,102,0,L|367:288,1,42.5
128,245,37806,2,0,L|84:234,1,42.5
326,210,37962,2,0,L|380:194,1,42.5
157,167,38118,2,0,L|71:139,1,85
58,145,38353,1,0,0:0:0:0:
32,145,38431,2,0,P|22:108|31:59,1,85
201,177,38743,2,0,P|206:208|203:233,1,42.5
258,307,38900,6,0,P|265:335|266:379,2,56.6666666666667
133,295,39212,2,0,P|120:323|85:354,2,56.6666666666667
67,216,39525,2,0,P|39:234|1:240,2,56.6666666666667
9,144,39837,102,0,P|-1:121|2:99,3,42.5
81,21,40150,6,0,P|97:75|86:110,1,85
46,274,40306,2,0,L|135:259,1,85
256,334,40618,102,0,P|270:309|322:285,1,85
432,244,40775,2,0,P|397:216|376:181,1,85
248,88,41087,6,0,L|341:96,1,85
468,105,41243,2,0,L|512:93,2,42.5
411,243,41556,2,0,P|428:266|432:288,2,42.5
307,184,41868,2,0,L|213:179,1,85
126,252,42025,2,0,P|100:301|94:345,1,85
136,127,42181,1,0,0:0:0:0:
138,105,42259,1,0,0:0:0:0:
141,84,42337,2,0,P|173:121|180:169,1,85
222,267,42493,2,0,L|342:277,1,85
331,156,42650,102,0,P|322:105|351:59,1,85
337,276,42806,2,0,P|347:311|340:350,1,68
357,139,42962,2,0,P|351:106|358:81,1,55.2499974708558
365,261,43118,2,0,P|378:315|371:364,1,85
434,116,43275,1,0,0:0:0:0:
264,322,43431,2,0,L|208:316,1,42.5
442,218,43587,1,0,0:0:0:0:
242,294,43743,1,0,0:0:0:0:
214,305,43821,1,0,0:0:0:0:
185,314,43900,6,0,P|195:281|211:273,3,42.5
173,184,44212,2,0,P|200:182|224:186,1,42.5
416,236,44368,2,0,P|358:237|324:226,1,85
156,167,44525,2,0,P|193:156|214:156,1,42.5
385,158,44681,1,0,0:0:0:0:
406,158,44759,1,0,0:0:0:0:
426,152,44837,2,0,P|391:140|359:94,1,85
259,24,44993,2,0,P|262:72|241:121,1,85
258,217,45150,102,0,P|244:236|230:302,1,85
299,126,45462,1,0,0:0:0:0:
243,308,45618,2,0,P|240:267|214:221,1,85
132,137,45775,2,0,L|232:125,1,85
159,289,46087,1,0,0:0:0:0:
365,221,46243,1,0,0:0:0:0:
365,221,46321,1,0,0:0:0:0:
365,221,46400,5,0,0:0:0:0:
159,289,46556,2,0,L|109:277,2,42.5
273,319,46868,2,0,P|278:290|258:219,1,85
204,133,47025,2,0,L|110:145,1,85
106,133,47259,1,0,0:0:0:0:
96,116,47337,102,0,L|183:123,1,85
397,165,47650,2,0,P|425:154|435:136,2,42.5
284,202,47962,1,0,0:0:0:0:
284,202,48118,2,0,P|275:170|274:100,1,85
322,29,48275,1,0,0:0:0:0:
248,276,48431,1,0,0:0:0:0:
438,245,48587,2,0,P|405:241|346:265,1,85
333,311,48821,1,0,0:0:0:0:
291,354,48900,6,0,P|264:366|244:367,3,42.5
169,325,49212,2,0,P|155:291|155:270,3,42.5
190,208,49525,2,0,P|207:190|232:186,3,42.5
321,194,49837,1,0,0:0:0:0:
363,191,49915,1,0,0:0:0:0:
399,169,49993,1,0,0:0:0:0:
421,134,50071,1,0,0:0:0:0:
424,92,50150,102,0,L|242:99,1,170
243,75,50618,2,0,P|225:103|220:163,1,85
232,265,50775,2,0,P|243:294|242:354,1,85
142,188,51087,2,0,L|235:179,1,85
387,188,51243,2,0,P|410:188|486:157,2,85
218,153,51556,2,0,P|195:153|119:184,2,85
326,131,51868,2,0,P|345:103|365:49,1,85
267,239,52025,2,0,P|262:278|271:332,1,85
292,347,52259,1,0,0:0:0:0:
322,358,52337,2,0,P|299:325|284:319,1,42.5
187,298,52493,2,0,P|185:276|188:247,1,42.5
246,158,52650,6,0,P|259:141|264:119,2,42.5
128,174,52962,1,0,0:0:0:0:
329,175,53118,1,0,0:0:0:0:
101,157,53275,2,0,P|123:135|176:126,1,85
351,194,53587,2,0,P|375:200|440:181,1,85
454,205,53821,1,0,0:0:0:0:
442,230,53900,102,0,P|421:226|357:245,1,85
267,266,54056,2,0,L|278:359,1,85
295,125,54212,2,0,L|301:40,1,85
302,279,54368,1,0,0:0:0:0:
211,145,54525,2,0,L|192:61,1,85
192,62,54759,1,0,0:0:0:0:
192,62,54837,1,0,0:0:0:0:
85,114,54993,1,0,0:0:0:0:
85,114,55071,1,0,0:0:0:0:
85,114,55150,6,0,L|33:128,1,42.5
233,53,55306,1,0,0:0:0:0:
191,194,55462,1,0,0:0:0:0:
191,194,55618,1,0,0:0:0:0:
333,170,55775,2,0,P|357:207|360:261,1,85
357,276,56087,2,0,L|253:274,1,85
153,280,56243,2,0,P|133:306|126:331,1,42.5
210,197,56400,102,0,P|207:152|175:96,1,85
88,55,56556,2,0,L|12:44,2,42.5
293,76,56868,1,0,0:0:0:0:
122,163,57025,2,0,L|27:174,1,85
47,189,57259,1,0,0:0:0:0:
61,202,57337,2,0,L|112:194,1,42.5
180,285,57493,2,0,L|238:273,1,42.5
388,235,57650,5,0,0:0:0:0:
369,352,57806,2,0,P|363:319|377:264,1,85
343,122,58118,1,0,0:0:0:0:
279,222,58275,2,0,P|286:189|320:144,1,85
461,79,58587,1,0,0:0:0:0:
322,102,58743,2,0,B|302:145|246:155|246:155|78:121,1,255
51,236,59368,2,0,P|46:289|58:336,1,85
164,279,59681,1,0,0:0:0:0:
164,279,59759,1,0,0:0:0:0:
164,279,59837,2,0,L|211:293,1,42.5
358,335,60150,102,0,B|347:205|347:205|342:208,1,136
178,110,62650,6,0,B|189:240|189:240|194:237,1,136
358,335,65150,102,0,B|347:205|347:205|342:208,1,136
354,113,67650,6,0,P|346:124|296:133,1,68
244,154,70150,102,0,P|264:162|281:182,1,42.5
168,110,70462,2,0,P|152:110|122:103,1,42.5
208,247,70931,2,0,P|214:265|210:290,2,42.5
91,223,71556,2,0,P|65:232|43:230,2,42.5
118,107,72181,2,0,P|104:94|96:63,2,42.5
240,148,72650,6,0,P|260:149|281:137,1,42.5
401,101,72962,2,0,P|420:105|444:121,2,42.5
391,207,73431,2,0,P|402:225|405:249,2,42.5
307,255,73900,1,0,0:0:0:0:
224,302,74056,2,0,P|217:317|216:342,2,42.5
173,194,74681,2,0,P|158:196|140:216,2,42.5
297,136,75150,102,0,P|305:123|313:94,1,42.5
335,234,75462,2,0,P|340:256|338:279,1,42.5
239,209,75931,2,0,P|213:203|195:203,2,42.5
170,306,76556,2,0,P|151:312|131:328,2,42.5
280,351,77181,2,0,P|257:370|251:382,2,42.5
364,315,77650,6,0,P|373:299|367:268,1,42.5
340,173,77962,2,0,P|336:154|336:125,1,42.5
327,179,78275,2,0,P|318:159|314:137,1,42.5
317,187,78587,2,0,P|307:170|305:146,1,42.5
346,36,78900,102,0,P|337:45|305:53,1,42.5
230,122,79212,2,0,P|217:117|189:119,1,42.5
238,112,79525,2,0,P|220:105|194:109,1,42.5
251,107,79837,2,0,P|231:96|204:98,1,42.5
126,172,80150,54,0,B|41:174|41:174|43:259|43:259|44:348|44:348|128:347|128:347|126:257|126:257|43:259,1,510
308,170,82650,2,0,B|223:172|223:172|225:257|225:257|226:346|226:346|310:345|310:345|308:255|308:255|225:257,1,510
485,171,85150,2,0,B|400:173|400:173|402:258|402:258|403:347|403:347|487:346|487:346|485:256|485:256|402:258,1,510
84,349,87650,2,0,B|256:18|256:18|434:356|434:356|49:157|49:157|471:156|471:156|84:350,1,2040
209,224,99525,102,0,L|124:217,1,85
96,212,100150,102,0,P|139:198|260:242,1,170
331,324,100618,2,0,P|379:323|449:219,1,170
401,124,101087,2,0,P|393:92|410:32,1,85
340,214,101400,6,0,P|309:188|288:134,1,85
229,46,101712,2,0,P|204:84|76:108,1,170
19,209,102181,2,0,P|56:224|78:274,1,85
161,345,102493,1,0,0:0:0:0:
189,228,102650,102,0,P|230:257|358:256,1,170
463,282,103118,2,0,P|481:258|480:188,1,85
417,106,103431,2,0,P|415:75|433:19,2,85
365,213,103900,6,0,P|344:239|213:229,1,170
169,128,104368,2,0,P|148:102|17:112,1,170
6,223,104837,2,0,P|38:248|91:245,1,85
112,234,105071,1,0,0:0:0:0:
144,223,105150,102,0,P|168:225|240:350,2,170
113,108,105931,2,0,P|131:71|187:47,1,85
230,150,106243,1,0,0:0:0:0:
345,120,106400,6,0,P|387:122|462:232,1,170
348,248,106868,2,0,P|337:288|227:337,2,170
229,233,107650,102,0,P|182:237|139:215,1,85
129,104,107962,2,0,L|308:96,2,170
19,57,108743,1,0,0:0:0:0:
29,176,108900,6,0,P|30:211|135:306,1,170
152,307,109525,2,0,P|204:290|284:324,2,127.5
131,189,110150,102,0,P|127:152|156:88,1,101.999996887207
278,28,110462,1,0,0:0:0:0:
147,196,110618,2,0,P|143:162|280:71,1,203.999993774414
398,101,111087,1,0,0:0:0:0:
167,208,111243,2,0,P|163:174|300:83,1,203.999993774414
414,125,111712,1,0,0:0:0:0:
190,223,111868,2,0,P|186:189|323:98,2,203.999993774414
204,250,112571,1,0,0:0:0:0:
220,279,112650,6,0,P|307:266|324:285,1,101.999996887207
129,316,112962,1,0,0:0:0:0:
347,277,113118,2,0,P|282:246|153:294,1,203.999993774414
48,196,113587,1,0,0:0:0:0:
161,109,113743,1,0,0:0:0:0:
68,218,113900,101,0,0:0:0:0:
68,218,114056,1,0,0:0:0:0:
146,337,114212,1,0,0:0:0:0:
178,114,114368,2,0,L|194:228,1,101.999996887207
151,352,114681,2,0,L|256:339,1,101.999996887207
393,319,114993,1,0,0:0:0:0:
393,319,115071,1,0,0:0:0:0:
393,319,115150,5,0,0:0:0:0:
400,176,115306,2,0,L|446:149,2,50.9999984436036
259,152,115618,1,0,0:0:0:0:
229,171,115696,1,0,0:0:0:0:
193,172,115775,1,0,0:0:0:0:
89,270,115931,1,0,0:0:0:0:
231,272,116087,1,0,0:0:0:0:
89,270,116243,2,0,P|58:291|15:352,1,101.999996887207
159,170,116556,2,0,P|169:119|147:59,1,101.999996887207
216,302,116868,2,0,P|253:317|328:306,1,101.999996887207
436,237,117181,1,0,0:0:0:0:
297,204,117337,1,0,0:0:0:0:
426,263,117493,1,0,0:0:0:0:
426,263,117571,1,0,0:0:0:0:
426,263,117650,101,0,0:0:0:0:
404,122,117806,1,0,0:0:0:0:
330,276,117962,1,0,0:0:0:0:
308,135,118118,1,0,0:0:0:0:
241,287,118275,1,0,0:0:0:0:
219,146,118431,1,0,0:0:0:0:
155,297,118587,1,0,0:0:0:0:
133,156,118743,1,0,0:0:0:0:
65,309,118900,5,0,0:0:0:0:
62,290,118978,1,0,0:0:0:0:
60,271,119056,1,0,0:0:0:0:
58,252,119134,1,0,0:0:0:0:
55,233,119212,1,0,0:0:0:0:
53,214,119290,1,0,0:0:0:0:
51,195,119368,1,0,0:0:0:0:
48,176,119446,1,0,0:0:0:0:
46,157,119525,2,0,L|40:123,12,21.25
193,253,120150,21,0,0:0:0:0:
236,282,120228,1,0,0:0:0:0:
288,291,120306,1,0,0:0:0:0:
340,280,120384,1,0,0:0:0:0:
383,249,120462,2,0,P|397:225|400:186,3,53.125
377,107,120775,5,0,0:0:0:0:
333,78,120853,1,0,0:0:0:0:
281,69,120931,1,0,0:0:0:0:
230,80,121009,1,0,0:0:0:0:
187,111,121087,2,0,P|173:135|170:174,3,53.125
104,256,121400,5,0,0:0:0:0:
110,258,121478,1,0,0:0:0:0:
116,260,121556,1,0,0:0:0:0:
122,263,121634,1,0,0:0:0:0:
127,267,121712,2,0,L|182:262,3,53.125
286,251,122025,1,0,0:0:0:0:
292,253,122103,1,0,0:0:0:0:
298,255,122181,1,0,0:0:0:0:
304,258,122259,1,0,0:0:0:0:
309,262,122337,2,0,L|370:252,1,53.125
297,150,122493,2,0,L|321:84,1,53.125
200,94,122650,86,0,P|191:63|176:35,3,53.125
90,115,122962,2,0,L|24:103,3,53.125
91,237,123275,1,0,0:0:0:0:
139,216,123353,1,0,0:0:0:0:
192,214,123431,1,0,0:0:0:0:
242,231,123509,1,0,0:0:0:0:
283,264,123587,2,0,P|309:281|333:288,3,53.125
446,221,123900,5,0,0:0:0:0:
455,169,123978,1,0,0:0:0:0:
446,117,124056,1,0,0:0:0:0:
418,72,124134,1,0,0:0:0:0:
376,40,124212,2,0,P|342:36|316:40,2,42.5
340,115,124446,2,0,P|362:138|368:163,2,42.5
287,187,124681,2,0,P|287:221|280:241,1,42.5
207,204,124837,1,0,0:0:0:0:
168,221,124915,1,0,0:0:0:0:
126,227,124993,1,0,0:0:0:0:
84,223,125071,1,0,0:0:0:0:
44,208,125150,5,0,0:0:0:0:
85,174,125228,1,0,0:0:0:0:
135,155,125306,1,0,0:0:0:0:
187,152,125384,1,0,0:0:0:0:
238,167,125462,2,0,P|268:190|276:210,3,53.125
338,317,125775,1,0,0:0:0:0:
387,298,125853,1,0,0:0:0:0:
422,259,125931,1,0,0:0:0:0:
436,208,126009,1,0,0:0:0:0:
425,157,126087,2,0,P|407:129|402:105,3,53.125
304,38,126400,85,0,0:0:0:0:
280,51,126478,1,0,0:0:0:0:
255,58,126556,1,0,0:0:0:0:
229,59,126634,1,0,0:0:0:0:
203,54,126712,2,0,P|173:41|147:41,3,53.125
159,126,127025,1,0,0:0:0:0:
146,149,127103,1,0,0:0:0:0:
127,168,127181,1,0,0:0:0:0:
105,183,127259,1,0,0:0:0:0:
80,192,127337,1,0,0:0:0:0:
54,237,127415,1,0,0:0:0:0:
58,289,127493,1,0,0:0:0:0:
92,329,127571,1,0,0:0:0:0:
143,342,127650,6,0,P|177:345|197:338,3,53.125
275,289,127962,2,0,P|300:277|325:279,1,53.125
424,296,128118,2,0,P|449:314|475:315,3,53.125
398,194,128431,1,0,0:0:0:0:
415,174,128509,1,0,0:0:0:0:
422,149,128587,2,0,L|417:83,3,53.125
319,119,128900,6,0,P|304:90|280:76,1,53.125
229,181,129056,1,0,0:0:0:0:
192,184,129134,1,0,0:0:0:0:
165,209,129212,2,0,P|149:241|149:265,2,42.5
247,272,129446,2,0,P|260:295|278:308,2,42.5
336,227,129681,2,0,L|387:235,1,42.5
335,121,129837,1,0,0:0:0:0:
300,97,129915,1,0,0:0:0:0:
259,83,129993,1,0,0:0:0:0:
217,80,130071,1,0,0:0:0:0:
176,89,130150,85,0,0:0:0:0:
128,121,130228,1,0,0:0:0:0:
98,169,130306,1,0,0:0:0:0:
91,226,130384,1,0,0:0:0:0:
108,280,130462,2,0,P|131:299|178:305,3,57.3750002188683
267,349,130775,1,0,0:0:0:0:
277,322,130853,1,0,0:0:0:0:
297,301,130931,1,0,0:0:0:0:
322,288,131009,1,0,0:0:0:0:
350,285,131087,2,0,L|426:291,1,57.3750002188683
309,172,131243,2,0,L|338:113,1,57.3750002188683
209,203,131400,5,0,0:0:0:0:
152,209,131478,1,0,0:0:0:0:
98,191,131556,1,0,0:0:0:0:
56,153,131634,1,0,0:0:0:0:
33,101,131712,2,0,P|25:69|32:39,3,57.3750002188683
158,107,132025,5,0,0:0:0:0:
177,85,132103,1,0,0:0:0:0:
202,72,132181,1,0,0:0:0:0:
230,69,132259,1,0,0:0:0:0:
258,76,132337,1,0,0:0:0:0:
309,103,132415,1,0,0:0:0:0:
365,112,132493,1,0,0:0:0:0:
422,103,132571,1,0,0:0:0:0:
473,78,132650,86,0,P|488:54|487:21,3,57.3750002188683
458,199,132962,2,0,P|458:232|473:259,1,57.3750002188683
336,186,133118,2,0,P|294:209|277:230,1,57.3750002188683
347,349,133275,6,0,P|340:312|327:298,1,57.3750002188683
256,206,133431,2,0,P|241:170|242:145,1,57.3750002188683
320,33,133587,2,0,L|388:25,3,57.3750002188683
233,118,133900,5,0,0:0:0:0:
218,116,133978,1,0,0:0:0:0:
204,114,134056,1,0,0:0:0:0:
190,112,134134,1,0,0:0:0:0:
176,111,134212,2,0,P|148:129|138:161,2,57.3750002188683
216,223,134446,2,0,P|225:258|223:291,2,57.3750002188683
320,160,134681,2,0,P|357:173|382:196,1,57.3750002188683
249,244,134837,1,0,0:0:0:0:
239,285,134915,1,0,0:0:0:0:
214,320,134993,1,0,0:0:0:0:
178,342,135071,1,0,0:0:0:0:
135,348,135150,85,0,0:0:0:0:
90,313,135228,1,0,0:0:0:0:
61,264,135306,1,0,0:0:0:0:
51,208,135384,1,0,0:0:0:0:
62,152,135462,2,0,P|76:121|98:99,3,57.3750002188683
200,63,135775,1,0,0:0:0:0:
242,68,135853,1,0,0:0:0:0:
285,73,135931,1,0,0:0:0:0:
328,78,136009,1,0,0:0:0:0:
370,83,136087,2,0,L|445:88,3,57.3750002188683
331,169,136400,6,0,L|356:229,1,57.3750002188683
317,176,136556,6,0,L|342:236,1,57.3750002188683
306,183,136712,86,0,L|331:243,1,57.3750002188683
292,190,136868,6,0,L|317:250,1,57.3750002188683
278,197,137025,5,0,0:0:0:0:
283,210,137103,1,0,0:0:0:0:
288,223,137181,1,0,0:0:0:0:
293,237,137259,1,0,0:0:0:0:
298,250,137337,2,0,L|327:308,3,57.3750002188683
208,268,137650,85,0,0:0:0:0:
209,271,137728,1,0,0:0:0:0:
210,274,137806,1,0,0:0:0:0:
211,278,137884,1,0,0:0:0:0:
212,281,137962,1,0,0:0:0:0:
214,284,138040,1,0,0:0:0:0:
215,288,138118,1,0,0:0:0:0:
216,291,138196,1,0,0:0:0:0:
217,294,138275,1,0,0:0:0:0:
219,298,138353,1,0,0:0:0:0:
220,301,138431,1,0,0:0:0:0:
221,305,138509,1,0,0:0:0:0:
222,308,138587,1,0,0:0:0:0:
224,311,138665,1,0,0:0:0:0:
225,315,138743,1,0,0:0:0:0:
226,318,138821,1,0,0:0:0:0:
226,318,138900,5,0,0:0:0:0:
184,320,138978,1,0,0:0:0:0:
146,303,139056,1,0,0:0:0:0:
119,270,139134,1,0,0:0:0:0:
110,229,139212,1,0,0:0:0:0:
121,188,139290,1,0,0:0:0:0:
148,157,139368,1,0,0:0:0:0:
187,141,139446,1,0,0:0:0:0:
229,145,139525,2,0,L|263:154,6,21.25
326,200,139837,2,0,L|354:189,7,21.25
