osu file format v14

[General]
AudioFilename: audio.mp3
AudioLeadIn: 0
PreviewTime: 29355
Countdown: 0
SampleSet: Soft
StackLeniency: 0.2
Mode: 3
LetterboxInBreaks: 0
SpecialStyle: 0
WidescreenStoryboard: 1

[Editor]
Bookmarks: 547,8344,15276,22207,29139,43001,49933,63796,77658,91521,97586,102785,104518
DistanceSpacing: 0.8
BeatDivisor: 4
GridSize: 32
TimelineZoom: 3.499999

[Metadata]
Title:MG277
TitleUnicode:MG277
Artist:eicaTV vs kanone
ArtistUnicode:eicaTV vs kanone
Creator:Ochasan
Version:ADVANCED
Source:SOUND VOLTEX III GRAVITY WARS
Tags:The 5th KAC Original Song Contest Konami Envory
BeatmapID:1544086
BeatmapSetID:731736

[Difficulty]
HPDrainRate:7.5
CircleSize:4
OverallDifficulty:7.5
ApproachRate:5
SliderMultiplier:1.4
SliderTickRate:1

[Events]
//Background and Video events
0,0,"BG.png",0,0
//Break Periods
//Storyboard Layer 0 (Background)
//Storyboard Layer 1 (Fail)
//Storyboard Layer 2 (Pass)
//Storyboard Layer 3 (Foreground)
//Storyboard Sound Samples

[TimingPoints]
547,216.606498194946,4,2,1,20,1,0
547,-100,4,2,1,20,0,0
77658,-100,4,2,1,20,0,1
90655,-100,4,2,1,20,0,0
91521,-100,4,2,1,20,0,1
104518,-100,4,2,1,20,0,0

[HitObjects]
64,192,547,5,0,0:0:0:0:
192,192,547,1,0,0:0:0:0:
320,192,655,1,0,0:0:0:0:
448,192,763,1,0,0:0:0:0:
192,192,763,1,0,0:0:0:0:
64,192,871,1,0,0:0:0:0:
448,192,980,1,0,0:0:0:0:
320,192,980,1,0,0:0:0:0:
192,192,1088,1,0,0:0:0:0:
64,192,1196,1,0,0:0:0:0:
192,192,1250,1,0,0:0:0:0:
448,192,1305,1,0,0:0:0:0:
320,192,1359,1,0,0:0:0:0:
192,192,1413,1,0,0:0:0:0:
64,192,1413,128,0,2279:0:0:0:0:
448,192,1630,1,0,0:0:0:0:
192,192,1738,1,0,0:0:0:0:
448,192,1954,1,0,0:0:0:0:
320,192,2171,1,0,0:0:0:0:
192,192,2279,128,0,2496:0:0:0:0:
448,192,2496,1,0,0:0:0:0:
64,192,2496,1,0,0:0:0:0:
64,192,2713,1,0,0:0:0:0:
192,192,2767,1,0,0:0:0:0:
320,192,2821,1,0,0:0:0:0:
448,192,2875,1,0,0:0:0:0:
64,192,2929,1,0,0:0:0:0:
192,192,2983,1,0,0:0:0:0:
320,192,3037,1,0,0:0:0:0:
192,192,3092,1,0,0:0:0:0:
64,192,3146,1,0,0:0:0:0:
448,192,3146,128,0,4012:0:0:0:0:
320,192,3362,1,0,0:0:0:0:
192,192,3579,1,0,0:0:0:0:
64,192,3687,1,0,0:0:0:0:
192,192,3904,1,0,0:0:0:0:
64,192,4012,1,0,0:0:0:0:
320,192,4012,1,0,0:0:0:0:
192,192,4121,1,0,0:0:0:0:
448,192,4229,1,0,0:0:0:0:
320,192,4229,1,0,0:0:0:0:
64,192,4337,1,0,0:0:0:0:
192,192,4445,1,0,0:0:0:0:
320,192,4445,1,0,0:0:0:0:
448,192,4554,1,0,0:0:0:0:
64,192,4662,1,0,0:0:0:0:
192,192,4716,1,0,0:0:0:0:
320,192,4770,1,0,0:0:0:0:
448,192,4824,1,0,0:0:0:0:
64,192,4879,128,0,5745:0:0:0:0:
192,192,4879,1,0,0:0:0:0:
448,192,5095,1,0,0:0:0:0:
320,192,5204,1,0,0:0:0:0:
192,192,5420,1,0,0:0:0:0:
320,192,5637,1,0,0:0:0:0:
448,192,5745,128,0,5962:0:0:0:0:
192,192,5962,1,0,0:0:0:0:
64,192,5962,1,0,0:0:0:0:
448,192,6178,1,0,0:0:0:0:
320,192,6232,1,0,0:0:0:0:
192,192,6287,1,0,0:0:0:0:
64,192,6341,1,0,0:0:0:0:
448,192,6395,1,0,0:0:0:0:
320,192,6449,1,0,0:0:0:0:
192,192,6503,1,0,0:0:0:0:
64,192,6557,1,0,0:0:0:0:
448,192,6611,128,0,7478:0:0:0:0:
320,192,6611,1,0,0:0:0:0:
64,192,6828,1,0,0:0:0:0:
192,192,7045,1,0,0:0:0:0:
320,192,7153,1,0,0:0:0:0:
64,192,7370,1,0,0:0:0:0:
320,192,7478,1,0,0:0:0:0:
192,192,7478,1,0,0:0:0:0:
64,192,7586,1,0,0:0:0:0:
448,192,7695,1,0,0:0:0:0:
192,192,7695,1,0,0:0:0:0:
320,192,7803,1,0,0:0:0:0:
192,192,7911,1,0,0:0:0:0:
64,192,7911,1,0,0:0:0:0:
448,192,8019,1,0,0:0:0:0:
64,192,8128,1,0,0:0:0:0:
192,192,8182,1,0,0:0:0:0:
320,192,8236,1,0,0:0:0:0:
448,192,8290,1,0,0:0:0:0:
64,192,8344,1,0,0:0:0:0:
192,192,8344,1,0,0:0:0:0:
320,192,8453,1,0,0:0:0:0:
448,192,8561,1,0,0:0:0:0:
64,192,8669,1,0,0:0:0:0:
192,192,8778,1,0,0:0:0:0:
448,192,8778,1,0,0:0:0:0:
320,192,8886,1,0,0:0:0:0:
192,192,8994,1,0,0:0:0:0:
64,192,9102,1,0,0:0:0:0:
320,192,9211,1,0,0:0:0:0:
448,192,9211,1,0,0:0:0:0:
192,192,9319,1,0,0:0:0:0:
64,192,9427,1,0,0:0:0:0:
448,192,9536,1,0,0:0:0:0:
64,192,9644,1,0,0:0:0:0:
320,192,9644,1,0,0:0:0:0:
192,192,9752,1,0,0:0:0:0:
448,192,9861,1,0,0:0:0:0:
320,192,9969,1,0,0:0:0:0:
192,192,10077,1,0,0:0:0:0:
64,192,10077,1,0,0:0:0:0:
448,192,10185,1,0,0:0:0:0:
320,192,10294,1,0,0:0:0:0:
64,192,10402,1,0,0:0:0:0:
192,192,10510,1,0,0:0:0:0:
448,192,10510,1,0,0:0:0:0:
320,192,10619,1,0,0:0:0:0:
64,192,10727,1,0,0:0:0:0:
192,192,10835,1,0,0:0:0:0:
320,192,10944,128,0,11810:0:0:0:0:
448,192,11160,1,0,0:0:0:0:
64,192,11377,1,0,0:0:0:0:
448,192,11593,1,0,0:0:0:0:
192,192,11810,1,0,0:0:0:0:
64,192,11810,1,0,0:0:0:0:
448,192,11918,1,0,0:0:0:0:
320,192,12027,1,0,0:0:0:0:
192,192,12135,1,0,0:0:0:0:
64,192,12243,1,0,0:0:0:0:
448,192,12243,1,0,0:0:0:0:
320,192,12352,1,0,0:0:0:0:
64,192,12460,1,0,0:0:0:0:
192,192,12568,1,0,0:0:0:0:
320,192,12676,1,0,0:0:0:0:
448,192,12676,1,0,0:0:0:0:
64,192,12785,1,0,0:0:0:0:
320,192,12893,1,0,0:0:0:0:
192,192,13001,1,0,0:0:0:0:
448,192,13110,1,0,0:0:0:0:
64,192,13110,1,0,0:0:0:0:
320,192,13218,1,0,0:0:0:0:
192,192,13326,1,0,0:0:0:0:
64,192,13435,1,0,0:0:0:0:
320,192,13543,1,0,0:0:0:0:
448,192,13543,1,0,0:0:0:0:
192,192,13651,1,0,0:0:0:0:
448,192,13759,1,0,0:0:0:0:
64,192,13868,1,0,0:0:0:0:
320,192,13976,1,0,0:0:0:0:
448,192,13976,1,0,0:0:0:0:
192,192,14084,1,0,0:0:0:0:
64,192,14193,1,0,0:0:0:0:
448,192,14301,1,0,0:0:0:0:
192,192,14409,128,0,15276:0:0:0:0:
64,192,14626,1,0,0:0:0:0:
448,192,14843,1,0,0:0:0:0:
64,192,15059,1,0,0:0:0:0:
320,192,15276,1,0,0:0:0:0:
448,192,15276,1,0,0:0:0:0:
64,192,15384,1,0,0:0:0:0:
320,192,15492,1,0,0:0:0:0:
192,192,15601,1,0,0:0:0:0:
448,192,15709,1,0,0:0:0:0:
320,192,15709,1,0,0:0:0:0:
64,192,15817,1,0,0:0:0:0:
192,192,15926,1,0,0:0:0:0:
320,192,16034,1,0,0:0:0:0:
448,192,16142,1,0,0:0:0:0:
192,192,16142,1,0,0:0:0:0:
64,192,16250,1,0,0:0:0:0:
448,192,16359,1,0,0:0:0:0:
320,192,16467,1,0,0:0:0:0:
192,192,16575,1,0,0:0:0:0:
64,192,16575,1,0,0:0:0:0:
448,192,16684,1,0,0:0:0:0:
320,192,16792,1,0,0:0:0:0:
192,192,16900,1,0,0:0:0:0:
64,192,17009,1,0,0:0:0:0:
448,192,17009,1,0,0:0:0:0:
320,192,17117,1,0,0:0:0:0:
64,192,17225,1,0,0:0:0:0:
192,192,17334,1,0,0:0:0:0:
448,192,17442,1,0,0:0:0:0:
320,192,17442,1,0,0:0:0:0:
64,192,17550,1,0,0:0:0:0:
192,192,17658,1,0,0:0:0:0:
448,192,17767,1,0,0:0:0:0:
320,192,17875,1,0,0:0:0:0:
64,192,17875,1,0,0:0:0:0:
192,192,17983,1,0,0:0:0:0:
448,192,18092,1,0,0:0:0:0:
320,192,18200,1,0,0:0:0:0:
64,192,18308,1,0,0:0:0:0:
192,192,18362,1,0,0:0:0:0:
320,192,18417,1,0,0:0:0:0:
448,192,18471,1,0,0:0:0:0:
64,192,18525,1,0,0:0:0:0:
192,192,18579,1,0,0:0:0:0:
320,192,18633,1,0,0:0:0:0:
448,192,18687,1,0,0:0:0:0:
64,192,18741,1,0,0:0:0:0:
192,192,18741,1,0,0:0:0:0:
320,192,18850,1,0,0:0:0:0:
448,192,18958,1,0,0:0:0:0:
64,192,19066,1,0,0:0:0:0:
192,192,19175,1,0,0:0:0:0:
448,192,19175,1,0,0:0:0:0:
320,192,19283,1,0,0:0:0:0:
64,192,19391,1,0,0:0:0:0:
192,192,19500,1,0,0:0:0:0:
448,192,19608,1,0,0:0:0:0:
320,192,19608,1,0,0:0:0:0:
64,192,19716,1,0,0:0:0:0:
192,192,19824,1,0,0:0:0:0:
320,192,19933,1,0,0:0:0:0:
448,192,20041,1,0,0:0:0:0:
320,192,20095,1,0,0:0:0:0:
192,192,20149,1,0,0:0:0:0:
64,192,20204,1,0,0:0:0:0:
448,192,20258,1,0,0:0:0:0:
320,192,20312,1,0,0:0:0:0:
192,192,20366,1,0,0:0:0:0:
64,192,20420,1,0,0:0:0:0:
320,192,20474,1,0,0:0:0:0:
448,192,20474,1,0,0:0:0:0:
192,192,20583,1,0,0:0:0:0:
64,192,20691,1,0,0:0:0:0:
448,192,20799,1,0,0:0:0:0:
320,192,20908,1,0,0:0:0:0:
192,192,20908,1,0,0:0:0:0:
64,192,21016,1,0,0:0:0:0:
448,192,21124,1,0,0:0:0:0:
192,192,21232,1,0,0:0:0:0:
64,192,21341,128,0,21991:0:0:0:0:
320,192,21341,1,0,0:0:0:0:
448,192,21449,1,0,0:0:0:0:
192,192,21557,1,0,0:0:0:0:
448,192,21666,1,0,0:0:0:0:
320,192,21774,1,0,0:0:0:0:
192,192,21882,1,0,0:0:0:0:
448,192,21991,1,0,0:0:0:0:
320,192,22045,1,0,0:0:0:0:
192,192,22099,1,0,0:0:0:0:
64,192,22153,1,0,0:0:0:0:
320,192,22207,1,0,0:0:0:0:
448,192,22207,1,0,0:0:0:0:
192,192,22315,1,0,0:0:0:0:
64,192,22424,1,0,0:0:0:0:
320,192,22424,1,0,0:0:0:0:
448,192,22532,1,0,0:0:0:0:
192,192,22640,1,0,0:0:0:0:
64,192,22640,1,0,0:0:0:0:
320,192,22749,1,0,0:0:0:0:
64,192,22857,1,0,0:0:0:0:
448,192,22857,1,0,0:0:0:0:
192,192,22965,1,0,0:0:0:0:
448,192,23074,1,0,0:0:0:0:
320,192,23074,1,0,0:0:0:0:
64,192,23182,1,0,0:0:0:0:
192,192,23290,1,0,0:0:0:0:
320,192,23290,1,0,0:0:0:0:
448,192,23398,1,0,0:0:0:0:
320,192,23507,1,0,0:0:0:0:
64,192,23507,1,0,0:0:0:0:
192,192,23615,1,0,0:0:0:0:
320,192,23723,1,0,0:0:0:0:
448,192,23723,1,0,0:0:0:0:
64,192,23832,1,0,0:0:0:0:
192,192,23940,1,0,0:0:0:0:
448,192,23940,1,0,0:0:0:0:
320,192,24048,1,0,0:0:0:0:
192,192,24157,1,0,0:0:0:0:
64,192,24157,1,0,0:0:0:0:
320,192,24265,1,0,0:0:0:0:
448,192,24373,1,0,0:0:0:0:
64,192,24373,1,0,0:0:0:0:
192,192,24482,1,0,0:0:0:0:
320,192,24590,1,0,0:0:0:0:
448,192,24590,1,0,0:0:0:0:
192,192,24698,1,0,0:0:0:0:
448,192,24806,1,0,0:0:0:0:
64,192,24806,1,0,0:0:0:0:
320,192,24915,1,0,0:0:0:0:
192,192,25023,1,0,0:0:0:0:
64,192,25023,1,0,0:0:0:0:
320,192,25131,1,0,0:0:0:0:
448,192,25240,1,0,0:0:0:0:
192,192,25240,1,0,0:0:0:0:
64,192,25348,1,0,0:0:0:0:
320,192,25456,1,0,0:0:0:0:
448,192,25456,1,0,0:0:0:0:
192,192,25565,1,0,0:0:0:0:
64,192,25673,1,0,0:0:0:0:
320,192,25673,1,0,0:0:0:0:
448,192,25781,1,0,0:0:0:0:
64,192,25889,1,0,0:0:0:0:
192,192,25889,1,0,0:0:0:0:
320,192,25998,1,0,0:0:0:0:
448,192,26106,1,0,0:0:0:0:
64,192,26106,1,0,0:0:0:0:
192,192,26214,1,0,0:0:0:0:
320,192,26323,1,0,0:0:0:0:
448,192,26323,1,0,0:0:0:0:
64,192,26431,1,0,0:0:0:0:
192,192,26539,1,0,0:0:0:0:
320,192,26539,1,0,0:0:0:0:
448,192,26648,1,0,0:0:0:0:
64,192,26756,1,0,0:0:0:0:
320,192,26756,1,0,0:0:0:0:
192,192,26864,1,0,0:0:0:0:
448,192,26972,1,0,0:0:0:0:
320,192,26972,1,0,0:0:0:0:
192,192,27081,1,0,0:0:0:0:
64,192,27189,1,0,0:0:0:0:
448,192,27189,1,0,0:0:0:0:
320,192,27297,1,0,0:0:0:0:
192,192,27406,1,0,0:0:0:0:
64,192,27406,1,0,0:0:0:0:
448,192,27514,1,0,0:0:0:0:
320,192,27622,1,0,0:0:0:0:
192,192,27622,1,0,0:0:0:0:
64,192,27731,1,0,0:0:0:0:
448,192,27839,1,0,0:0:0:0:
320,192,27839,1,0,0:0:0:0:
192,192,27947,1,0,0:0:0:0:
64,192,28056,1,0,0:0:0:0:
448,192,28056,1,0,0:0:0:0:
320,192,28164,1,0,0:0:0:0:
64,192,28272,128,0,28922:0:0:0:0:
192,192,28272,1,0,0:0:0:0:
448,192,28380,1,0,0:0:0:0:
192,192,28489,1,0,0:0:0:0:
448,192,28597,1,0,0:0:0:0:
320,192,28705,1,0,0:0:0:0:
192,192,28814,1,0,0:0:0:0:
448,192,28922,1,0,0:0:0:0:
320,192,28976,1,0,0:0:0:0:
64,192,29030,1,0,0:0:0:0:
192,192,29084,1,0,0:0:0:0:
320,192,29139,1,0,0:0:0:0:
448,192,29139,1,0,0:0:0:0:
64,192,29463,1,0,0:0:0:0:
192,192,29463,1,0,0:0:0:0:
448,192,29788,1,0,0:0:0:0:
192,192,29788,1,0,0:0:0:0:
320,192,30005,1,0,0:0:0:0:
64,192,30005,1,0,0:0:0:0:
192,192,30330,1,0,0:0:0:0:
320,192,30330,1,0,0:0:0:0:
192,192,30655,1,0,0:0:0:0:
448,192,30655,1,0,0:0:0:0:
320,192,30763,1,0,0:0:0:0:
192,192,30871,1,0,0:0:0:0:
64,192,30871,1,0,0:0:0:0:
192,192,31196,1,0,0:0:0:0:
320,192,31196,1,0,0:0:0:0:
448,192,31521,1,0,0:0:0:0:
192,192,31521,1,0,0:0:0:0:
320,192,31738,128,0,32171:0:0:0:0:
64,192,31738,1,0,0:0:0:0:
192,192,32171,128,0,32604:0:0:0:0:
448,192,32171,1,0,0:0:0:0:
64,192,32604,1,0,0:0:0:0:
448,192,32604,1,0,0:0:0:0:
320,192,32929,1,0,0:0:0:0:
64,192,32929,1,0,0:0:0:0:
192,192,33254,1,0,0:0:0:0:
448,192,33254,1,0,0:0:0:0:
320,192,33471,1,0,0:0:0:0:
192,192,33471,1,0,0:0:0:0:
64,192,33796,1,0,0:0:0:0:
192,192,33796,1,0,0:0:0:0:
320,192,34121,1,0,0:0:0:0:
448,192,34121,1,0,0:0:0:0:
64,192,34229,1,0,0:0:0:0:
192,192,34337,1,0,0:0:0:0:
448,192,34337,1,0,0:0:0:0:
320,192,34662,1,0,0:0:0:0:
192,192,34662,1,0,0:0:0:0:
320,192,34987,1,0,0:0:0:0:
64,192,34987,1,0,0:0:0:0:
64,192,35204,128,0,35637:0:0:0:0:
448,192,35204,1,0,0:0:0:0:
448,192,35637,128,0,36070:0:0:0:0:
192,192,35637,1,0,0:0:0:0:
64,192,36070,1,0,0:0:0:0:
320,192,36070,1,0,0:0:0:0:
192,192,36395,1,0,0:0:0:0:
320,192,36395,1,0,0:0:0:0:
448,192,36720,1,0,0:0:0:0:
320,192,36720,1,0,0:0:0:0:
64,192,36936,1,0,0:0:0:0:
448,192,36936,1,0,0:0:0:0:
192,192,37261,1,0,0:0:0:0:
320,192,37261,1,0,0:0:0:0:
64,192,37586,1,0,0:0:0:0:
192,192,37586,1,0,0:0:0:0:
320,192,37695,1,0,0:0:0:0:
448,192,37803,1,0,0:0:0:0:
192,192,37803,1,0,0:0:0:0:
64,192,38128,1,0,0:0:0:0:
192,192,38128,1,0,0:0:0:0:
64,192,38453,1,0,0:0:0:0:
448,192,38453,1,0,0:0:0:0:
192,192,38669,128,0,38994:0:0:0:0:
448,192,38669,1,0,0:0:0:0:
64,192,38994,1,0,0:0:0:0:
320,192,38994,128,0,39536:0:0:0:0:
448,192,39536,1,0,0:0:0:0:
64,192,39536,1,0,0:0:0:0:
320,192,39861,1,0,0:0:0:0:
192,192,39861,1,0,0:0:0:0:
64,192,40185,1,0,0:0:0:0:
320,192,40185,1,0,0:0:0:0:
448,192,40402,1,0,0:0:0:0:
192,192,40402,1,0,0:0:0:0:
320,192,40727,1,0,0:0:0:0:
192,192,40727,1,0,0:0:0:0:
448,192,41052,1,0,0:0:0:0:
64,192,41052,1,0,0:0:0:0:
192,192,41160,1,0,0:0:0:0:
320,192,41269,1,0,0:0:0:0:
448,192,41269,1,0,0:0:0:0:
64,192,41593,1,0,0:0:0:0:
192,192,41593,1,0,0:0:0:0:
448,192,41918,1,0,0:0:0:0:
192,192,41918,1,0,0:0:0:0:
448,192,42135,128,0,42460:0:0:0:0:
320,192,42135,1,0,0:0:0:0:
64,192,42460,128,0,43001:0:0:0:0:
192,192,42460,1,0,0:0:0:0:
320,192,43001,1,0,0:0:0:0:
448,192,43001,1,0,0:0:0:0:
192,192,43218,1,0,0:0:0:0:
320,192,43218,1,0,0:0:0:0:
64,192,43435,1,0,0:0:0:0:
448,192,43435,1,0,0:0:0:0:
192,192,43651,1,0,0:0:0:0:
320,192,43651,1,0,0:0:0:0:
448,192,43868,1,0,0:0:0:0:
192,192,43868,1,0,0:0:0:0:
64,192,44084,1,0,0:0:0:0:
320,192,44084,1,0,0:0:0:0:
64,192,44301,1,0,0:0:0:0:
192,192,44301,1,0,0:0:0:0:
192,192,44518,1,0,0:0:0:0:
448,192,44518,1,0,0:0:0:0:
320,192,44734,1,0,0:0:0:0:
64,192,44734,1,0,0:0:0:0:
320,192,44951,1,0,0:0:0:0:
448,192,44951,1,0,0:0:0:0:
192,192,45167,1,0,0:0:0:0:
448,192,45167,1,0,0:0:0:0:
64,192,45384,1,0,0:0:0:0:
192,192,45384,1,0,0:0:0:0:
64,192,45601,1,0,0:0:0:0:
448,192,45601,1,0,0:0:0:0:
320,192,45817,1,0,0:0:0:0:
448,192,45817,1,0,0:0:0:0:
192,192,46034,1,0,0:0:0:0:
320,192,46034,1,0,0:0:0:0:
64,192,46250,1,0,0:0:0:0:
448,192,46250,1,0,0:0:0:0:
192,192,46467,1,0,0:0:0:0:
320,192,46467,1,0,0:0:0:0:
64,192,46684,1,0,0:0:0:0:
192,192,46684,1,0,0:0:0:0:
320,192,46900,1,0,0:0:0:0:
448,192,46900,1,0,0:0:0:0:
64,192,47117,1,0,0:0:0:0:
320,192,47117,1,0,0:0:0:0:
192,192,47334,1,0,0:0:0:0:
448,192,47334,1,0,0:0:0:0:
64,192,47550,1,0,0:0:0:0:
192,192,47550,1,0,0:0:0:0:
64,192,47767,1,0,0:0:0:0:
320,192,47767,1,0,0:0:0:0:
192,192,47983,1,0,0:0:0:0:
448,192,47983,1,0,0:0:0:0:
320,192,48200,1,0,0:0:0:0:
448,192,48200,1,0,0:0:0:0:
64,192,48417,1,0,0:0:0:0:
192,192,48417,1,0,0:0:0:0:
448,192,48633,1,0,0:0:0:0:
192,192,48633,1,0,0:0:0:0:
320,192,48850,1,0,0:0:0:0:
64,192,48850,1,0,0:0:0:0:
192,192,49066,1,0,0:0:0:0:
64,192,49066,1,0,0:0:0:0:
320,192,49121,1,0,0:0:0:0:
192,192,49175,1,0,0:0:0:0:
448,192,49283,1,0,0:0:0:0:
64,192,49391,1,0,0:0:0:0:
320,192,49500,1,0,0:0:0:0:
448,192,49608,1,0,0:0:0:0:
192,192,49716,128,0,49933:0:0:0:0:
448,192,49933,128,0,50799:0:0:0:0:
64,192,49933,1,0,0:0:0:0:
192,192,50149,1,0,0:0:0:0:
320,192,50258,1,0,0:0:0:0:
192,192,50474,1,0,0:0:0:0:
64,192,50583,1,0,0:0:0:0:
320,192,50799,128,0,51666:0:0:0:0:
192,192,50799,1,0,0:0:0:0:
64,192,51666,128,0,52532:0:0:0:0:
448,192,51666,1,0,0:0:0:0:
192,192,51882,1,0,0:0:0:0:
448,192,51991,1,0,0:0:0:0:
320,192,52207,1,0,0:0:0:0:
448,192,52315,1,0,0:0:0:0:
192,192,52532,128,0,53398:0:0:0:0:
320,192,52532,1,0,0:0:0:0:
448,192,52640,1,0,0:0:0:0:
64,192,52749,1,0,0:0:0:0:
64,192,53290,1,0,0:0:0:0:
448,192,53398,128,0,54265:0:0:0:0:
320,192,53398,1,0,0:0:0:0:
64,192,53615,1,0,0:0:0:0:
192,192,53723,1,0,0:0:0:0:
320,192,53940,1,0,0:0:0:0:
64,192,54048,1,0,0:0:0:0:
320,192,54265,128,0,55131:0:0:0:0:
192,192,54265,1,0,0:0:0:0:
64,192,55131,128,0,55998:0:0:0:0:
448,192,55131,1,0,0:0:0:0:
192,192,55348,1,0,0:0:0:0:
320,192,55456,1,0,0:0:0:0:
320,192,55673,1,0,0:0:0:0:
448,192,55781,1,0,0:0:0:0:
448,192,55998,1,0,0:0:0:0:
320,192,55998,1,0,0:0:0:0:
192,192,56106,1,0,0:0:0:0:
64,192,56214,1,0,0:0:0:0:
448,192,56214,1,0,0:0:0:0:
320,192,56323,1,0,0:0:0:0:
192,192,56431,1,0,0:0:0:0:
64,192,56431,1,0,0:0:0:0:
320,192,56539,1,0,0:0:0:0:
448,192,56648,1,0,0:0:0:0:
320,192,56702,1,0,0:0:0:0:
64,192,56756,1,0,0:0:0:0:
192,192,56810,1,0,0:0:0:0:
448,192,56864,128,0,57731:0:0:0:0:
320,192,56864,1,0,0:0:0:0:
64,192,57081,1,0,0:0:0:0:
192,192,57189,1,0,0:0:0:0:
320,192,57406,1,0,0:0:0:0:
64,192,57514,1,0,0:0:0:0:
320,192,57731,128,0,58597:0:0:0:0:
192,192,57731,1,0,0:0:0:0:
64,192,58597,128,0,59463:0:0:0:0:
448,192,58597,1,0,0:0:0:0:
192,192,58814,1,0,0:0:0:0:
320,192,58922,1,0,0:0:0:0:
448,192,59139,1,0,0:0:0:0:
320,192,59247,1,0,0:0:0:0:
192,192,59463,128,0,60330:0:0:0:0:
448,192,59463,1,0,0:0:0:0:
320,192,59572,1,0,0:0:0:0:
64,192,59680,1,0,0:0:0:0:
64,192,60222,1,0,0:0:0:0:
448,192,60330,128,0,61196:0:0:0:0:
320,192,60330,1,0,0:0:0:0:
192,192,60547,1,0,0:0:0:0:
64,192,60655,1,0,0:0:0:0:
320,192,60871,1,0,0:0:0:0:
192,192,60980,1,0,0:0:0:0:
320,192,61196,128,0,62063:0:0:0:0:
64,192,61196,1,0,0:0:0:0:
64,192,62063,128,0,62929:0:0:0:0:
192,192,62063,1,0,0:0:0:0:
448,192,62279,1,0,0:0:0:0:
320,192,62388,1,0,0:0:0:0:
192,192,62604,1,0,0:0:0:0:
320,192,62713,1,0,0:0:0:0:
192,192,62929,1,0,0:0:0:0:
448,192,62929,1,0,0:0:0:0:
320,192,63037,1,0,0:0:0:0:
192,192,63146,1,0,0:0:0:0:
64,192,63146,1,0,0:0:0:0:
320,192,63254,1,0,0:0:0:0:
64,192,63362,1,0,0:0:0:0:
448,192,63362,1,0,0:0:0:0:
192,192,63471,1,0,0:0:0:0:
448,192,63579,1,0,0:0:0:0:
320,192,63633,1,0,0:0:0:0:
192,192,63687,1,0,0:0:0:0:
64,192,63741,1,0,0:0:0:0:
320,192,63796,1,0,0:0:0:0:
448,192,63796,1,0,0:0:0:0:
64,192,64012,1,0,0:0:0:0:
192,192,64012,1,0,0:0:0:0:
448,192,64229,1,0,0:0:0:0:
64,192,64229,1,0,0:0:0:0:
192,192,64445,1,0,0:0:0:0:
320,192,64445,1,0,0:0:0:0:
448,192,64662,1,0,0:0:0:0:
192,192,64662,1,0,0:0:0:0:
320,192,64879,1,0,0:0:0:0:
64,192,64879,1,0,0:0:0:0:
64,192,65095,1,0,0:0:0:0:
192,192,65095,1,0,0:0:0:0:
192,192,65312,1,0,0:0:0:0:
448,192,65312,1,0,0:0:0:0:
320,192,65528,1,0,0:0:0:0:
448,192,65528,1,0,0:0:0:0:
64,192,65745,1,0,0:0:0:0:
320,192,65745,1,0,0:0:0:0:
192,192,65962,1,0,0:0:0:0:
320,192,65962,1,0,0:0:0:0:
192,192,66178,1,0,0:0:0:0:
448,192,66178,1,0,0:0:0:0:
64,192,66395,1,0,0:0:0:0:
320,192,66395,1,0,0:0:0:0:
192,192,66611,1,0,0:0:0:0:
64,192,66611,1,0,0:0:0:0:
448,192,66828,1,0,0:0:0:0:
192,192,66828,1,0,0:0:0:0:
320,192,67045,1,0,0:0:0:0:
192,192,67045,1,0,0:0:0:0:
64,192,67261,1,0,0:0:0:0:
448,192,67261,1,0,0:0:0:0:
448,192,67478,1,0,0:0:0:0:
192,192,67478,1,0,0:0:0:0:
192,192,67695,1,0,0:0:0:0:
64,192,67695,1,0,0:0:0:0:
64,192,67911,1,0,0:0:0:0:
448,192,67911,1,0,0:0:0:0:
192,192,68128,1,0,0:0:0:0:
320,192,68128,1,0,0:0:0:0:
448,192,68344,1,0,0:0:0:0:
192,192,68344,1,0,0:0:0:0:
320,192,68561,1,0,0:0:0:0:
64,192,68561,1,0,0:0:0:0:
192,192,68778,1,0,0:0:0:0:
320,192,68778,1,0,0:0:0:0:
192,192,68994,1,0,0:0:0:0:
448,192,68994,1,0,0:0:0:0:
64,192,69211,1,0,0:0:0:0:
320,192,69211,1,0,0:0:0:0:
64,192,69427,1,0,0:0:0:0:
192,192,69427,1,0,0:0:0:0:
448,192,69644,1,0,0:0:0:0:
192,192,69644,1,0,0:0:0:0:
448,192,69861,128,0,70727:0:0:0:0:
320,192,69861,1,0,0:0:0:0:
64,192,70077,1,0,0:0:0:0:
320,192,70294,1,0,0:0:0:0:
192,192,70510,1,0,0:0:0:0:
320,192,70727,128,0,71593:0:0:0:0:
64,192,70727,1,0,0:0:0:0:
192,192,71160,1,0,0:0:0:0:
64,192,71160,1,0,0:0:0:0:
192,192,71593,128,0,72460:0:0:0:0:
448,192,71593,1,0,0:0:0:0:
320,192,72027,1,0,0:0:0:0:
448,192,72027,1,0,0:0:0:0:
64,192,72460,128,0,73326:0:0:0:0:
320,192,72460,1,0,0:0:0:0:
192,192,72893,1,0,0:0:0:0:
448,192,72893,1,0,0:0:0:0:
448,192,73326,128,0,74193:0:0:0:0:
192,192,73326,1,0,0:0:0:0:
64,192,73759,1,0,0:0:0:0:
320,192,73759,1,0,0:0:0:0:
320,192,74193,128,0,75059:0:0:0:0:
64,192,74193,1,0,0:0:0:0:
64,192,74626,1,0,0:0:0:0:
192,192,74626,1,0,0:0:0:0:
192,192,75059,128,0,75926:0:0:0:0:
448,192,75059,1,0,0:0:0:0:
320,192,75492,1,0,0:0:0:0:
448,192,75492,1,0,0:0:0:0:
64,192,75926,1,0,0:0:0:0:
448,192,75926,1,0,0:0:0:0:
320,192,76034,1,0,0:0:0:0:
192,192,76142,1,0,0:0:0:0:
64,192,76142,1,0,0:0:0:0:
448,192,76250,1,0,0:0:0:0:
320,192,76359,1,0,0:0:0:0:
64,192,76359,1,0,0:0:0:0:
192,192,76467,1,0,0:0:0:0:
448,192,76575,1,0,0:0:0:0:
320,192,76575,1,0,0:0:0:0:
192,192,76684,1,0,0:0:0:0:
64,192,76792,1,0,0:0:0:0:
448,192,76792,1,0,0:0:0:0:
320,192,76846,1,0,0:0:0:0:
192,192,76900,1,0,0:0:0:0:
64,192,76954,1,0,0:0:0:0:
448,192,77009,1,0,0:0:0:0:
320,192,77063,1,0,0:0:0:0:
192,192,77117,1,0,0:0:0:0:
320,192,77171,1,0,0:0:0:0:
448,192,77225,1,0,0:0:0:0:
64,192,77279,1,0,0:0:0:0:
192,192,77334,1,0,0:0:0:0:
320,192,77388,1,0,0:0:0:0:
192,192,77442,1,0,0:0:0:0:
64,192,77496,1,0,0:0:0:0:
448,192,77550,1,0,0:0:0:0:
320,192,77604,1,0,0:0:0:0:
192,192,77658,1,0,0:0:0:0:
64,192,77658,1,0,0:0:0:0:
64,192,77875,1,0,0:0:0:0:
192,192,77875,1,0,0:0:0:0:
320,192,78092,1,0,0:0:0:0:
448,192,78092,1,0,0:0:0:0:
192,192,78200,1,0,0:0:0:0:
64,192,78308,1,0,0:0:0:0:
448,192,78308,1,0,0:0:0:0:
320,192,78417,1,0,0:0:0:0:
192,192,78525,1,0,0:0:0:0:
64,192,78525,1,0,0:0:0:0:
448,192,78633,1,0,0:0:0:0:
320,192,78741,1,0,0:0:0:0:
64,192,78741,1,0,0:0:0:0:
192,192,78850,1,0,0:0:0:0:
320,192,78958,1,0,0:0:0:0:
448,192,78958,1,0,0:0:0:0:
64,192,79066,1,0,0:0:0:0:
192,192,79175,1,0,0:0:0:0:
448,192,79175,1,0,0:0:0:0:
320,192,79283,1,0,0:0:0:0:
64,192,79391,1,0,0:0:0:0:
448,192,79391,1,0,0:0:0:0:
192,192,79608,1,0,0:0:0:0:
320,192,79608,1,0,0:0:0:0:
448,192,79824,1,0,0:0:0:0:
320,192,79824,1,0,0:0:0:0:
64,192,79933,1,0,0:0:0:0:
192,192,80041,1,0,0:0:0:0:
448,192,80041,1,0,0:0:0:0:
320,192,80149,1,0,0:0:0:0:
192,192,80258,1,0,0:0:0:0:
64,192,80258,1,0,0:0:0:0:
320,192,80474,1,0,0:0:0:0:
64,192,80474,1,0,0:0:0:0:
192,192,80583,1,0,0:0:0:0:
320,192,80691,1,0,0:0:0:0:
448,192,80691,1,0,0:0:0:0:
64,192,80799,1,0,0:0:0:0:
192,192,80908,1,0,0:0:0:0:
320,192,80908,1,0,0:0:0:0:
448,192,81016,1,0,0:0:0:0:
64,192,81124,1,0,0:0:0:0:
192,192,81124,1,0,0:0:0:0:
192,192,81341,1,0,0:0:0:0:
448,192,81341,1,0,0:0:0:0:
320,192,81557,1,0,0:0:0:0:
64,192,81557,1,0,0:0:0:0:
192,192,81666,1,0,0:0:0:0:
448,192,81774,1,0,0:0:0:0:
320,192,81774,1,0,0:0:0:0:
64,192,81882,1,0,0:0:0:0:
192,192,81991,1,0,0:0:0:0:
448,192,81991,1,0,0:0:0:0:
320,192,82099,1,0,0:0:0:0:
192,192,82207,1,0,0:0:0:0:
64,192,82207,1,0,0:0:0:0:
448,192,82315,1,0,0:0:0:0:
320,192,82424,1,0,0:0:0:0:
64,192,82424,1,0,0:0:0:0:
320,192,82640,1,0,0:0:0:0:
448,192,82640,1,0,0:0:0:0:
192,192,82857,128,0,83723:0:0:0:0:
448,192,82857,1,0,0:0:0:0:
64,192,82965,1,0,0:0:0:0:
320,192,83074,1,0,0:0:0:0:
64,192,83182,1,0,0:0:0:0:
448,192,83290,1,0,0:0:0:0:
64,192,83398,1,0,0:0:0:0:
320,192,83507,1,0,0:0:0:0:
64,192,83615,1,0,0:0:0:0:
448,192,83723,1,0,0:0:0:0:
320,192,83778,1,0,0:0:0:0:
192,192,83832,1,0,0:0:0:0:
64,192,83886,1,0,0:0:0:0:
448,192,83940,1,0,0:0:0:0:
320,192,83994,1,0,0:0:0:0:
192,192,84048,1,0,0:0:0:0:
320,192,84102,1,0,0:0:0:0:
448,192,84157,1,0,0:0:0:0:
64,192,84211,1,0,0:0:0:0:
192,192,84265,1,0,0:0:0:0:
320,192,84319,1,0,0:0:0:0:
448,192,84373,1,0,0:0:0:0:
64,192,84427,1,0,0:0:0:0:
192,192,84482,1,0,0:0:0:0:
320,192,84536,1,0,0:0:0:0:
448,192,84590,1,0,0:0:0:0:
64,192,84590,1,0,0:0:0:0:
64,192,84806,1,0,0:0:0:0:
448,192,84806,1,0,0:0:0:0:
192,192,85023,1,0,0:0:0:0:
320,192,85023,1,0,0:0:0:0:
64,192,85131,1,0,0:0:0:0:
448,192,85240,1,0,0:0:0:0:
320,192,85240,1,0,0:0:0:0:
192,192,85348,1,0,0:0:0:0:
64,192,85456,1,0,0:0:0:0:
448,192,85456,1,0,0:0:0:0:
320,192,85565,1,0,0:0:0:0:
192,192,85673,1,0,0:0:0:0:
64,192,85673,1,0,0:0:0:0:
320,192,85781,1,0,0:0:0:0:
192,192,85889,1,0,0:0:0:0:
448,192,85889,1,0,0:0:0:0:
64,192,85998,1,0,0:0:0:0:
320,192,86106,1,0,0:0:0:0:
448,192,86106,1,0,0:0:0:0:
192,192,86214,1,0,0:0:0:0:
64,192,86323,1,0,0:0:0:0:
448,192,86323,1,0,0:0:0:0:
192,192,86539,1,0,0:0:0:0:
320,192,86539,1,0,0:0:0:0:
64,192,86756,1,0,0:0:0:0:
320,192,86756,1,0,0:0:0:0:
192,192,86864,1,0,0:0:0:0:
448,192,86972,1,0,0:0:0:0:
320,192,86972,1,0,0:0:0:0:
64,192,87081,1,0,0:0:0:0:
192,192,87189,1,0,0:0:0:0:
448,192,87189,1,0,0:0:0:0:
192,192,87406,1,0,0:0:0:0:
64,192,87514,1,0,0:0:0:0:
448,192,87514,1,0,0:0:0:0:
320,192,87622,1,0,0:0:0:0:
192,192,87731,1,0,0:0:0:0:
64,192,87731,1,0,0:0:0:0:
448,192,87839,1,0,0:0:0:0:
320,192,87947,1,0,0:0:0:0:
192,192,88056,1,0,0:0:0:0:
64,192,88056,1,0,0:0:0:0:
192,192,88272,1,0,0:0:0:0:
448,192,88272,1,0,0:0:0:0:
64,192,88489,1,0,0:0:0:0:
320,192,88489,1,0,0:0:0:0:
192,192,88597,1,0,0:0:0:0:
64,192,88705,1,0,0:0:0:0:
448,192,88705,1,0,0:0:0:0:
320,192,88814,1,0,0:0:0:0:
192,192,88922,1,0,0:0:0:0:
64,192,88922,1,0,0:0:0:0:
448,192,89030,1,0,0:0:0:0:
64,192,89139,1,0,0:0:0:0:
320,192,89139,1,0,0:0:0:0:
192,192,89247,1,0,0:0:0:0:
320,192,89355,1,0,0:0:0:0:
448,192,89355,1,0,0:0:0:0:
192,192,89572,1,0,0:0:0:0:
320,192,89572,1,0,0:0:0:0:
64,192,89788,128,0,90655:0:0:0:0:
192,192,89788,1,0,0:0:0:0:
320,192,89897,1,0,0:0:0:0:
192,192,90005,1,0,0:0:0:0:
448,192,90113,1,0,0:0:0:0:
320,192,90222,1,0,0:0:0:0:
448,192,90330,1,0,0:0:0:0:
192,192,90438,1,0,0:0:0:0:
320,192,90547,1,0,0:0:0:0:
448,192,90655,1,0,0:0:0:0:
320,192,90709,1,0,0:0:0:0:
192,192,90763,1,0,0:0:0:0:
64,192,90817,1,0,0:0:0:0:
448,192,90871,1,0,0:0:0:0:
320,192,90926,1,0,0:0:0:0:
192,192,90980,1,0,0:0:0:0:
64,192,91034,1,0,0:0:0:0:
448,192,91088,1,0,0:0:0:0:
320,192,91142,1,0,0:0:0:0:
192,192,91196,1,0,0:0:0:0:
320,192,91250,1,0,0:0:0:0:
448,192,91305,1,0,0:0:0:0:
64,192,91359,1,0,0:0:0:0:
192,192,91413,1,0,0:0:0:0:
320,192,91467,1,0,0:0:0:0:
448,192,91521,1,0,0:0:0:0:
64,192,91521,1,0,0:0:0:0:
192,192,91630,1,0,0:0:0:0:
448,192,91738,1,0,0:0:0:0:
320,192,91738,1,0,0:0:0:0:
64,192,91846,1,0,0:0:0:0:
192,192,91954,1,0,0:0:0:0:
320,192,91954,1,0,0:0:0:0:
448,192,92063,1,0,0:0:0:0:
320,192,92171,1,0,0:0:0:0:
64,192,92171,1,0,0:0:0:0:
192,192,92279,1,0,0:0:0:0:
320,192,92388,1,0,0:0:0:0:
448,192,92388,1,0,0:0:0:0:
64,192,92496,1,0,0:0:0:0:
192,192,92604,1,0,0:0:0:0:
448,192,92604,1,0,0:0:0:0:
320,192,92713,1,0,0:0:0:0:
192,192,92821,1,0,0:0:0:0:
64,192,92821,1,0,0:0:0:0:
448,192,92929,1,0,0:0:0:0:
320,192,93037,1,0,0:0:0:0:
64,192,93037,1,0,0:0:0:0:
192,192,93146,1,0,0:0:0:0:
320,192,93254,1,0,0:0:0:0:
448,192,93254,1,0,0:0:0:0:
192,192,93362,1,0,0:0:0:0:
64,192,93471,1,0,0:0:0:0:
448,192,93471,1,0,0:0:0:0:
320,192,93579,1,0,0:0:0:0:
192,192,93687,1,0,0:0:0:0:
64,192,93687,1,0,0:0:0:0:
448,192,93796,1,0,0:0:0:0:
192,192,93904,1,0,0:0:0:0:
320,192,93904,1,0,0:0:0:0:
64,192,94012,1,0,0:0:0:0:
320,192,94121,1,0,0:0:0:0:
448,192,94121,1,0,0:0:0:0:
192,192,94229,1,0,0:0:0:0:
64,192,94337,1,0,0:0:0:0:
448,192,94337,1,0,0:0:0:0:
320,192,94445,1,0,0:0:0:0:
192,192,94554,1,0,0:0:0:0:
64,192,94554,1,0,0:0:0:0:
448,192,94662,1,0,0:0:0:0:
320,192,94770,1,0,0:0:0:0:
64,192,94770,1,0,0:0:0:0:
192,192,94824,1,0,0:0:0:0:
320,192,94879,1,0,0:0:0:0:
448,192,94879,1,0,0:0:0:0:
192,192,94987,1,0,0:0:0:0:
64,192,94987,1,0,0:0:0:0:
448,192,95095,1,0,0:0:0:0:
192,192,95204,1,0,0:0:0:0:
320,192,95204,1,0,0:0:0:0:
64,192,95312,1,0,0:0:0:0:
192,192,95420,1,0,0:0:0:0:
448,192,95420,1,0,0:0:0:0:
320,192,95528,1,0,0:0:0:0:
192,192,95637,1,0,0:0:0:0:
64,192,95637,1,0,0:0:0:0:
448,192,95745,1,0,0:0:0:0:
320,192,95853,1,0,0:0:0:0:
64,192,95853,1,0,0:0:0:0:
192,192,95962,1,0,0:0:0:0:
448,192,96070,1,0,0:0:0:0:
320,192,96070,1,0,0:0:0:0:
64,192,96178,1,0,0:0:0:0:
448,192,96287,1,0,0:0:0:0:
192,192,96287,1,0,0:0:0:0:
320,192,96395,1,0,0:0:0:0:
448,192,96503,1,0,0:0:0:0:
64,192,96503,1,0,0:0:0:0:
192,192,96611,1,0,0:0:0:0:
320,192,96720,1,0,0:0:0:0:
448,192,96720,1,0,0:0:0:0:
64,192,96828,1,0,0:0:0:0:
192,192,96936,1,0,0:0:0:0:
448,192,96936,1,0,0:0:0:0:
320,192,97045,1,0,0:0:0:0:
192,192,97153,1,0,0:0:0:0:
64,192,97153,1,0,0:0:0:0:
448,192,97261,1,0,0:0:0:0:
320,192,97370,1,0,0:0:0:0:
192,192,97370,1,0,0:0:0:0:
64,192,97478,1,0,0:0:0:0:
448,192,97586,1,0,0:0:0:0:
320,192,97640,1,0,0:0:0:0:
64,192,97695,1,0,0:0:0:0:
192,192,97749,1,0,0:0:0:0:
448,192,97803,1,0,0:0:0:0:
320,192,97857,1,0,0:0:0:0:
64,192,97911,1,0,0:0:0:0:
192,192,97965,1,0,0:0:0:0:
448,192,98019,1,0,0:0:0:0:
320,192,98074,1,0,0:0:0:0:
64,192,98128,1,0,0:0:0:0:
192,192,98182,1,0,0:0:0:0:
448,192,98236,1,0,0:0:0:0:
320,192,98290,1,0,0:0:0:0:
64,192,98344,1,0,0:0:0:0:
192,192,98398,1,0,0:0:0:0:
448,192,98453,128,0,99752:0:0:0:0:
320,192,98453,1,0,0:0:0:0:
64,192,99752,1,0,0:0:0:0:
192,192,99806,1,0,0:0:0:0:
448,192,99861,1,0,0:0:0:0:
320,192,99915,1,0,0:0:0:0:
64,192,99969,1,0,0:0:0:0:
192,192,100023,1,0,0:0:0:0:
448,192,100185,128,0,101269:0:0:0:0:
320,192,100185,1,0,0:0:0:0:
192,192,101269,1,0,0:0:0:0:
64,192,101323,1,0,0:0:0:0:
320,192,101377,1,0,0:0:0:0:
448,192,101431,1,0,0:0:0:0:
192,192,101485,1,0,0:0:0:0:
64,192,101539,1,0,0:0:0:0:
320,192,101593,1,0,0:0:0:0:
448,192,101648,1,0,0:0:0:0:
192,192,101702,1,0,0:0:0:0:
64,192,101756,1,0,0:0:0:0:
448,192,101918,128,0,102785:0:0:0:0:
320,192,101918,1,0,0:0:0:0:
64,192,102785,1,0,0:0:0:0:
192,192,102839,1,0,0:0:0:0:
320,192,102893,1,0,0:0:0:0:
448,192,102947,1,0,0:0:0:0:
64,192,103001,1,0,0:0:0:0:
192,192,103056,1,0,0:0:0:0:
320,192,103110,1,0,0:0:0:0:
448,192,103164,1,0,0:0:0:0:
64,192,103218,1,0,0:0:0:0:
192,192,103272,1,0,0:0:0:0:
320,192,103326,1,0,0:0:0:0:
448,192,103380,1,0,0:0:0:0:
64,192,103435,1,0,0:0:0:0:
192,192,103489,1,0,0:0:0:0:
320,192,103543,1,0,0:0:0:0:
448,192,103597,1,0,0:0:0:0:
64,192,103651,1,0,0:0:0:0:
192,192,103705,1,0,0:0:0:0:
448,192,103759,1,0,0:0:0:0:
320,192,103814,1,0,0:0:0:0:
64,192,103868,1,0,0:0:0:0:
192,192,103922,1,0,0:0:0:0:
448,192,103976,1,0,0:0:0:0:
320,192,104030,1,0,0:0:0:0:
64,192,104084,1,0,0:0:0:0:
192,192,104139,1,0,0:0:0:0:
448,192,104193,1,0,0:0:0:0:
320,192,104247,1,0,0:0:0:0:
192,192,104301,1,0,0:0:0:0:
64,192,104355,1,0,0:0:0:0:
448,192,104409,1,0,0:0:0:0:
320,192,104463,1,0,0:0:0:0:
192,192,104518,1,0,0:0:0:0:
64,192,104518,1,0,0:0:0:0:
