osu file format v14

[General]
AudioFilename: audio.mp3
AudioLeadIn: 0
PreviewTime: 76830
Countdown: 1
SampleSet: None
StackLeniency: 0.7
Mode: 1
LetterboxInBreaks: 0
WidescreenStoryboard: 1

[Editor]
DistanceSpacing: 2
BeatDivisor: 4
GridSize: 32
TimelineZoom: 3.400001

[Metadata]
Title:MG277
TitleUnicode:MG277
Artist:eicaTV vs kakone
ArtistUnicode:eicaTV vs kakone
Creator:SUPERGLB05
Version:SPEED UP ONI (nerfed)
Source:
Tags:
BeatmapID:2321829
BeatmapSetID:1049194

[Difficulty]
HPDrainRate:3
CircleSize:2
OverallDifficulty:8.7
ApproachRate:10
SliderMultiplier:1.4
SliderTickRate:1

[Events]
//Background and Video events
0,0,"stretched-1920-1080-84029.jpg",0,0
//Break Periods
//Storyboard Layer 0 (Background)
//Storyboard Layer 1 (Fail)
//Storyboard Layer 2 (Pass)
//Storyboard Layer 3 (Foreground)
//Storyboard Layer 4 (Overlay)
//Storyboard Sound Samples

[TimingPoints]
584.807432432995,216.606498194946,4,1,1,70,1,0
76830,-80,4,1,0,70,0,0
77696,-80,4,1,0,70,0,1
82895,-100,4,1,0,70,0,0
84628,-80,4,1,0,70,0,1
89826,-100,4,1,0,70,0,0
91559,-76.9230769230769,4,1,0,70,0,1
95025,-74.0740740740741,4,1,0,70,0,1
98166,-76.9230769230769,4,1,0,70,0,1
98220,-80,4,1,0,70,0,1
98274,-83.3333333333333,4,1,0,70,0,1
98328,-86.9565217391304,4,1,0,70,0,1
98382,-90.9090909090909,4,1,0,70,0,1
98436,-95.2380952380952,4,1,0,70,0,1
98490,-100,4,1,0,70,0,1
98545,-25,4,1,0,70,0,1
99357,-100,4,1,0,70,0,0
100223,-100,4,1,0,70,0,1
100277,-25,4,1,0,70,0,1
101090,-100,4,1,0,70,0,0
101956,-100,4,1,0,70,0,1
102010,-25,4,1,0,70,0,1
102823,-66.6666666666667,4,1,0,70,0,1
104555,-66.6666666666667,4,1,0,70,0,0
104655,-25,4,1,0,70,0,0

[HitObjects]
256,192,584,5,4,0:0:0:0:
256,192,693,1,4,0:0:0:0:
256,192,801,1,12,0:0:0:0:
256,192,909,1,12,0:0:0:0:
256,192,1018,1,4,0:0:0:0:
256,192,1126,1,12,0:0:0:0:
256,192,1234,1,8,0:0:0:0:
256,192,1288,1,0,0:0:0:0:
256,192,1342,1,0,0:0:0:0:
256,192,1397,1,0,0:0:0:0:
256,192,1451,1,8,0:0:0:0:
256,192,1559,1,0,0:0:0:0:
256,192,1667,1,8,0:0:0:0:
256,192,1776,1,0,0:0:0:0:
256,192,1884,1,8,0:0:0:0:
256,192,1992,1,8,0:0:0:0:
256,192,2101,1,0,0:0:0:0:
256,192,2209,1,8,0:0:0:0:
256,192,2425,1,0,0:0:0:0:
256,192,2534,1,8,0:0:0:0:
256,192,2642,1,8,0:0:0:0:
256,192,2750,1,8,0:0:0:0:
256,192,2805,1,8,0:0:0:0:
256,192,2859,1,8,0:0:0:0:
256,192,2913,1,8,0:0:0:0:
256,192,2967,1,0,0:0:0:0:
256,192,3021,1,0,0:0:0:0:
256,192,3075,1,8,0:0:0:0:
256,192,3129,1,8,0:0:0:0:
256,192,3184,1,0,0:0:0:0:
256,192,3292,1,8,0:0:0:0:
256,192,3400,1,0,0:0:0:0:
256,192,3509,1,0,0:0:0:0:
256,192,3617,1,8,0:0:0:0:
256,192,3725,1,8,0:0:0:0:
256,192,3834,1,0,0:0:0:0:
256,192,3942,1,8,0:0:0:0:
256,192,4050,1,4,0:0:0:0:
256,192,4158,1,12,0:0:0:0:
256,192,4267,1,12,0:0:0:0:
256,192,4375,1,12,0:0:0:0:
256,192,4483,1,0,0:0:0:0:
256,192,4537,1,8,0:0:0:0:
256,192,4592,1,0,0:0:0:0:
256,192,4646,1,8,0:0:0:0:
256,192,4700,1,0,0:0:0:0:
256,192,4754,1,8,0:0:0:0:
256,192,4808,1,0,0:0:0:0:
256,192,4862,1,8,0:0:0:0:
256,192,4916,1,0,0:0:0:0:
256,192,5024,1,0,0:0:0:0:
256,192,5132,1,8,0:0:0:0:
256,192,5241,1,0,0:0:0:0:
256,192,5349,1,8,0:0:0:0:
256,192,5457,1,8,0:0:0:0:
256,192,5566,1,0,0:0:0:0:
256,192,5674,1,8,0:0:0:0:
256,192,5891,1,0,0:0:0:0:
256,192,5999,1,8,0:0:0:0:
256,192,6108,1,0,0:0:0:0:
256,192,6216,1,8,0:0:0:0:
256,192,6270,1,0,0:0:0:0:
256,192,6324,1,8,0:0:0:0:
256,192,6379,1,8,0:0:0:0:
256,192,6433,1,0,0:0:0:0:
256,192,6487,1,0,0:0:0:0:
256,192,6541,1,8,0:0:0:0:
256,192,6595,1,8,0:0:0:0:
256,192,6649,1,0,0:0:0:0:
256,192,6758,1,8,0:0:0:0:
256,192,6866,1,0,0:0:0:0:
256,192,6974,1,0,0:0:0:0:
256,192,7083,1,8,0:0:0:0:
256,192,7191,1,8,0:0:0:0:
256,192,7299,1,0,0:0:0:0:
256,192,7407,1,8,0:0:0:0:
256,192,7516,1,4,0:0:0:0:
256,192,7624,1,12,0:0:0:0:
256,192,7732,1,4,0:0:0:0:
256,192,7841,1,12,0:0:0:0:
256,192,7949,1,0,0:0:0:0:
256,192,8003,1,8,0:0:0:0:
256,192,8057,1,8,0:0:0:0:
256,192,8111,1,8,0:0:0:0:
256,192,8166,1,0,0:0:0:0:
256,192,8220,1,8,0:0:0:0:
256,192,8274,1,8,0:0:0:0:
256,192,8328,1,8,0:0:0:0:
256,192,8382,1,4,0:0:0:0:
256,192,8490,1,0,0:0:0:0:
256,192,8599,1,8,0:0:0:0:
256,192,8815,1,8,0:0:0:0:
256,192,8924,1,0,0:0:0:0:
256,192,9032,1,0,0:0:0:0:
256,192,9140,1,8,0:0:0:0:
256,192,9194,1,8,0:0:0:0:
256,192,9249,1,0,0:0:0:0:
256,192,9465,1,8,0:0:0:0:
256,192,9573,1,8,0:0:0:0:
256,192,9682,1,0,0:0:0:0:
256,192,9736,1,0,0:0:0:0:
256,192,9790,1,0,0:0:0:0:
256,192,9898,1,8,0:0:0:0:
256,192,10115,1,0,0:0:0:0:
256,192,10223,1,0,0:0:0:0:
256,192,10332,1,8,0:0:0:0:
256,192,10548,1,0,0:0:0:0:
256,192,10657,1,8,0:0:0:0:
256,192,10765,1,8,0:0:0:0:
256,192,10981,1,8,0:0:0:0:
256,192,11090,1,8,0:0:0:0:
256,192,11198,1,0,0:0:0:0:
256,192,11306,1,0,0:0:0:0:
256,192,11415,1,8,0:0:0:0:
256,192,11469,1,0,0:0:0:0:
256,192,11523,1,8,0:0:0:0:
256,192,11577,1,0,0:0:0:0:
256,192,11631,1,8,0:0:0:0:
256,192,11685,1,8,0:0:0:0:
256,192,11740,1,0,0:0:0:0:
256,192,11794,1,0,0:0:0:0:
256,192,11848,1,8,0:0:0:0:
256,192,11956,1,0,0:0:0:0:
256,192,12010,1,8,0:0:0:0:
256,192,12064,1,0,0:0:0:0:
256,192,12173,1,8,0:0:0:0:
256,192,12281,1,0,0:0:0:0:
256,192,12389,1,0,0:0:0:0:
256,192,12498,1,8,0:0:0:0:
256,192,12714,1,0,0:0:0:0:
256,192,12931,1,8,0:0:0:0:
256,192,13039,1,0,0:0:0:0:
256,192,13147,1,0,0:0:0:0:
256,192,13256,1,8,0:0:0:0:
256,192,13364,1,0,0:0:0:0:
256,192,13418,1,0,0:0:0:0:
256,192,13472,1,8,0:0:0:0:
256,192,13581,1,0,0:0:0:0:
256,192,13689,1,0,0:0:0:0:
256,192,13797,1,8,0:0:0:0:
256,192,14014,1,0,0:0:0:0:
256,192,14122,1,0,0:0:0:0:
256,192,14231,1,8,0:0:0:0:
256,192,14339,1,8,0:0:0:0:
256,192,14447,1,0,0:0:0:0:
256,192,14555,1,8,0:0:0:0:
256,192,14664,1,0,0:0:0:0:
256,192,14772,1,8,0:0:0:0:
256,192,14880,1,0,0:0:0:0:
256,192,14934,1,8,0:0:0:0:
256,192,14989,1,0,0:0:0:0:
256,192,15043,1,8,0:0:0:0:
256,192,15097,1,0,0:0:0:0:
256,192,15151,1,8,0:0:0:0:
256,192,15205,1,8,0:0:0:0:
256,192,15259,1,8,0:0:0:0:
256,192,15314,1,4,0:0:0:0:
256,192,15530,1,8,0:0:0:0:
256,192,15747,1,0,0:0:0:0:
256,192,15801,1,0,0:0:0:0:
256,192,15855,1,0,0:0:0:0:
256,192,15963,1,8,0:0:0:0:
256,192,16072,1,0,0:0:0:0:
256,192,16180,1,0,0:0:0:0:
256,192,16288,1,0,0:0:0:0:
256,192,16397,1,8,0:0:0:0:
256,192,16613,1,0,0:0:0:0:
256,192,16667,1,0,0:0:0:0:
256,192,16721,1,0,0:0:0:0:
256,192,16776,1,0,0:0:0:0:
256,192,16830,1,0,0:0:0:0:
256,192,16938,1,8,0:0:0:0:
256,192,16992,1,8,0:0:0:0:
256,192,17046,1,0,0:0:0:0:
256,192,17155,1,0,0:0:0:0:
256,192,17263,1,8,0:0:0:0:
256,192,17480,1,0,0:0:0:0:
256,192,17534,1,0,0:0:0:0:
256,192,17588,1,8,0:0:0:0:
256,192,17696,1,8,0:0:0:0:
256,192,17750,1,0,0:0:0:0:
256,192,17805,1,8,0:0:0:0:
256,192,17913,1,0,0:0:0:0:
256,192,18021,1,0,0:0:0:0:
256,192,18129,1,0,0:0:0:0:
256,192,18238,1,8,0:0:0:0:
256,192,18346,1,0,0:0:0:0:
256,192,18400,1,8,0:0:0:0:
256,192,18454,1,8,0:0:0:0:
256,192,18508,1,8,0:0:0:0:
256,192,18563,1,0,0:0:0:0:
256,192,18617,1,8,0:0:0:0:
256,192,18671,1,8,0:0:0:0:
256,192,18725,1,8,0:0:0:0:
256,192,18779,1,0,0:0:0:0:
256,192,18833,1,0,0:0:0:0:
256,192,18888,1,8,0:0:0:0:
256,192,18996,1,0,0:0:0:0:
256,192,19104,1,8,0:0:0:0:
256,192,19158,1,0,0:0:0:0:
256,192,19212,1,0,0:0:0:0:
256,192,19321,1,0,0:0:0:0:
256,192,19429,1,8,0:0:0:0:
256,192,19646,1,0,0:0:0:0:
256,192,19754,1,0,0:0:0:0:
256,192,19862,1,8,0:0:0:0:
256,192,19916,1,8,0:0:0:0:
256,192,19971,1,0,0:0:0:0:
256,192,20079,1,0,0:0:0:0:
256,192,20133,1,0,0:0:0:0:
256,192,20187,1,8,0:0:0:0:
256,192,20241,1,0,0:0:0:0:
256,192,20295,1,0,0:0:0:0:
256,192,20350,1,0,0:0:0:0:
256,192,20404,1,8,0:0:0:0:
256,192,20458,1,8,0:0:0:0:
256,192,20512,1,0,0:0:0:0:
256,192,20729,1,8,0:0:0:0:
256,192,20837,1,8,0:0:0:0:
256,192,20945,1,0,0:0:0:0:
256,192,20999,1,0,0:0:0:0:
256,192,21054,1,8,0:0:0:0:
256,192,21162,1,0,0:0:0:0:
256,192,21270,1,8,0:0:0:0:
256,192,21379,1,8,0:0:0:0:
256,192,21487,1,0,0:0:0:0:
256,192,21595,1,8,0:0:0:0:
256,192,21703,1,8,0:0:0:0:
256,192,21812,1,8,0:0:0:0:
256,192,21866,1,8,0:0:0:0:
256,192,21920,1,0,0:0:0:0:
256,192,21974,1,0,0:0:0:0:
256,192,22028,1,8,0:0:0:0:
256,192,22083,1,8,0:0:0:0:
256,192,22137,1,0,0:0:0:0:
256,192,22191,1,8,0:0:0:0:
256,192,22245,1,0,0:0:0:0:
256,192,22353,1,0,0:0:0:0:
256,192,22462,1,8,0:0:0:0:
256,192,22678,1,0,0:0:0:0:
256,192,22732,1,0,0:0:0:0:
256,192,22786,1,8,0:0:0:0:
256,192,22895,1,0,0:0:0:0:
256,192,23003,1,8,0:0:0:0:
256,192,23111,1,8,0:0:0:0:
256,192,23166,1,8,0:0:0:0:
256,192,23220,1,0,0:0:0:0:
256,192,23328,1,0,0:0:0:0:
256,192,23436,1,8,0:0:0:0:
256,192,23545,1,0,0:0:0:0:
256,192,23653,1,8,0:0:0:0:
256,192,23707,1,0,0:0:0:0:
256,192,23761,1,8,0:0:0:0:
256,192,23815,1,0,0:0:0:0:
256,192,23870,1,8,0:0:0:0:
256,192,23978,1,0,0:0:0:0:
256,192,24086,1,8,0:0:0:0:
256,192,24194,1,0,0:0:0:0:
256,192,24303,1,0,0:0:0:0:
256,192,24357,1,0,0:0:0:0:
256,192,24411,1,8,0:0:0:0:
256,192,24519,1,8,0:0:0:0:
256,192,24628,1,0,0:0:0:0:
256,192,24736,1,8,0:0:0:0:
256,192,24844,1,0,0:0:0:0:
256,192,24953,1,8,0:0:0:0:
256,192,25061,1,8,0:0:0:0:
256,192,25169,1,0,0:0:0:0:
256,192,25277,1,8,0:0:0:0:
256,192,25332,1,8,0:0:0:0:
256,192,25386,1,8,0:0:0:0:
256,192,25440,1,8,0:0:0:0:
256,192,25494,1,0,0:0:0:0:
256,192,25548,1,0,0:0:0:0:
256,192,25602,1,0,0:0:0:0:
256,192,25657,1,0,0:0:0:0:
256,192,25711,1,8,0:0:0:0:
256,192,25819,1,0,0:0:0:0:
256,192,25927,1,0,0:0:0:0:
256,192,26036,1,0,0:0:0:0:
256,192,26090,1,0,0:0:0:0:
256,192,26144,1,8,0:0:0:0:
256,192,26252,1,0,0:0:0:0:
256,192,26360,1,8,0:0:0:0:
256,192,26415,1,0,0:0:0:0:
256,192,26469,1,0,0:0:0:0:
256,192,26523,1,8,0:0:0:0:
256,192,26577,1,0,0:0:0:0:
256,192,26685,1,0,0:0:0:0:
256,192,26794,1,8,0:0:0:0:
256,192,27010,1,0,0:0:0:0:
256,192,27119,1,0,0:0:0:0:
256,192,27227,1,8,0:0:0:0:
256,192,27335,1,0,0:0:0:0:
256,192,27389,1,8,0:0:0:0:
256,192,27444,1,0,0:0:0:0:
256,192,27552,1,0,0:0:0:0:
256,192,27660,1,8,0:0:0:0:
256,192,27877,1,0,0:0:0:0:
256,192,27985,1,0,0:0:0:0:
256,192,28093,1,0,0:0:0:0:
256,192,28202,1,8,0:0:0:0:
256,192,28310,1,12,0:0:0:0:
256,192,28418,1,12,0:0:0:0:
256,192,28527,1,12,0:0:0:0:
256,192,28635,1,12,0:0:0:0:
256,192,28743,1,0,0:0:0:0:
256,192,28797,1,0,0:0:0:0:
256,192,28851,1,8,0:0:0:0:
256,192,28906,1,8,0:0:0:0:
256,192,28960,1,0,0:0:0:0:
256,192,29014,1,0,0:0:0:0:
256,192,29068,1,8,0:0:0:0:
256,192,29122,1,8,0:0:0:0:
256,192,29176,1,4,0:0:0:0:
256,192,29285,1,0,0:0:0:0:
256,192,29393,1,8,0:0:0:0:
256,192,29501,1,0,0:0:0:0:
256,192,29610,1,8,0:0:0:0:
256,192,29718,1,0,0:0:0:0:
256,192,29826,1,8,0:0:0:0:
256,192,29934,1,8,0:0:0:0:
256,192,30043,1,0,0:0:0:0:
256,192,30152,1,0,0:0:0:0:
256,192,30260,1,8,0:0:0:0:
256,192,30368,1,0,0:0:0:0:
256,192,30477,1,8,0:0:0:0:
256,192,30585,1,0,0:0:0:0:
256,192,30693,1,8,0:0:0:0:
256,192,30801,1,8,0:0:0:0:
256,192,30909,1,0,0:0:0:0:
256,192,31018,1,0,0:0:0:0:
256,192,31126,1,8,0:0:0:0:
256,192,31234,1,0,0:0:0:0:
256,192,31343,1,8,0:0:0:0:
256,192,31451,1,0,0:0:0:0:
256,192,31559,1,8,0:0:0:0:
256,192,31667,1,8,0:0:0:0:
256,192,31776,1,0,0:0:0:0:
256,192,31885,1,0,0:0:0:0:
256,192,31993,1,8,0:0:0:0:
256,192,32101,1,0,0:0:0:0:
256,192,32210,1,8,0:0:0:0:
256,192,32318,1,0,0:0:0:0:
256,192,32426,1,8,0:0:0:0:
256,192,32534,1,8,0:0:0:0:
256,192,32642,1,0,0:0:0:0:
256,192,32751,1,0,0:0:0:0:
256,192,32859,1,8,0:0:0:0:
256,192,32967,1,0,0:0:0:0:
256,192,33076,1,8,0:0:0:0:
256,192,33184,1,8,0:0:0:0:
256,192,33292,1,0,0:0:0:0:
256,192,33400,1,8,0:0:0:0:
256,192,33508,1,0,0:0:0:0:
256,192,33617,1,0,0:0:0:0:
256,192,33725,1,8,0:0:0:0:
256,192,33833,1,0,0:0:0:0:
256,192,33942,1,8,0:0:0:0:
256,192,34050,1,8,0:0:0:0:
256,192,34158,1,0,0:0:0:0:
256,192,34266,1,8,0:0:0:0:
256,192,34375,1,0,0:0:0:0:
256,192,34484,1,0,0:0:0:0:
256,192,34592,1,8,0:0:0:0:
256,192,34700,1,0,0:0:0:0:
256,192,34809,1,8,0:0:0:0:
256,192,34917,1,8,0:0:0:0:
256,192,35025,1,0,0:0:0:0:
256,192,35133,1,8,0:0:0:0:
256,192,35241,1,0,0:0:0:0:
256,192,35350,1,0,0:0:0:0:
256,192,35458,1,8,0:0:0:0:
256,192,35566,1,0,0:0:0:0:
256,192,35675,1,8,0:0:0:0:
256,192,35783,1,0,0:0:0:0:
256,192,35891,1,0,0:0:0:0:
256,192,35999,1,8,0:0:0:0:
256,192,36108,1,0,0:0:0:0:
256,192,36216,1,0,0:0:0:0:
256,192,36324,1,8,0:0:0:0:
256,192,36433,1,0,0:0:0:0:
256,192,36541,1,0,0:0:0:0:
256,192,36595,1,0,0:0:0:0:
256,192,36649,1,0,0:0:0:0:
256,192,36758,1,8,0:0:0:0:
256,192,36812,1,8,0:0:0:0:
256,192,36866,1,8,0:0:0:0:
256,192,36974,1,8,0:0:0:0:
256,192,37028,1,0,0:0:0:0:
256,192,37083,1,0,0:0:0:0:
256,192,37191,1,8,0:0:0:0:
256,192,37245,1,8,0:0:0:0:
256,192,37299,1,0,0:0:0:0:
256,192,37407,1,8,0:0:0:0:
256,192,37516,1,0,0:0:0:0:
256,192,37624,1,0,0:0:0:0:
256,192,37732,1,8,0:0:0:0:
256,192,37841,1,0,0:0:0:0:
256,192,37949,1,8,0:0:0:0:
256,192,38057,1,8,0:0:0:0:
256,192,38166,1,8,0:0:0:0:
256,192,38274,1,8,0:0:0:0:
256,192,38328,1,0,0:0:0:0:
256,192,38382,1,8,0:0:0:0:
256,192,38490,1,8,0:0:0:0:
256,192,38545,1,8,0:0:0:0:
256,192,38599,1,0,0:0:0:0:
256,192,38653,1,0,0:0:0:0:
256,192,38707,1,8,0:0:0:0:
256,192,38815,1,0,0:0:0:0:
256,192,38924,1,8,0:0:0:0:
256,192,39032,1,0,0:0:0:0:
256,192,39086,1,0,0:0:0:0:
256,192,39140,1,8,0:0:0:0:
256,192,39249,1,8,0:0:0:0:
256,192,39357,1,0,0:0:0:0:
256,192,39411,1,8,0:0:0:0:
256,192,39465,1,8,0:0:0:0:
256,192,39573,1,0,0:0:0:0:
256,192,39682,1,8,0:0:0:0:
256,192,39790,1,8,0:0:0:0:
256,192,39844,1,0,0:0:0:0:
256,192,39898,1,8,0:0:0:0:
256,192,40007,1,8,0:0:0:0:
256,192,40061,1,0,0:0:0:0:
256,192,40115,1,0,0:0:0:0:
256,192,40169,1,0,0:0:0:0:
256,192,40223,1,8,0:0:0:0:
256,192,40277,1,0,0:0:0:0:
256,192,40332,1,8,0:0:0:0:
256,192,40440,1,8,0:0:0:0:
256,192,40494,1,0,0:0:0:0:
256,192,40548,1,8,0:0:0:0:
256,192,40602,1,0,0:0:0:0:
256,192,40657,1,8,0:0:0:0:
256,192,40765,1,8,0:0:0:0:
256,192,40819,1,8,0:0:0:0:
256,192,40873,1,0,0:0:0:0:
256,192,40927,1,0,0:0:0:0:
256,192,40981,1,8,0:0:0:0:
256,192,41090,1,8,0:0:0:0:
256,192,41144,1,8,0:0:0:0:
256,192,41198,1,0,0:0:0:0:
256,192,41306,1,0,0:0:0:0:
256,192,41360,1,0,0:0:0:0:
256,192,41415,1,8,0:0:0:0:
256,192,41523,1,0,0:0:0:0:
256,192,41631,1,8,0:0:0:0:
256,192,41740,1,8,0:0:0:0:
256,192,41794,1,0,0:0:0:0:
256,192,41848,1,8,0:0:0:0:
256,192,41902,1,8,0:0:0:0:
256,192,41956,1,0,0:0:0:0:
256,192,42064,1,8,0:0:0:0:
256,192,42173,1,0,0:0:0:0:
256,192,42227,1,0,0:0:0:0:
256,192,42281,1,8,0:0:0:0:
256,192,42389,1,8,0:0:0:0:
256,192,42498,1,8,0:0:0:0:
256,192,42552,1,0,0:0:0:0:
256,192,42606,1,8,0:0:0:0:
256,192,42714,1,0,0:0:0:0:
256,192,42823,1,8,0:0:0:0:
256,192,43039,1,8,0:0:0:0:
256,192,43148,1,8,0:0:0:0:
256,192,43256,1,0,0:0:0:0:
256,192,43364,1,8,0:0:0:0:
256,192,43418,1,0,0:0:0:0:
256,192,43473,1,8,0:0:0:0:
256,192,43581,1,0,0:0:0:0:
256,192,43689,1,8,0:0:0:0:
256,192,43743,1,8,0:0:0:0:
256,192,43797,1,0,0:0:0:0:
256,192,43906,1,8,0:0:0:0:
256,192,44014,1,0,0:0:0:0:
256,192,44068,1,0,0:0:0:0:
256,192,44122,1,8,0:0:0:0:
256,192,44231,1,0,0:0:0:0:
256,192,44339,1,8,0:0:0:0:
256,192,44393,1,8,0:0:0:0:
256,192,44447,1,0,0:0:0:0:
256,192,44501,1,0,0:0:0:0:
256,192,44555,1,8,0:0:0:0:
256,192,44664,1,0,0:0:0:0:
256,192,44772,1,8,0:0:0:0:
256,192,44826,1,8,0:0:0:0:
256,192,44880,1,0,0:0:0:0:
256,192,44989,1,8,0:0:0:0:
256,192,45043,1,8,0:0:0:0:
256,192,45097,1,0,0:0:0:0:
256,192,45205,1,8,0:0:0:0:
256,192,45314,1,8,0:0:0:0:
256,192,45422,1,0,0:0:0:0:
256,192,45638,1,8,0:0:0:0:
256,192,45693,1,0,0:0:0:0:
256,192,45747,1,8,0:0:0:0:
256,192,45801,1,0,0:0:0:0:
256,192,45855,1,8,0:0:0:0:
256,192,46072,1,0,0:0:0:0:
256,192,46126,1,0,0:0:0:0:
256,192,46180,1,8,0:0:0:0:
256,192,46234,1,0,0:0:0:0:
256,192,46288,1,8,0:0:0:0:
256,192,46342,1,0,0:0:0:0:
256,192,46397,1,8,0:0:0:0:
256,192,46451,1,0,0:0:0:0:
256,192,46505,1,8,0:0:0:0:
256,192,46721,1,0,0:0:0:0:
256,192,46830,1,8,0:0:0:0:
256,192,46938,1,8,0:0:0:0:
256,192,47155,1,0,0:0:0:0:
256,192,47263,1,8,0:0:0:0:
256,192,47371,1,0,0:0:0:0:
256,192,47480,1,8,0:0:0:0:
256,192,47588,1,0,0:0:0:0:
256,192,47642,1,0,0:0:0:0:
256,192,47696,1,8,0:0:0:0:
256,192,47750,1,0,0:0:0:0:
256,192,47805,1,0,0:0:0:0:
256,192,47913,1,0,0:0:0:0:
256,192,48021,1,8,0:0:0:0:
256,192,48129,1,8,0:0:0:0:
256,192,48238,1,8,0:0:0:0:
256,192,48346,1,0,0:0:0:0:
256,192,48454,1,8,0:0:0:0:
256,192,48508,1,8,0:0:0:0:
256,192,48563,1,0,0:0:0:0:
256,192,48617,1,0,0:0:0:0:
256,192,48671,1,8,0:0:0:0:
256,192,48779,1,0,0:0:0:0:
256,192,48888,1,8,0:0:0:0:
256,192,48996,1,8,0:0:0:0:
256,192,49104,1,8,0:0:0:0:
256,192,49158,1,0,0:0:0:0:
256,192,49212,1,0,0:0:0:0:
256,192,49267,1,0,0:0:0:0:
256,192,49321,1,12,0:0:0:0:
256,192,49429,1,12,0:0:0:0:
256,192,49537,1,4,0:0:0:0:
256,192,49646,1,4,0:0:0:0:
256,192,49754,1,12,0:0:0:0:
256,192,49971,1,8,0:0:0:0:
256,192,50187,1,0,0:0:0:0:
256,192,50404,1,8,0:0:0:0:
256,192,50620,1,0,0:0:0:0:
256,192,50837,1,8,0:0:0:0:
256,192,51053,1,0,0:0:0:0:
256,192,51270,1,8,0:0:0:0:
256,192,51486,1,0,0:0:0:0:
256,192,51703,1,8,0:0:0:0:
256,192,51919,1,0,0:0:0:0:
256,192,52136,1,8,0:0:0:0:
256,192,52352,1,0,0:0:0:0:
256,192,52570,1,8,0:0:0:0:
256,192,52786,1,0,0:0:0:0:
256,192,53003,1,8,0:0:0:0:
256,192,53219,1,0,0:0:0:0:
256,192,53436,1,8,0:0:0:0:
256,192,53652,1,8,0:0:0:0:
256,192,53869,1,0,0:0:0:0:
256,192,54085,1,0,0:0:0:0:
256,192,54303,1,8,0:0:0:0:
256,192,54519,1,8,0:0:0:0:
256,192,54736,1,0,0:0:0:0:
256,192,54952,1,0,0:0:0:0:
256,192,55169,1,8,0:0:0:0:
256,192,55385,1,8,0:0:0:0:
256,192,55602,1,0,0:0:0:0:
256,192,55818,1,0,0:0:0:0:
256,192,56036,1,4,0:0:0:0:
256,192,56144,1,4,0:0:0:0:
256,192,56252,1,4,0:0:0:0:
256,192,56360,1,4,0:0:0:0:
256,192,56469,1,12,0:0:0:0:
256,192,56577,1,12,0:0:0:0:
256,192,56685,1,0,0:0:0:0:
256,192,56740,1,0,0:0:0:0:
256,192,56794,1,0,0:0:0:0:
256,192,56848,1,0,0:0:0:0:
256,192,56902,1,8,0:0:0:0:
256,192,57119,1,0,0:0:0:0:
256,192,57227,1,0,0:0:0:0:
256,192,57335,1,8,0:0:0:0:
256,192,57444,1,0,0:0:0:0:
256,192,57552,1,0,0:0:0:0:
256,192,57768,1,8,0:0:0:0:
256,192,57985,1,0,0:0:0:0:
256,192,58093,1,0,0:0:0:0:
256,192,58202,1,8,0:0:0:0:
256,192,58310,1,8,0:0:0:0:
256,192,58418,1,0,0:0:0:0:
256,192,58635,1,8,0:0:0:0:
256,192,58852,1,0,0:0:0:0:
256,192,58960,1,8,0:0:0:0:
256,192,59069,1,8,0:0:0:0:
256,192,59177,1,8,0:0:0:0:
256,192,59285,1,0,0:0:0:0:
256,192,59501,1,8,0:0:0:0:
256,192,59718,1,8,0:0:0:0:
256,192,59826,1,8,0:0:0:0:
256,192,59935,1,8,0:0:0:0:
256,192,60043,1,8,0:0:0:0:
256,192,60151,1,0,0:0:0:0:
256,192,60368,1,8,0:0:0:0:
256,192,60585,1,0,0:0:0:0:
256,192,60693,1,0,0:0:0:0:
256,192,60801,1,8,0:0:0:0:
256,192,60910,1,0,0:0:0:0:
256,192,61018,1,0,0:0:0:0:
256,192,61234,1,8,0:0:0:0:
256,192,61451,1,0,0:0:0:0:
256,192,61559,1,0,0:0:0:0:
256,192,61668,1,8,0:0:0:0:
256,192,61776,1,8,0:0:0:0:
256,192,61884,1,0,0:0:0:0:
256,192,62101,1,8,0:0:0:0:
256,192,62318,1,0,0:0:0:0:
256,192,62426,1,8,0:0:0:0:
256,192,62535,1,8,0:0:0:0:
256,192,62643,1,8,0:0:0:0:
256,192,62751,1,0,0:0:0:0:
256,192,62967,1,4,0:0:0:0:
256,192,63076,1,4,0:0:0:0:
256,192,63184,1,12,0:0:0:0:
256,192,63292,1,12,0:0:0:0:
256,192,63401,1,4,0:0:0:0:
256,192,63509,1,12,0:0:0:0:
256,192,63617,1,8,0:0:0:0:
256,192,63671,1,0,0:0:0:0:
256,192,63725,1,0,0:0:0:0:
256,192,63780,1,0,0:0:0:0:
256,192,63834,1,8,0:0:0:0:
256,192,64050,1,8,0:0:0:0:
256,192,64267,1,0,0:0:0:0:
256,192,64375,1,8,0:0:0:0:
256,192,64592,1,8,0:0:0:0:
256,192,64808,1,0,0:0:0:0:
256,192,65025,1,0,0:0:0:0:
256,192,65241,1,0,0:0:0:0:
256,192,65350,1,8,0:0:0:0:
256,192,65458,1,8,0:0:0:0:
256,192,65566,1,8,0:0:0:0:
256,192,65675,1,0,0:0:0:0:
256,192,65783,1,8,0:0:0:0:
256,192,65999,1,8,0:0:0:0:
256,192,66216,1,0,0:0:0:0:
256,192,66324,1,8,0:0:0:0:
256,192,66541,1,8,0:0:0:0:
256,192,66649,1,0,0:0:0:0:
256,192,66758,1,8,0:0:0:0:
256,192,66866,1,8,0:0:0:0:
256,192,66974,1,8,0:0:0:0:
256,192,67083,1,0,0:0:0:0:
256,192,67191,1,0,0:0:0:0:
256,192,67299,1,8,0:0:0:0:
256,192,67516,1,0,0:0:0:0:
256,192,67732,1,0,0:0:0:0:
256,192,67841,1,8,0:0:0:0:
256,192,68057,1,8,0:0:0:0:
256,192,68274,1,8,0:0:0:0:
256,192,68382,1,0,0:0:0:0:
256,192,68599,1,0,0:0:0:0:
256,192,68815,1,8,0:0:0:0:
256,192,69032,1,0,0:0:0:0:
256,192,69249,1,8,0:0:0:0:
256,192,69465,1,0,0:0:0:0:
256,192,69573,1,8,0:0:0:0:
256,192,69790,1,8,0:0:0:0:
256,192,70007,1,0,0:0:0:0:
256,192,70115,1,8,0:0:0:0:
256,192,70223,1,8,0:0:0:0:
256,192,70332,1,0,0:0:0:0:
256,192,70404,1,8,0:0:0:0:
256,192,70476,1,8,0:0:0:0:
256,192,70548,1,0,0:0:0:0:
256,192,70620,1,8,0:0:0:0:
256,192,70693,1,0,0:0:0:0:
256,192,70765,1,12,0:0:0:0:
256,192,70981,1,8,0:0:0:0:
256,192,71198,1,0,0:0:0:0:
256,192,71306,1,8,0:0:0:0:
256,192,71523,1,8,0:0:0:0:
256,192,71631,1,0,0:0:0:0:
256,192,71740,1,8,0:0:0:0:
256,192,71956,1,8,0:0:0:0:
256,192,72173,1,0,0:0:0:0:
256,192,72281,1,8,0:0:0:0:
256,192,72389,1,8,0:0:0:0:
256,192,72498,1,12,0:0:0:0:
256,192,72714,1,8,0:0:0:0:
256,192,72931,1,0,0:0:0:0:
256,192,73039,1,8,0:0:0:0:
256,192,73256,1,8,0:0:0:0:
256,192,73364,1,0,0:0:0:0:
256,192,73473,1,8,0:0:0:0:
256,192,73689,1,8,0:0:0:0:
256,192,73906,1,0,0:0:0:0:
256,192,74014,1,8,0:0:0:0:
256,192,74122,1,8,0:0:0:0:
256,192,74231,1,8,0:0:0:0:
256,192,74447,1,8,0:0:0:0:
256,192,74664,1,0,0:0:0:0:
256,192,74772,1,8,0:0:0:0:
256,192,74989,1,8,0:0:0:0:
256,192,75097,1,8,0:0:0:0:
256,192,75313,1,8,0:0:0:0:
256,192,75530,1,0,0:0:0:0:
256,192,75638,1,8,0:0:0:0:
256,192,75855,1,8,0:0:0:0:
256,192,75963,1,0,0:0:0:0:
256,192,76072,1,0,0:0:0:0:
256,192,76180,1,8,0:0:0:0:
256,192,76288,1,0,0:0:0:0:
256,192,76397,1,8,0:0:0:0:
256,192,76505,1,8,0:0:0:0:
256,192,76613,1,0,0:0:0:0:
256,192,76721,1,8,0:0:0:0:
256,192,76830,1,0,0:0:0:0:
256,192,76902,1,8,0:0:0:0:
256,192,76974,1,8,0:0:0:0:
256,192,77046,1,0,0:0:0:0:
256,192,77119,1,8,0:0:0:0:
256,192,77191,1,8,0:0:0:0:
256,192,77263,1,0,0:0:0:0:
256,192,77335,1,8,0:0:0:0:
256,192,77407,1,8,0:0:0:0:
256,192,77480,1,0,0:0:0:0:
256,192,77552,1,8,0:0:0:0:
256,192,77624,1,0,0:0:0:0:
256,192,77696,1,12,0:0:0:0:
256,192,77805,1,0,0:0:0:0:
256,192,77859,1,0,0:0:0:0:
256,192,77913,1,8,0:0:0:0:
256,192,78021,1,0,0:0:0:0:
256,192,78129,1,8,0:0:0:0:
256,192,78184,1,0,0:0:0:0:
256,192,78238,1,8,0:0:0:0:
256,192,78346,1,0,0:0:0:0:
256,192,78454,1,8,0:0:0:0:
256,192,78508,1,8,0:0:0:0:
256,192,78563,1,0,0:0:0:0:
256,192,78671,1,8,0:0:0:0:
256,192,78725,1,8,0:0:0:0:
256,192,78779,1,0,0:0:0:0:
256,192,78888,1,8,0:0:0:0:
256,192,78996,1,0,0:0:0:0:
256,192,79050,1,0,0:0:0:0:
256,192,79104,1,0,0:0:0:0:
256,192,79158,1,0,0:0:0:0:
256,192,79212,1,8,0:0:0:0:
256,192,79267,1,8,0:0:0:0:
256,192,79321,1,0,0:0:0:0:
256,192,79375,1,0,0:0:0:0:
256,192,79429,1,8,0:0:0:0:
256,192,79537,1,0,0:0:0:0:
256,192,79646,1,8,0:0:0:0:
256,192,79700,1,0,0:0:0:0:
256,192,79754,1,0,0:0:0:0:
256,192,79862,1,8,0:0:0:0:
256,192,79916,1,0,0:0:0:0:
256,192,79971,1,0,0:0:0:0:
256,192,80079,1,8,0:0:0:0:
256,192,80133,1,0,0:0:0:0:
256,192,80187,1,8,0:0:0:0:
256,192,80295,1,0,0:0:0:0:
256,192,80404,1,8,0:0:0:0:
256,192,80458,1,0,0:0:0:0:
256,192,80512,1,8,0:0:0:0:
256,192,80566,1,0,0:0:0:0:
256,192,80620,1,8,0:0:0:0:
256,192,80729,1,8,0:0:0:0:
256,192,80783,1,8,0:0:0:0:
256,192,80837,1,0,0:0:0:0:
256,192,80891,1,0,0:0:0:0:
256,192,80945,1,8,0:0:0:0:
256,192,80999,1,0,0:0:0:0:
256,192,81054,1,8,0:0:0:0:
256,192,81108,1,0,0:0:0:0:
256,192,81162,1,8,0:0:0:0:
256,192,81270,1,0,0:0:0:0:
256,192,81324,1,0,0:0:0:0:
256,192,81379,1,8,0:0:0:0:
256,192,81487,1,0,0:0:0:0:
256,192,81595,1,0,0:0:0:0:
256,192,81649,1,8,0:0:0:0:
256,192,81703,1,8,0:0:0:0:
256,192,81758,1,0,0:0:0:0:
256,192,81812,1,8,0:0:0:0:
256,192,81866,1,0,0:0:0:0:
256,192,81920,1,8,0:0:0:0:
256,192,81974,1,8,0:0:0:0:
256,192,82028,1,0,0:0:0:0:
256,192,82137,1,8,0:0:0:0:
256,192,82191,1,0,0:0:0:0:
256,192,82245,1,8,0:0:0:0:
256,192,82353,1,0,0:0:0:0:
256,192,82462,1,8,0:0:0:0:
256,192,82516,1,0,0:0:0:0:
256,192,82570,1,0,0:0:0:0:
256,192,82678,1,8,0:0:0:0:
256,192,82895,1,8,0:0:0:0:
256,192,83111,1,0,0:0:0:0:
256,192,83327,1,0,0:0:0:0:
256,192,83436,1,8,0:0:0:0:
256,192,83653,1,8,0:0:0:0:
256,192,83870,1,8,0:0:0:0:
256,192,83978,1,0,0:0:0:0:
256,192,84086,1,8,0:0:0:0:
256,192,84194,1,0,0:0:0:0:
256,192,84267,1,8,0:0:0:0:
256,192,84339,1,8,0:0:0:0:
256,192,84411,1,0,0:0:0:0:
256,192,84483,1,8,0:0:0:0:
256,192,84555,1,8,0:0:0:0:
256,192,84628,1,4,0:0:0:0:
256,192,84736,1,0,0:0:0:0:
256,192,84790,1,0,0:0:0:0:
256,192,84844,1,8,0:0:0:0:
256,192,84953,1,0,0:0:0:0:
256,192,85061,1,8,0:0:0:0:
256,192,85115,1,0,0:0:0:0:
256,192,85169,1,8,0:0:0:0:
256,192,85223,1,8,0:0:0:0:
256,192,85277,1,0,0:0:0:0:
256,192,85332,1,0,0:0:0:0:
256,192,85386,1,8,0:0:0:0:
256,192,85494,1,0,0:0:0:0:
256,192,85548,1,0,0:0:0:0:
256,192,85602,1,8,0:0:0:0:
256,192,85711,1,0,0:0:0:0:
256,192,85819,1,8,0:0:0:0:
256,192,85927,1,0,0:0:0:0:
256,192,85981,1,0,0:0:0:0:
256,192,86036,1,8,0:0:0:0:
256,192,86090,1,0,0:0:0:0:
256,192,86144,1,8,0:0:0:0:
256,192,86198,1,8,0:0:0:0:
256,192,86252,1,0,0:0:0:0:
256,192,86306,1,0,0:0:0:0:
256,192,86360,1,8,0:0:0:0:
256,192,86469,1,0,0:0:0:0:
256,192,86523,1,0,0:0:0:0:
256,192,86577,1,8,0:0:0:0:
256,192,86685,1,0,0:0:0:0:
256,192,86794,1,8,0:0:0:0:
256,192,86849,1,0,0:0:0:0:
256,192,86903,1,0,0:0:0:0:
256,192,86956,1,0,0:0:0:0:
256,192,87011,1,8,0:0:0:0:
256,192,87065,1,0,0:0:0:0:
256,192,87119,1,8,0:0:0:0:
256,192,87173,1,0,0:0:0:0:
256,192,87228,1,0,0:0:0:0:
256,192,87281,1,0,0:0:0:0:
256,192,87335,1,8,0:0:0:0:
256,192,87444,1,8,0:0:0:0:
256,192,87498,1,8,0:0:0:0:
256,192,87552,1,0,0:0:0:0:
256,192,87606,1,0,0:0:0:0:
256,192,87660,1,8,0:0:0:0:
256,192,87714,1,0,0:0:0:0:
256,192,87768,1,8,0:0:0:0:
256,192,87823,1,0,0:0:0:0:
256,192,87877,1,8,0:0:0:0:
256,192,87931,1,8,0:0:0:0:
256,192,87985,1,0,0:0:0:0:
256,192,88039,1,0,0:0:0:0:
256,192,88093,1,8,0:0:0:0:
256,192,88202,1,0,0:0:0:0:
256,192,88256,1,0,0:0:0:0:
256,192,88310,1,8,0:0:0:0:
256,192,88418,1,0,0:0:0:0:
256,192,88527,1,0,0:0:0:0:
256,192,88581,1,0,0:0:0:0:
256,192,88635,1,8,0:0:0:0:
256,192,88689,1,0,0:0:0:0:
256,192,88743,1,0,0:0:0:0:
256,192,88797,1,0,0:0:0:0:
256,192,88851,1,8,0:0:0:0:
256,192,88906,1,0,0:0:0:0:
256,192,88960,1,0,0:0:0:0:
256,192,89068,1,8,0:0:0:0:
256,192,89122,1,0,0:0:0:0:
256,192,89176,1,8,0:0:0:0:
256,192,89285,1,0,0:0:0:0:
256,192,89393,1,8,0:0:0:0:
256,192,89447,1,0,0:0:0:0:
256,192,89501,1,0,0:0:0:0:
256,192,89555,1,0,0:0:0:0:
256,192,89610,1,8,0:0:0:0:
256,192,89664,1,8,0:0:0:0:
256,192,89718,1,0,0:0:0:0:
256,192,89826,1,8,0:0:0:0:
256,192,90042,1,0,0:0:0:0:
256,192,90258,1,0,0:0:0:0:
256,192,90367,1,8,0:0:0:0:
256,192,90584,1,8,0:0:0:0:
256,192,90801,1,8,0:0:0:0:
256,192,90909,1,0,0:0:0:0:
256,192,91017,1,8,0:0:0:0:
256,192,91125,1,0,0:0:0:0:
256,192,91198,1,8,0:0:0:0:
256,192,91270,1,8,0:0:0:0:
256,192,91342,1,0,0:0:0:0:
256,192,91414,1,8,0:0:0:0:
256,192,91486,1,0,0:0:0:0:
256,192,91559,1,8,0:0:0:0:
256,192,91613,1,0,0:0:0:0:
256,192,91667,1,0,0:0:0:0:
256,192,91721,1,8,0:0:0:0:
256,192,91776,1,0,0:0:0:0:
256,192,91830,1,0,0:0:0:0:
256,192,91884,1,8,0:0:0:0:
256,192,91938,1,0,0:0:0:0:
256,192,91992,1,8,0:0:0:0:
256,192,92046,1,0,0:0:0:0:
256,192,92100,1,0,0:0:0:0:
256,192,92154,1,8,0:0:0:0:
256,192,92209,1,0,0:0:0:0:
256,192,92263,1,0,0:0:0:0:
256,192,92317,1,8,0:0:0:0:
256,192,92371,1,0,0:0:0:0:
256,192,92425,1,8,0:0:0:0:
256,192,92479,1,0,0:0:0:0:
256,192,92533,1,0,0:0:0:0:
256,192,92587,1,8,0:0:0:0:
256,192,92642,1,0,0:0:0:0:
256,192,92696,1,0,0:0:0:0:
256,192,92750,1,8,0:0:0:0:
256,192,92804,1,0,0:0:0:0:
256,192,92859,1,8,0:0:0:0:
256,192,92913,1,0,0:0:0:0:
256,192,92967,1,0,0:0:0:0:
256,192,93021,1,8,0:0:0:0:
256,192,93076,1,0,0:0:0:0:
256,192,93130,1,0,0:0:0:0:
256,192,93184,1,8,0:0:0:0:
256,192,93238,1,0,0:0:0:0:
256,192,93292,1,8,0:0:0:0:
256,192,93346,1,0,0:0:0:0:
256,192,93400,1,0,0:0:0:0:
256,192,93454,1,8,0:0:0:0:
256,192,93509,1,0,0:0:0:0:
256,192,93563,1,0,0:0:0:0:
256,192,93617,1,8,0:0:0:0:
256,192,93671,1,0,0:0:0:0:
256,192,93725,1,8,0:0:0:0:
256,192,93779,1,0,0:0:0:0:
256,192,93833,1,0,0:0:0:0:
256,192,93887,1,8,0:0:0:0:
256,192,93942,1,0,0:0:0:0:
256,192,93996,1,0,0:0:0:0:
256,192,94050,1,8,0:0:0:0:
256,192,94104,1,0,0:0:0:0:
256,192,94158,1,8,0:0:0:0:
256,192,94212,1,0,0:0:0:0:
256,192,94266,1,0,0:0:0:0:
256,192,94320,1,8,0:0:0:0:
256,192,94375,1,0,0:0:0:0:
256,192,94429,1,0,0:0:0:0:
256,192,94483,1,8,0:0:0:0:
256,192,94537,1,0,0:0:0:0:
256,192,94592,1,8,0:0:0:0:
256,192,94646,1,0,0:0:0:0:
256,192,94700,1,0,0:0:0:0:
256,192,94754,1,8,0:0:0:0:
256,192,94809,1,0,0:0:0:0:
256,192,94863,1,0,0:0:0:0:
256,192,94917,1,8,0:0:0:0:
256,192,94971,1,0,0:0:0:0:
256,192,95025,1,8,0:0:0:0:
256,192,95079,1,8,0:0:0:0:
256,192,95133,1,0,0:0:0:0:
256,192,95187,1,8,0:0:0:0:
256,192,95241,1,8,0:0:0:0:
256,192,95295,1,0,0:0:0:0:
256,192,95350,1,8,0:0:0:0:
256,192,95404,1,0,0:0:0:0:
256,192,95458,1,8,0:0:0:0:
256,192,95512,1,8,0:0:0:0:
256,192,95566,1,0,0:0:0:0:
256,192,95620,1,8,0:0:0:0:
256,192,95675,1,8,0:0:0:0:
256,192,95729,1,0,0:0:0:0:
256,192,95783,1,8,0:0:0:0:
256,192,95837,1,0,0:0:0:0:
256,192,95891,1,8,0:0:0:0:
256,192,95945,1,8,0:0:0:0:
256,192,95999,1,0,0:0:0:0:
256,192,96053,1,8,0:0:0:0:
256,192,96108,1,8,0:0:0:0:
256,192,96162,1,0,0:0:0:0:
256,192,96216,1,8,0:0:0:0:
256,192,96270,1,0,0:0:0:0:
256,192,96324,1,8,0:0:0:0:
256,192,96378,1,8,0:0:0:0:
256,192,96432,1,0,0:0:0:0:
256,192,96486,1,8,0:0:0:0:
256,192,96541,1,8,0:0:0:0:
256,192,96595,1,0,0:0:0:0:
256,192,96649,1,8,0:0:0:0:
256,192,96703,1,0,0:0:0:0:
256,192,96758,1,8,0:0:0:0:
256,192,96812,1,8,0:0:0:0:
256,192,96866,1,0,0:0:0:0:
256,192,96920,1,8,0:0:0:0:
256,192,96975,1,8,0:0:0:0:
256,192,97029,1,0,0:0:0:0:
256,192,97083,1,8,0:0:0:0:
256,192,97137,1,0,0:0:0:0:
256,192,97191,1,8,0:0:0:0:
256,192,97245,1,8,0:0:0:0:
256,192,97299,1,0,0:0:0:0:
256,192,97353,1,8,0:0:0:0:
256,192,97408,1,8,0:0:0:0:
256,192,97462,1,0,0:0:0:0:
256,192,97516,1,8,0:0:0:0:
256,192,97570,1,0,0:0:0:0:
256,192,97624,1,8,0:0:0:0:
256,192,97678,1,8,0:0:0:0:
256,192,97732,1,0,0:0:0:0:
256,192,97786,1,0,0:0:0:0:
256,192,97841,1,8,0:0:0:0:
256,192,97895,1,8,0:0:0:0:
256,192,97949,1,0,0:0:0:0:
256,192,98003,1,0,0:0:0:0:
256,192,98057,1,8,0:0:0:0:
256,192,98111,1,0,0:0:0:0:
256,192,98165,1,0,0:0:0:0:
256,192,98219,1,0,0:0:0:0:
256,192,98274,1,8,0:0:0:0:
256,192,98328,1,0,0:0:0:0:
256,192,98382,1,8,0:0:0:0:
256,192,98436,1,8,0:0:0:0:
256,192,98490,1,4,0:0:0:0:
256,192,98545,12,0,99249,0:0:0:0:
256,192,99357,5,0,0:0:0:0:
256,192,99465,1,0,0:0:0:0:
256,192,99573,1,8,0:0:0:0:
256,192,99682,1,8,0:0:0:0:
256,192,99790,1,0,0:0:0:0:
256,192,99844,1,0,0:0:0:0:
256,192,99898,1,0,0:0:0:0:
256,192,99953,1,0,0:0:0:0:
256,192,100007,1,0,0:0:0:0:
256,192,100223,1,4,0:0:0:0:
256,192,100277,12,0,100981,0:0:0:0:
256,192,101090,5,0,0:0:0:0:
256,192,101198,1,8,0:0:0:0:
256,192,101306,1,0,0:0:0:0:
256,192,101360,1,0,0:0:0:0:
256,192,101415,1,0,0:0:0:0:
256,192,101469,1,0,0:0:0:0:
256,192,101523,1,8,0:0:0:0:
256,192,101577,1,0,0:0:0:0:
256,192,101631,1,0,0:0:0:0:
256,192,101685,1,0,0:0:0:0:
256,192,101740,1,0,0:0:0:0:
256,192,101956,1,4,0:0:0:0:
256,192,102010,12,4,102714,0:0:0:0:
256,192,102823,5,0,0:0:0:0:
256,192,102877,1,0,0:0:0:0:
256,192,102931,1,0,0:0:0:0:
256,192,102985,1,0,0:0:0:0:
256,192,103039,1,8,0:0:0:0:
256,192,103093,1,0,0:0:0:0:
256,192,103147,1,8,0:0:0:0:
256,192,103202,1,0,0:0:0:0:
256,192,103256,1,0,0:0:0:0:
256,192,103310,1,0,0:0:0:0:
256,192,103364,1,8,0:0:0:0:
256,192,103418,1,0,0:0:0:0:
256,192,103472,1,8,0:0:0:0:
256,192,103527,1,8,0:0:0:0:
256,192,103581,1,0,0:0:0:0:
256,192,103635,1,0,0:0:0:0:
256,192,103689,1,8,0:0:0:0:
256,192,103743,1,0,0:0:0:0:
256,192,103797,1,0,0:0:0:0:
256,192,103851,1,0,0:0:0:0:
256,192,103906,1,8,0:0:0:0:
256,192,103960,1,0,0:0:0:0:
256,192,104014,1,8,0:0:0:0:
256,192,104068,1,8,0:0:0:0:
256,192,104122,1,0,0:0:0:0:
256,192,104176,1,0,0:0:0:0:
256,192,104231,1,8,0:0:0:0:
256,192,104285,1,0,0:0:0:0:
256,192,104339,1,8,0:0:0:0:
256,192,104393,1,8,0:0:0:0:
256,192,104447,1,8,0:0:0:0:
256,192,104501,1,8,0:0:0:0:
256,192,104555,1,4,0:0:0:0:
256,192,104610,12,0,109754,0:0:0:0:
