osu file format v14

[General]
AudioFilename: audio.mp3
AudioLeadIn: 0
PreviewTime: 156887
Countdown: 0
SampleSet: Soft
StackLeniency: 0.7
Mode: 0
LetterboxInBreaks: 0
EpilepsyWarning: 1
WidescreenStoryboard: 1

[Editor]
Bookmarks: 11632,24017,36026,60044,72053,84062,96071,108080,132098,135100,147109,159118,171127,183136
DistanceSpacing: 1
BeatDivisor: 4
GridSize: 4
TimelineZoom: 2.4

[Metadata]
Title:ya zhenyus' na devochke iz anime
TitleUnicode:я женюсь на девочке из аниме
Artist:egor nats
ArtistUnicode:егор натс
Creator:Daycore
Version:ren's normal
Source:
Tags:drum and bass electronic dnb drum'n'bass барханов snackillzz piroshki alumetri 619 derandom otaku atix atix174 miraclee pantydev fukanamazat russian русский девочка
BeatmapID:1988897
BeatmapSetID:947717

[Difficulty]
HPDrainRate:3
CircleSize:3.5
OverallDifficulty:4.5
ApproachRate:5
SliderMultiplier:0.999999999999999
SliderTickRate:1

[Events]
//Background and Video events
0,0,"bg.jpg",0,0
//Break Periods
2,84262,94872
2,135301,145929
//Storyboard Layer 0 (Background)
//Storyboard Layer 1 (Fail)
//Storyboard Layer 2 (Pass)
//Storyboard Layer 3 (Foreground)
//Storyboard Sound Samples

[TimingPoints]
12009,375.281461095822,4,2,1,50,1,0
36027,-100,4,2,1,60,0,1
36308,-100,4,2,1,5,0,1
36402,-100,4,2,1,60,0,1
37809,-100,4,2,1,5,0,1
37903,-100,4,2,1,60,0,1
39310,-100,4,2,1,5,0,1
39404,-100,4,2,1,60,0,1
40811,-100,4,2,1,5,0,1
40905,-100,4,2,1,60,0,1
42031,-100,4,2,1,60,0,1
42312,-100,4,2,1,5,0,1
42406,-100,4,2,1,60,0,1
43814,-100,4,2,1,5,0,1
43907,-100,4,2,1,60,0,1
47660,-100,4,2,1,60,0,0
48036,-100,4,2,1,60,0,1
48317,-100,4,2,1,5,0,1
48411,-100,4,2,1,60,0,1
49818,-100,4,2,1,5,0,1
49912,-100,4,2,1,60,0,1
51319,-100,4,2,1,5,0,1
51413,-100,4,2,1,60,0,1
54040,-100,4,2,1,60,0,1
54321,-100,4,2,1,5,0,1
54415,-100,4,2,1,60,0,1
55823,-100,4,2,1,5,0,1
55916,-100,4,2,1,60,0,1
57324,-100,4,2,1,5,0,1
57418,-100,4,2,1,60,0,1
58825,-100,4,2,1,5,0,1
58919,-100,4,2,1,60,0,1
59575,-100,4,2,1,5,0,1
59669,-100,4,2,1,60,0,1
60045,-100,4,2,1,50,0,0
72429,-100,4,2,1,50,0,0
73555,-100,4,2,1,50,0,0
73930,-100,4,2,1,50,0,0
75056,-100,4,2,1,50,0,0
75431,-100,4,2,1,50,0,0
76557,-100,4,2,1,50,0,0
78058,-100,4,2,1,50,0,0
78433,-100,4,2,1,50,0,0
79559,-100,4,2,1,50,0,0
79934,-100,4,2,1,50,0,0
81060,-100,4,2,1,50,0,0
81436,-100,4,2,1,50,0,0
82561,-100,4,2,1,50,0,0
84063,-100,4,2,1,50,0,0
96072,-100,4,2,1,50,0,0
108081,-100,4,2,1,60,0,1
108362,-100,4,2,1,5,0,1
108456,-100,4,2,1,60,0,1
109863,-100,4,2,1,5,0,1
109957,-100,4,2,1,60,0,1
111364,-100,4,2,1,5,0,1
111458,-100,4,2,1,60,0,1
112865,-100,4,2,1,5,0,1
112959,-100,4,2,1,60,0,1
114085,-100,4,2,1,60,0,1
114367,-100,4,2,1,5,0,1
114460,-100,4,2,1,60,0,1
115868,-100,4,2,1,5,0,1
115961,-100,4,2,1,60,0,1
119714,-100,4,2,1,60,0,0
120090,-100,4,2,1,60,0,1
120371,-100,4,2,1,5,0,1
120465,-100,4,2,1,60,0,1
121872,-100,4,2,1,5,0,1
121966,-100,4,2,1,60,0,1
123373,-100,4,2,1,5,0,1
123467,-100,4,2,1,60,0,1
124874,-100,4,2,1,5,0,1
124968,-100,4,2,1,60,0,1
126094,-100,4,2,1,60,0,1
126376,-100,4,2,1,5,0,1
126469,-100,4,2,1,60,0,1
127877,-100,4,2,1,5,0,1
127970,-100,4,2,1,60,0,1
129378,-100,4,2,1,5,0,1
129472,-100,4,2,1,60,0,1
130879,-100,4,2,1,5,0,1
130973,-100,4,2,1,60,0,1
132099,-100,4,2,1,60,0,0
132474,-100,4,2,1,50,0,0
132849,-100,4,2,1,40,0,0
133224,352.941176470588,4,2,1,40,1,0
133576,402.684563758389,4,2,1,50,1,0
133777,384.615384615385,4,2,1,50,1,0
134930,343.839541547278,4,2,1,50,1,0
135101,382.165605095541,4,2,1,50,1,0
135101,-100,4,2,1,50,0,0
137011,363.636363636364,4,2,1,50,1,0
137374,379.746835443038,4,2,1,50,1,0
138133,368.098159509202,4,2,1,50,1,0
138869,375,4,2,1,50,1,0
139994,382.165605095541,4,2,1,50,1,0
141140,368.098159509202,4,2,1,50,1,0
143348,392.156862745098,4,2,1,50,1,0
144132,377.358490566038,4,2,1,50,1,0
146018,352.941176470588,4,2,1,50,1,0
146370,379.746835443038,4,2,1,50,1,0
147129,370.37037037037,4,2,1,50,1,0
147129,-167.644593461861,4,2,1,50,0,0
147869,387.096774193548,4,2,1,50,1,0
149030,333.333333333333,4,2,1,50,1,0
149363,379.746835443038,4,2,1,50,1,0
150122,375,4,2,1,50,1,0
150122,-166.666666666667,4,2,1,50,0,0
152372,387.096774193548,4,2,1,50,1,0
153146,370.37037037037,4,2,1,50,1,0
153146,-166.251039068994,4,2,1,50,0,0
154627,368.098159509202,4,2,1,50,1,0
155363,387.096774193548,4,2,1,50,1,0
156137,375,4,2,1,50,1,0
156233,-100,4,2,1,60,0,0
156887,352.941176470588,4,2,1,50,1,0
157592,387.096774193548,4,2,1,50,1,0
158366,376.766091051805,4,2,1,50,1,0
159119,375.281461095822,4,2,1,60,1,1
159119,-100,4,2,1,60,0,1
159400,-100,4,2,1,5,0,1
159494,-100,4,2,1,60,0,1
162403,-100,4,2,1,5,0,1
162496,-100,4,2,1,60,0,1
165405,-100,4,2,1,5,0,1
165499,-100,4,2,1,60,0,1
168407,-100,4,2,1,5,0,1
168501,-100,4,2,1,60,0,1
171409,-100,4,2,1,5,0,1
171503,-100,4,2,1,60,0,1
174412,-100,4,2,1,5,0,1
174505,-100,4,2,1,60,0,1
177414,-100,4,2,1,5,0,1
177508,-100,4,2,1,60,0,1
178915,-100,4,2,1,60,0,1
179009,-100,4,2,1,60,0,1
180416,-100,4,2,1,5,0,1
180510,-100,4,2,1,60,0,1
183137,-100,4,2,1,40,0,0

[Colours]
Combo1 : 128,0,255
Combo2 : 0,128,255
Combo3 : 0,128,192
Combo4 : 0,0,160
Combo5 : 255,0,255
Combo6 : 0,0,255
SliderBorder : 249,155,239
SliderTrackOverride : 164,179,223

[HitObjects]
422,71,11633,5,4,3:2:0:0:
338,126,12009,2,0,P|352:166|365:232,1,99.9999999999999,4|8,3:2|0:0,0:0:0:0:
366,322,12759,2,0,P|403:314|430:314,2,50,0|0|8,0:0|3:0|0:0,0:0:0:0:
271,356,13510,2,0,P|222:347|171:317,1,99.9999999999999,0|8,3:0|0:0,0:0:0:0:
137,293,14073,1,0,0:0:0:0:
137,293,14260,2,0,P|151:246|150:172,1,99.9999999999999,0|8,0:0|0:0,0:0:0:0:
84,122,15011,6,0,B|129:97|129:97|199:106,1,99.9999999999999,0|8,3:0|0:0,0:0:0:0:
274,124,15761,2,0,P|285:90|290:57,2,50,0|0|8,0:0|3:0|0:0,0:0:0:0:
255,170,16324,1,0,0:0:0:0:
255,170,16512,2,0,P|268:227|275:275,1,99.9999999999999,0|8,3:0|0:0,0:0:0:0:
359,320,17262,2,0,P|366:270|378:221,1,99.9999999999999,0|8,0:0|0:0,0:0:0:0:
453,155,18013,6,0,P|453:83|383:42,1,150,4|0,3:2|0:0,0:0:0:0:
348,66,18764,2,0,P|311:62|280:56,1,50,0|0,0:0|3:0,0:0:0:0:
249,50,19139,1,8,0:0:0:0:
154,18,19514,2,0,P|166:59|174:138,1,99.9999999999999,0|8,3:0|0:0,0:0:0:0:
176,165,20077,2,0,P|141:157|114:151,1,50,0|0,0:0|0:0,0:0:0:0:
27,157,20640,2,0,P|35:188|38:216,1,50,8|8,0:0|0:0,0:0:0:0:
34,255,21015,6,0,B|82:242|82:242|126:282,1,99.9999999999999,0|8,3:0|0:0,0:0:0:0:
172,360,21766,2,0,B|232:348|211:331|277:325,1,99.9999999999999,0|8,0:0|0:0,0:0:0:0:
307,353,22329,2,0,P|315:310|345:249,1,99.9999999999999,0|0,0:0|0:0,0:0:0:0:
366,217,22892,2,0,P|347:199|316:176,2,50,8|0|0,0:0|0:0|0:0,0:0:0:0:
432,291,23642,1,8,0:0:0:0:
493,212,24018,6,0,L|478:108,1,99.9999999999999,4|8,3:2|0:0,0:0:0:0:
420,31,24768,2,0,P|395:32|370:37,1,50,0|0,0:0|3:0,0:0:0:0:
323,55,25143,1,8,0:0:0:0:
240,111,25519,2,0,P|190:96|142:90,1,99.9999999999999,0|8,3:0|0:0,0:0:0:0:
94,104,26082,1,0,0:0:0:0:
94,104,26269,2,0,P|112:152|120:212,1,99.9999999999999,0|8,0:0|0:0,0:0:0:0:
119,300,27020,6,0,P|94:302|70:309,2,50,0|0|8,3:0|0:0|0:0,0:0:0:0:
210,339,27770,2,0,P|234:336|258:329,1,50,0|0,0:0|3:0,0:0:0:0:
303,306,28146,2,0,P|327:308|351:315,1,50,8|0,0:0|0:0,0:0:0:0:
392,345,28521,1,0,3:0:0:0:
392,345,28709,2,0,P|454:338|456:259,1,150,0|0,0:0|0:0,0:0:0:0:
396,184,29647,1,8,0:0:0:0:
313,240,30022,6,0,P|296:223|277:198,1,50,4|0,3:2|0:0,0:0:0:0:
261,155,30397,2,0,P|220:180|151:181,2,99.9999999999999,8|0|8,0:0|0:0|0:0,0:0:0:0:
318,72,31523,2,0,P|352:63|390:62,1,50,0|0,3:0|0:0,0:0:0:0:
416,63,31898,2,0,P|425:97|426:135,1,50,8|0,0:0|0:0,0:0:0:0:
415,160,32274,2,0,P|421:209|441:254,1,99.9999999999999,0|8,0:0|0:0,0:0:0:0:
474,349,33024,6,0,P|442:361|417:366,1,50,0|0,3:0|0:0,0:0:0:0:
381,341,33400,2,0,P|357:331|333:325,1,50,8|0,0:0|0:0,0:0:0:0:
289,349,33775,2,0,B|272:302|272:302|289:250,1,99.9999999999999,0|8,0:0|0:0,0:0:0:0:
350,177,34525,2,0,B|367:130|367:130|350:78,1,99.9999999999999,0|8,3:0|0:0,0:0:0:0:
332,35,35088,1,0,0:0:0:0:
332,35,35276,2,0,B|277:32|286:61|215:56,1,99.9999999999999,0|8,0:0|0:0,0:0:0:0:
138,30,36027,6,0,P|154:123|158:179,1,150,4|0,3:2|0:0,0:0:0:0:
141,225,36777,2,0,P|191:231|247:215,1,99.9999999999999,0|8,0:0|0:0,0:0:0:0:
327,172,37528,2,0,B|413:176|376:238|462:250,1,150,0|0,3:0|0:0,0:0:0:0:
499,249,38278,2,0,P|491:198|489:127,1,99.9999999999999,0|8,0:0|0:0,0:0:0:0:
490,49,39029,6,0,B|442:36|442:36|394:49|394:49|340:34,1,150,0|0,3:0|0:0,0:0:0:0:
296,23,39779,2,0,P|306:64|309:125,1,99.9999999999999,0|0,0:0|0:0,0:0:0:0:
283,218,40530,2,0,P|230:222|180:263,1,99.9999999999999,0|8,3:0|0:0,0:0:0:0:
164,289,41093,1,0,0:0:0:0:
164,289,41280,2,0,P|122:315|72:318,1,99.9999999999999,0|0,0:0|0:0,0:0:0:0:
18,233,42031,6,0,P|17:167|30:112,1,99.9999999999999,4|8,3:2|0:0,0:0:0:0:
25,83,42594,1,0,0:0:0:0:
25,83,42782,2,0,P|76:80|134:77,1,99.9999999999999,0|8,0:0|0:0,0:0:0:0:
216,37,43532,2,0,P|265:39|315:42,1,99.9999999999999,0|8,3:0|0:0,0:0:0:0:
362,24,44095,1,0,0:0:0:0:
362,24,44283,2,0,P|411:26|461:29,1,99.9999999999999,0|8,0:0|0:0,0:0:0:0:
507,118,45033,6,0,B|418:146|478:181|372:218,1,150,0|0,3:0|0:0,0:0:0:0:
343,216,45784,1,0,0:0:0:0:
359,117,46159,1,8,0:0:0:0:
307,31,46534,2,0,P|259:43|217:83,1,99.9999999999999,0|8,3:0|0:0,0:0:0:0:
161,155,47285,2,0,P|123:122|75:110,1,99.9999999999999,0|8,0:0|0:0,0:0:0:0:
21,194,48036,6,0,P|32:244|33:302,1,99.9999999999999,4|8,3:2|0:0,0:0:0:0:
27,342,48598,1,0,0:0:0:0:
27,342,48786,2,0,L|92:336,1,50,0|0,0:0|3:0,0:0:0:0:
122,357,49161,1,8,0:0:0:0:
192,286,49537,2,0,P|238:285|293:314,1,99.9999999999999,0|8,3:0|0:0,0:0:0:0:
321,343,50100,1,0,0:0:0:0:
321,343,50287,2,0,P|361:354|388:354,1,50,0|0,0:0|3:0,0:0:0:0:
419,351,50662,1,8,0:0:0:0:
497,288,51038,6,0,P|486:247|486:174,1,99.9999999999999,0|8,3:0|0:0,0:0:0:0:
495,140,51601,1,0,0:0:0:0:
495,140,51788,2,0,P|493:103|489:79,1,50,0|0,0:0|3:0,0:0:0:0:
480,41,52164,1,8,0:0:0:0:
397,97,52539,2,0,B|343:88|365:62|295:60,1,99.9999999999999,0|8,3:0|0:0,0:0:0:0:
257,74,53102,1,0,0:0:0:0:
257,74,53289,2,0,P|232:69|208:63,1,50,0|0,0:0|3:0,0:0:0:0:
158,53,53665,1,8,0:0:0:0:
63,19,54040,6,0,P|50:67|50:128,1,99.9999999999999,4|8,3:2|0:0,0:0:0:0:
67,163,54603,1,0,0:0:0:0:
67,163,54791,2,0,P|67:200|64:226,1,50,0|0,0:0|3:0,0:0:0:0:
60,262,55166,1,8,0:0:0:0:
22,354,55541,2,0,P|60:348|124:345,1,99.9999999999999,0|8,3:0|0:0,0:0:0:0:
169,359,56104,1,0,0:0:0:0:
169,359,56292,2,0,P|176:327|187:297,1,50,0|0,0:0|3:0,0:0:0:0:
199,263,56667,1,8,0:0:0:0:
238,171,57042,6,0,B|162:143|167:192|74:186,1,150,0|0,3:0|0:0,0:0:0:0:
42,183,57793,1,0,0:0:0:0:
42,83,58168,1,8,0:0:0:0:
123,25,58543,2,0,P|180:25|245:36,1,99.9999999999999,0|8,3:0|0:0,0:0:0:0:
301,93,59294,2,0,P|350:86|400:87,1,99.9999999999999,0|8,0:0|0:0,0:0:0:0:
488,135,60045,6,0,B|408:164|451:200|373:236,1,150,2|0,0:0|0:0,0:0:0:0:
333,214,60795,2,0,P|345:264|355:323,1,99.9999999999999,2|0,0:0|0:0,0:0:0:0:
263,356,61546,2,0,P|251:289|227:198,1,150,2|0,0:0|0:0,0:0:0:0:
213,162,62296,1,2,0:0:0:0:
283,91,62671,1,2,0:0:0:0:
194,44,63047,6,0,P|112:44|84:162,1,200,0|2,0:0|0:0,0:0:0:0:
109,236,64173,1,2,0:0:0:0:
207,222,64548,2,0,P|196:264|188:329,1,99.9999999999999,2|2,0:0|0:0,0:0:0:0:
286,340,65298,2,0,P|292:290|304:241,1,99.9999999999999,2|2,0:0|0:0,0:0:0:0:
324,143,66049,6,0,B|455:150|373:211|513:226,1,200,0|2,0:0|0:0,0:0:0:0:
493,124,67175,1,2,0:0:0:0:
432,44,67550,2,0,P|382:47|326:48,1,99.9999999999999,2|2,0:0|0:0,0:0:0:0:
233,29,68301,2,0,P|183:29|133:33,1,99.9999999999999,2|2,0:0|0:0,0:0:0:0:
37,61,69051,6,0,B|89:177|16:149|58:261,1,200,0|2,0:0|0:0,0:0:0:0:
96,346,70177,1,2,0:0:0:0:
152,263,70552,2,0,P|194:279|236:318,1,99.9999999999999,2|2,0:0|0:0,0:0:0:0:
316,372,71303,2,0,P|352:337|398:319,1,99.9999999999999,2|2,0:0|0:0,0:0:0:0:
481,375,72054,6,0,P|443:320|461:237,1,150,4|0,3:2|0:0,0:0:0:0:
478,196,72804,2,0,P|485:141|489:90,1,99.9999999999999,0|8,0:0|0:0,0:0:0:0:
413,29,73555,2,0,P|378:35|356:47,1,50,0|0,3:0|0:0,0:0:0:0:
322,67,73930,2,0,P|297:64|270:59,1,50,8|0,0:0|0:0,0:0:0:0:
229,34,74305,2,0,L|233:146,1,99.9999999999999,0|8,0:0|0:0,0:0:0:0:
190,225,75056,6,0,P|141:202|87:199,1,99.9999999999999,0|8,3:0|0:0,0:0:0:0:
46,207,75619,1,0,0:0:0:0:
46,207,75806,2,0,P|40:259|47:317,1,99.9999999999999,0|0,0:0|0:0,0:0:0:0:
128,360,76557,2,0,P|177:364|227:358,1,99.9999999999999,0|8,3:0|0:0,0:0:0:0:
277,355,77120,1,0,0:0:0:0:
277,355,77307,2,0,P|280:327|289:287,1,50,0|0,0:0|3:0,0:0:0:0:
299,257,77683,1,8,0:0:0:0:
389,214,78058,6,0,P|328:215|304:129,1,150,4|0,3:2|0:0,0:0:0:0:
311,92,78809,2,0,P|268:86|208:87,1,99.9999999999999,0|8,0:0|0:0,0:0:0:0:
117,120,79559,1,0,3:0:0:0:
185,192,79934,2,0,P|191:235|190:295,1,99.9999999999999,8|0,0:0|0:0,0:0:0:0:
181,340,80497,1,0,3:0:0:0:
181,340,80685,1,8,0:0:0:0:
278,319,81060,6,0,P|322:309|387:307,1,99.9999999999999,0|8,3:0|0:0,0:0:0:0:
475,324,81811,1,0,0:0:0:0:
475,324,81998,2,0,P|468:354|464:384,2,50,0|8|0,3:0|0:0|0:0,0:0:0:0:
501,281,82561,2,0,P|489:237|481:160,1,99.9999999999999,0|8,3:0|0:0,0:0:0:0:
491,83,83312,2,0,P|461:75|434:72,1,50,0|0,0:0|3:0,0:0:0:0:
397,94,83687,2,0,P|352:87|288:68,1,99.9999999999999,8|0,0:0|0:0,0:0:0:0:
299,72,96072,6,0,P|309:117|311:193,1,99.9999999999999,4|8,3:2|0:0,0:0:0:0:
310,220,96634,1,0,0:0:0:0:
310,220,96822,2,0,P|355:210|431:208,1,99.9999999999999,0|8,0:0|0:0,0:0:0:0:
424,305,97573,2,0,P|374:307|325:318,1,99.9999999999999,0|8,3:0|0:0,0:0:0:0:
280,339,98136,1,0,0:0:0:0:
280,339,98323,1,0,0:0:0:0:
209,268,98699,1,8,0:0:0:0:
138,338,99074,6,0,P|97:323|65:271,1,99.9999999999999,0|8,3:0|0:0,0:0:0:0:
49,230,99637,1,0,0:0:0:0:
49,230,99824,2,0,P|55:185|55:130,1,99.9999999999999,0|8,0:0|0:0,0:0:0:0:
43,81,100387,1,0,0:0:0:0:
43,81,100575,1,0,3:0:0:0:
127,27,100950,2,0,L|179:40,1,50,8|0,0:0|0:0,0:0:0:0:
214,70,101325,2,0,L|323:54,1,99.9999999999999,0|8,0:0|0:0,0:0:0:0:
409,29,102076,6,0,P|399:80|386:191,1,150,4|0,3:2|0:0,0:0:0:0:
416,218,102827,2,0,P|413:256|408:285,1,50,0|0,0:0|3:0,0:0:0:0:
404,317,103202,1,8,0:0:0:0:
314,361,103577,1,0,3:0:0:0:
314,361,103765,2,0,P|275:348|200:348,1,99.9999999999999,0|0,0:0|0:0,0:0:0:0:
170,365,104328,2,0,P|168:315|154:267,1,99.9999999999999,0|8,0:0|0:0,0:0:0:0:
83,196,105078,6,0,P|84:146|98:98,1,99.9999999999999,0|8,3:0|0:0,0:0:0:0:
124,55,105641,1,0,0:0:0:0:
124,55,105829,2,0,P|162:69|223:82,1,99.9999999999999,0|8,0:0|0:0,0:0:0:0:
311,42,106579,1,0,3:0:0:0:
311,42,106767,2,0,P|359:51|407:68,1,99.9999999999999,0|0,0:0|0:0,0:0:0:0:
450,92,107330,1,0,0:0:0:0:
379,162,107705,1,8,0:0:0:0:
403,259,108081,6,0,P|310:243|254:239,1,150,4|0,3:2|0:0,0:0:0:0:
208,256,108831,2,0,P|217:206|218:150,1,99.9999999999999,0|8,0:0|0:0,0:0:0:0:
189,61,109582,2,0,P|282:77|338:81,1,150,0|0,3:0|0:0,0:0:0:0:
384,64,110332,2,0,P|375:114|374:170,1,99.9999999999999,0|8,0:0|0:0,0:0:0:0:
403,259,111083,6,0,P|310:243|254:239,1,150,0|0,3:0|0:0,0:0:0:0:
208,256,111833,2,0,P|211:314|209:369,1,99.9999999999999,0|8,0:0|0:0,0:0:0:0:
109,355,112584,2,0,P|108:305|110:255,1,99.9999999999999,0|8,3:0|0:0,0:0:0:0:
126,207,113147,1,0,0:0:0:0:
126,207,113334,2,0,P|126:157|124:107,1,99.9999999999999,0|8,0:0|0:0,0:0:0:0:
180,24,114085,6,0,P|230:23|279:63,1,99.9999999999999,4|8,3:2|0:0,0:0:0:0:
295,92,114648,1,0,0:0:0:0:
295,92,114836,2,0,L|346:103,1,50,0|0,0:0|3:0,0:0:0:0:
390,119,115211,1,8,0:0:0:0:
489,121,115586,2,0,P|479:164|472:224,1,99.9999999999999,0|8,3:0|0:0,0:0:0:0:
469,269,116149,1,0,0:0:0:0:
469,269,116337,2,0,P|415:260|369:263,1,99.9999999999999,0|8,0:0|0:0,0:0:0:0:
299,334,117087,6,0,B|210:306|270:271|164:234,1,150,0|0,3:0|0:0,0:0:0:0:
136,230,117838,1,0,0:0:0:0:
136,130,118213,1,8,0:0:0:0:
136,30,118588,2,0,P|184:42|223:80,1,99.9999999999999,0|8,3:0|0:0,0:0:0:0:
254,169,119339,2,0,P|290:135|338:123,1,99.9999999999999,0|8,0:0|0:0,0:0:0:0:
438,130,120090,6,0,P|427:180|426:238,1,99.9999999999999,4|8,3:2|0:0,0:0:0:0:
433,277,120652,1,0,0:0:0:0:
433,277,120840,2,0,L|383:281,1,50,0|0,0:0|3:0,0:0:0:0:
347,317,121215,1,8,0:0:0:0:
276,246,121591,2,0,P|226:245|181:267,1,99.9999999999999,0|8,3:0|0:0,0:0:0:0:
150,306,122154,1,0,0:0:0:0:
150,306,122341,2,0,P|125:302|101:294,1,50,0|0,0:0|3:0,0:0:0:0:
54,276,122716,1,8,0:0:0:0:
101,187,123092,6,0,P|100:137|87:88,1,99.9999999999999,0|8,3:0|0:0,0:0:0:0:
70,41,123655,1,0,0:0:0:0:
70,41,123842,2,0,L|134:45,1,50,0|0,0:0|3:0,0:0:0:0:
166,24,124218,1,8,0:0:0:0:
233,98,124593,2,0,P|220:146|219:196,1,99.9999999999999,0|8,3:0|0:0,0:0:0:0:
238,242,125156,1,0,0:0:0:0:
238,242,125343,2,0,P|262:235|286:231,1,50,0|0,0:0|3:0,0:0:0:0:
333,248,125719,1,8,0:0:0:0:
403,177,126094,6,0,P|404:127|417:78,1,99.9999999999999,4|8,3:2|0:0,0:0:0:0:
435,32,126657,1,0,0:0:0:0:
435,32,126845,2,0,P|410:30|385:30,1,50,0|0,0:0|3:0,0:0:0:0:
336,40,127220,1,8,0:0:0:0:
265,110,127595,2,0,P|209:111|153:107,1,99.9999999999999,0|8,3:0|0:0,0:0:0:0:
115,100,128158,1,0,0:0:0:0:
115,100,128346,2,0,P|122:123|127:148,1,50,0|0,0:0|3:0,0:0:0:0:
133,198,128721,1,8,0:0:0:0:
66,272,129096,6,0,B|153:268|105:334|218:337,1,150,0|0,3:0|0:0,0:0:0:0:
244,340,129847,1,0,0:0:0:0:
314,269,130222,1,8,0:0:0:0:
384,339,130597,2,0,P|427:316|486:302,1,99.9999999999999,0|8,3:0|0:0,0:0:0:0:
476,202,131348,2,0,P|427:189|383:166,2,99.9999999999999,0|8|0,0:0|0:0|0:0,0:0:0:0:
476,202,133576,5,8,3:0:0:0:
476,202,133777,2,0,P|454:163|388:138,1,99.9999999999999,8|8,3:0|3:0,0:0:0:0:
357,150,134353,2,0,P|369:106|340:42,1,99.9999999999999,8|4,3:0|3:0,0:0:0:0:
311,16,134930,1,4,3:0:0:0:
311,16,135101,1,6,3:2:0:0:
324,19,147129,6,0,B|267:46|208:36|208:36|280:159|220:277,1,359.999989013672,2|2,0:0|0:0,0:0:0:0:
107,289,150122,6,0,B|364:260|192:387|442:368,1,359.999989013672,2|2,0:0|0:0,0:0:0:0:
363,275,153146,6,0,B|407:234|473:236|473:236|351:147|248:190,1,359.999989013672,2|2,0:0|0:0,0:0:0:0:
159,270,156137,6,0,P|215:196|145:125,1,200,2|2,0:0|0:0,0:0:0:0:
26,279,157592,1,8,0:3:0:0:
26,279,157785,2,0,P|58:322|109:352,1,99.9999999999999,8|8,0:3|0:3,0:0:0:0:
144,361,158366,2,0,P|173:320|214:292,1,99.9999999999999,8|4,0:3|0:3,0:0:0:0:
262,278,158931,1,4,0:3:0:0:
262,278,159119,6,0,B|249:230|249:230|266:166,1,99.9999999999999,4|8,3:2|0:0,0:0:0:0:
290,85,159869,2,0,P|332:98|387:94,1,99.9999999999999,2|10,0:0|0:0,0:0:0:0:
436,82,160432,1,0,0:0:0:0:
436,82,160620,2,0,P|429:133|434:195,1,99.9999999999999,2|10,3:2|0:0,0:0:0:0:
474,271,161371,2,0,P|448:287|412:303,1,50,2|2,0:0|3:2,0:0:0:0:
381,303,161746,1,10,0:0:0:0:
304,238,162121,6,0,P|251:237|207:269,1,99.9999999999999,0|8,3:0|0:0,0:0:0:0:
162,348,162872,2,0,P|109:349|65:317,1,99.9999999999999,2|10,0:0|0:0,0:0:0:0:
37,286,163435,1,0,0:0:0:0:
37,286,163622,2,0,P|46:256|54:232,1,50,2|0,3:2|0:0,0:0:0:0:
47,188,163997,1,10,0:0:0:0:
30,89,164373,2,0,P|59:85|94:85,1,50,2|0,0:0|3:0,0:0:0:0:
129,91,164748,1,10,0:0:0:0:
199,161,165123,6,0,B|246:163|242:197|307:203,1,99.9999999999999,4|8,3:2|0:0,0:0:0:0:
389,200,165874,2,0,P|369:247|371:313,1,99.9999999999999,2|10,0:0|0:0,0:0:0:0:
383,342,166437,1,0,0:0:0:0:
383,342,166624,2,0,P|327:333|260:330,1,99.9999999999999,2|10,3:2|0:0,0:0:0:0:
187,356,167375,1,2,0:0:0:0:
207,258,167750,1,10,0:0:0:0:
111,288,168126,6,0,P|105:247|105:178,1,99.9999999999999,0|8,3:0|0:0,0:0:0:0:
118,89,168876,2,0,P|164:88|228:76,1,99.9999999999999,2|10,0:0|0:0,0:0:0:0:
260,54,169439,1,0,0:0:0:0:
260,54,169627,2,0,L|257:154,1,99.9999999999999,2|10,3:2|0:0,0:0:0:0:
327,224,170377,2,0,L|325:274,1,50,2|2,0:0|3:2,0:0:0:0:
324,324,170753,1,10,0:0:0:0:
416,362,171128,6,0,P|470:362|504:315,1,99.9999999999999,4|8,3:2|0:0,0:0:0:0:
458,239,171878,2,0,B|446:187|446:187|463:137,1,99.9999999999999,2|10,0:0|0:0,0:0:0:0:
480,96,172441,2,0,B|432:80|432:80|383:92,1,99.9999999999999,0|0,0:0|0:0,0:0:0:0:
339,115,173004,2,0,B|290:127|290:127|242:111,1,99.9999999999999,8|2,0:0|0:0,0:0:0:0:
194,99,173567,2,0,P|204:67|207:35,1,50,2|10,3:2|0:0,0:0:0:0:
106,50,174130,6,0,P|62:71|22:107,1,99.9999999999999,0|8,3:0|0:0,0:0:0:0:
80,187,174881,2,0,P|124:208|162:241,1,99.9999999999999,2|10,0:0|0:0,0:0:0:0:
188,284,175444,1,0,0:0:0:0:
188,284,175631,2,0,P|209:286|241:284,1,50,2|0,3:2|0:0,0:0:0:0:
287,283,176006,1,10,0:0:0:0:
383,311,176382,2,0,P|383:263|395:203,1,99.9999999999999,2|10,0:0|0:0,0:0:0:0:
485,175,177132,6,0,P|411:175|381:66,1,200,4|2,3:2|0:0,0:0:0:0:
387,19,178071,1,0,3:0:0:0:
387,19,178258,2,0,P|338:38|272:42,1,99.9999999999999,10|2,0:0|3:2,0:0:0:0:
192,28,179009,2,0,P|201:63|204:88,1,50,10|0,0:0|0:0,0:0:0:0:
177,119,179384,2,0,P|170:143|166:167,1,50,2|2,0:0|3:2,0:0:0:0:
182,215,179759,1,10,0:0:0:0:
245,292,180135,6,0,B|139:298|187:365|58:360,1,200,0|2,3:0|0:0,0:0:0:0:
21,333,181073,1,0,3:0:0:0:
21,333,181260,2,0,P|27:307|32:264,1,50,10|0,0:0|0:0,0:0:0:0:
30,233,181636,1,2,3:2:0:0:
30,133,182011,2,0,P|67:129|98:130,1,50,10|0,0:0|0:0,0:0:0:0:
126,146,182386,2,0,P|150:145|175:141,1,50,2|2,0:0|3:2,0:0:0:0:
217,114,182762,2,0,P|245:162|252:222,1,99.9999999999999,10|2,0:0|0:0,0:0:0:0:
