osu file format v14

[General]
AudioFilename: audio.mp3
AudioLeadIn: 0
PreviewTime: 59409
Countdown: 0
SampleSet: Normal
StackLeniency: 0.7
Mode: 1
LetterboxInBreaks: 0
WidescreenStoryboard: 1

[Editor]
Bookmarks: 11418,36825,59409,81992,104576
DistanceSpacing: 1.2
BeatDivisor: 4
GridSize: 32
TimelineZoom: 2.899999

[Metadata]
Title:poslednyaya pesnya o ney
TitleUnicode:последняя песня о ней
Artist:egor nats
ArtistUnicode:егор натс
Creator:Leniane
Version:Futsuu
Source:
Tags:Drum n & and Bass dnb russian русский барханов Rap Hiphop EDM Electronic
BeatmapID:2120590
BeatmapSetID:1013115

[Difficulty]
HPDrainRate:6
CircleSize:2
OverallDifficulty:4
ApproachRate:10
SliderMultiplier:1.4
SliderTickRate:1

[Events]
//Background and Video events
0,0,"Background.jpg",0,-100
//Break Periods
//Storyboard Layer 0 (Background)
//Storyboard Layer 1 (Fail)
//Storyboard Layer 2 (Pass)
//Storyboard Layer 3 (Foreground)
//Storyboard Layer 4 (Overlay)
//Storyboard Sound Samples

[TimingPoints]
127,352.870602350118,4,1,0,20,1,0
127,-111.111111111111,4,1,0,20,0,0
11418,-105.263157894737,4,1,0,40,0,0
59232,-105.263157894737,4,1,0,60,0,0
59409,-95.2380952380952,4,1,0,60,0,1
104576,-95.2380952380952,4,1,0,40,0,0

[Colours]
Combo1 : 255,128,255
Combo2 : 255,105,180

[HitObjects]
256,192,127,5,0,0:0:0:0:
256,192,479,1,8,0:0:0:0:
256,192,656,1,0,0:0:0:0:
256,192,1185,1,8,0:0:0:0:
256,192,1891,1,0,0:0:0:0:
256,192,2244,1,8,0:0:0:0:
256,192,2597,1,0,0:0:0:0:
256,192,5772,1,0,0:0:0:0:
256,192,6125,1,8,0:0:0:0:
256,192,6302,1,0,0:0:0:0:
256,192,6831,1,8,0:0:0:0:
256,192,7537,1,0,0:0:0:0:
256,192,7890,1,8,0:0:0:0:
256,192,8243,1,8,0:0:0:0:
256,192,8595,1,0,0:0:0:0:
256,192,8948,1,8,0:0:0:0:
256,192,9125,1,0,0:0:0:0:
256,192,9654,1,8,0:0:0:0:
256,192,10007,1,0,0:0:0:0:
256,192,11418,1,0,0:0:0:0:
256,192,11771,1,8,0:0:0:0:
256,192,11948,1,0,0:0:0:0:
256,192,12477,1,8,0:0:0:0:
256,192,13183,1,0,0:0:0:0:
256,192,13536,1,8,0:0:0:0:
256,192,13888,1,8,0:0:0:0:
256,192,14241,1,0,0:0:0:0:
256,192,14771,1,8,0:0:0:0:
256,192,15300,1,0,0:0:0:0:
256,192,15476,1,8,0:0:0:0:
256,192,17064,1,0,0:0:0:0:
256,192,17417,1,0,0:0:0:0:
256,192,17594,1,8,0:0:0:0:
256,192,18123,1,8,0:0:0:0:
256,192,18829,1,8,0:0:0:0:
256,192,19182,1,0,0:0:0:0:
256,192,19887,1,8,0:0:0:0:
256,192,20240,1,0,0:0:0:0:
256,192,20417,1,8,0:0:0:0:
256,192,20946,1,8,0:0:0:0:
256,192,22004,1,0,0:0:0:0:
256,192,22710,1,0,0:0:0:0:
256,192,23063,1,0,0:0:0:0:
256,192,23240,1,8,0:0:0:0:
256,192,23769,1,8,0:0:0:0:
256,192,24475,1,0,0:0:0:0:
256,192,24827,1,8,0:0:0:0:
256,192,25180,1,0,0:0:0:0:
256,192,25533,1,0,0:0:0:0:
256,192,25886,1,0,0:0:0:0:
256,192,26062,1,8,0:0:0:0:
256,192,26592,1,8,0:0:0:0:
256,192,28356,1,0,0:0:0:0:
256,192,28709,1,0,0:0:0:0:
256,192,28885,1,8,0:0:0:0:
256,192,29415,1,8,0:0:0:0:
256,192,30121,1,8,0:0:0:0:
256,192,30473,1,0,0:0:0:0:
256,192,31179,1,8,0:0:0:0:
256,192,31708,1,0,0:0:0:0:
256,192,32238,1,8,0:0:0:0:
256,192,33826,1,8,0:0:0:0:
256,192,34708,1,0,0:0:0:0:
256,192,36119,1,4,0:0:0:0:
256,192,36825,1,8,0:0:0:0:
256,192,37178,1,0,0:0:0:0:
256,192,37531,1,0,0:0:0:0:
256,192,37884,1,8,0:0:0:0:
256,192,38060,1,8,0:0:0:0:
256,192,38237,1,0,0:0:0:0:
256,192,38589,1,0,0:0:0:0:
256,192,38942,1,8,0:0:0:0:
256,192,39119,1,8,0:0:0:0:
256,192,39472,1,0,0:0:0:0:
256,192,39824,1,8,0:0:0:0:
256,192,40177,1,0,0:0:0:0:
256,192,40354,1,8,0:0:0:0:
256,192,40707,1,8,0:0:0:0:
256,192,40883,1,8,0:0:0:0:
256,192,41059,1,0,0:0:0:0:
256,192,41412,1,0,0:0:0:0:
256,192,41765,1,0,0:0:0:0:
256,192,41942,1,0,0:0:0:0:
256,192,42118,1,8,0:0:0:0:
256,192,42295,1,8,0:0:0:0:
256,192,43000,1,0,0:0:0:0:
256,192,43177,1,8,0:0:0:0:
256,192,43530,1,8,0:0:0:0:
256,192,43882,1,0,0:0:0:0:
256,192,44235,1,8,0:0:0:0:
256,192,44412,1,8,0:0:0:0:
256,192,44588,1,0,0:0:0:0:
256,192,44941,1,0,0:0:0:0:
256,192,45118,1,0,0:0:0:0:
256,192,45823,1,0,0:0:0:0:
256,192,46000,1,8,0:0:0:0:
256,192,46353,1,8,0:0:0:0:
256,192,46529,1,8,0:0:0:0:
256,192,46882,1,0,0:0:0:0:
256,192,47411,1,0,0:0:0:0:
256,192,47764,1,0,0:0:0:0:
256,192,47940,1,8,0:0:0:0:
256,192,48293,1,8,0:0:0:0:
256,192,48823,1,0,0:0:0:0:
256,192,49176,1,8,0:0:0:0:
256,192,49352,1,0,0:0:0:0:
256,192,49705,1,0,0:0:0:0:
256,192,49881,1,8,0:0:0:0:
256,192,50058,1,8,0:0:0:0:
256,192,50234,1,0,0:0:0:0:
256,192,50587,1,0,0:0:0:0:
256,192,50763,1,8,0:0:0:0:
256,192,51469,1,0,0:0:0:0:
256,192,51646,1,8,0:0:0:0:
256,192,51998,1,8,0:0:0:0:
256,192,52175,1,0,0:0:0:0:
256,192,52351,1,0,0:0:0:0:
256,192,52704,1,0,0:0:0:0:
256,192,53057,1,8,0:0:0:0:
256,192,53410,1,8,0:0:0:0:
256,192,53586,1,8,0:0:0:0:
256,192,54292,1,0,0:0:0:0:
256,192,54469,1,8,0:0:0:0:
256,192,54645,1,8,0:0:0:0:
256,192,54821,1,0,0:0:0:0:
256,192,55174,1,0,0:0:0:0:
256,192,55527,1,0,0:0:0:0:
256,192,55880,1,0,0:0:0:0:
256,192,56233,1,8,0:0:0:0:
256,192,56409,1,0,0:0:0:0:
256,192,57292,1,0,0:0:0:0:
256,192,57997,1,12,0:0:0:0:
256,192,58174,1,8,0:0:0:0:
256,192,58527,1,4,0:0:0:0:
256,192,58703,1,0,0:0:0:0:
256,192,59056,1,0,0:0:0:0:
256,192,59409,1,0,0:0:0:0:
256,192,59585,1,0,0:0:0:0:
256,192,59762,1,8,0:0:0:0:
256,192,60291,1,0,0:0:0:0:
256,192,60467,1,8,0:0:0:0:
256,192,60820,1,8,0:0:0:0:
256,192,60997,1,0,0:0:0:0:
256,192,61173,1,8,0:0:0:0:
256,192,61526,1,8,0:0:0:0:
256,192,61702,1,0,0:0:0:0:
256,192,61879,1,8,0:0:0:0:
256,192,62055,1,8,0:0:0:0:
256,192,62232,1,8,0:0:0:0:
256,192,62937,1,8,0:0:0:0:
256,192,63114,1,8,0:0:0:0:
256,192,63290,1,0,0:0:0:0:
256,192,63643,1,8,0:0:0:0:
256,192,63996,1,0,0:0:0:0:
256,192,64349,1,0,0:0:0:0:
256,192,64702,1,8,0:0:0:0:
256,192,65055,1,8,0:0:0:0:
256,192,65584,1,8,0:0:0:0:
256,192,65937,1,0,0:0:0:0:
256,192,66113,1,0,0:0:0:0:
256,192,66466,1,8,0:0:0:0:
256,192,66819,1,0,0:0:0:0:
256,192,67172,1,8,0:0:0:0:
256,192,67348,1,0,0:0:0:0:
256,192,67525,1,8,0:0:0:0:
256,192,67701,1,0,0:0:0:0:
256,192,67878,1,0,0:0:0:0:
256,192,68760,1,0,0:0:0:0:
256,192,68936,1,8,0:0:0:0:
256,192,69289,1,0,0:0:0:0:
256,192,69642,1,8,0:0:0:0:
256,192,70171,1,0,0:0:0:0:
256,192,70348,1,8,0:0:0:0:
256,192,70701,1,0,0:0:0:0:
256,192,70877,1,0,0:0:0:0:
256,192,71053,1,8,0:0:0:0:
256,192,71583,1,0,0:0:0:0:
256,192,71759,1,8,0:0:0:0:
256,192,72112,1,8,0:0:0:0:
256,192,72289,1,0,0:0:0:0:
256,192,72465,1,8,0:0:0:0:
256,192,72818,1,8,0:0:0:0:
256,192,72994,1,0,0:0:0:0:
256,192,73171,1,8,0:0:0:0:
256,192,73347,1,8,0:0:0:0:
256,192,73524,1,8,0:0:0:0:
256,192,74229,1,8,0:0:0:0:
256,192,74406,1,8,0:0:0:0:
256,192,74582,1,0,0:0:0:0:
256,192,74935,1,0,0:0:0:0:
256,192,75288,1,8,0:0:0:0:
256,192,75641,1,8,0:0:0:0:
256,192,75994,1,0,0:0:0:0:
256,192,76347,1,8,0:0:0:0:
256,192,76876,1,8,0:0:0:0:
256,192,77229,1,0,0:0:0:0:
256,192,77405,1,0,0:0:0:0:
256,192,77758,1,8,0:0:0:0:
256,192,78111,1,0,0:0:0:0:
256,192,78464,1,8,0:0:0:0:
256,192,78640,1,0,0:0:0:0:
256,192,78817,1,8,0:0:0:0:
256,192,78993,1,8,0:0:0:0:
256,192,79170,1,0,0:0:0:0:
256,192,80052,1,0,0:0:0:0:
256,192,80228,1,8,0:0:0:0:
256,192,80581,1,0,0:0:0:0:
256,192,80934,1,8,0:0:0:0:
256,192,81463,1,0,0:0:0:0:
256,192,81640,1,8,0:0:0:0:
256,192,81992,1,0,0:0:0:0:
256,192,82169,1,0,0:0:0:0:
256,192,82345,1,8,0:0:0:0:
256,192,82875,1,0,0:0:0:0:
256,192,83051,1,8,0:0:0:0:
256,192,83404,1,8,0:0:0:0:
256,192,83580,1,0,0:0:0:0:
256,192,83757,1,8,0:0:0:0:
256,192,84110,1,0,0:0:0:0:
256,192,84286,1,0,0:0:0:0:
256,192,84463,1,8,0:0:0:0:
256,192,84639,1,8,0:0:0:0:
256,192,84815,1,8,0:0:0:0:
256,192,85521,1,8,0:0:0:0:
256,192,85698,1,0,0:0:0:0:
256,192,85874,1,0,0:0:0:0:
256,192,86227,1,0,0:0:0:0:
256,192,86580,1,8,0:0:0:0:
256,192,86933,1,8,0:0:0:0:
256,192,87286,1,0,0:0:0:0:
256,192,87638,1,8,0:0:0:0:
256,192,88168,1,8,0:0:0:0:
256,192,88521,1,0,0:0:0:0:
256,192,88697,1,8,0:0:0:0:
256,192,89050,1,8,0:0:0:0:
256,192,89403,1,0,0:0:0:0:
256,192,89756,1,8,0:0:0:0:
256,192,89932,1,8,0:0:0:0:
256,192,90109,1,0,0:0:0:0:
256,192,90285,1,0,0:0:0:0:
256,192,90461,1,8,0:0:0:0:
256,192,91344,1,0,0:0:0:0:
256,192,91520,1,8,0:0:0:0:
256,192,91873,1,0,0:0:0:0:
256,192,92226,1,8,0:0:0:0:
256,192,92755,1,0,0:0:0:0:
256,192,92931,1,8,0:0:0:0:
256,192,93284,1,0,0:0:0:0:
256,192,93461,1,0,0:0:0:0:
256,192,93637,1,8,0:0:0:0:
256,192,94167,1,0,0:0:0:0:
256,192,94343,1,8,0:0:0:0:
256,192,94696,1,0,0:0:0:0:
256,192,94872,1,0,0:0:0:0:
256,192,95049,1,8,0:0:0:0:
256,192,95402,1,0,0:0:0:0:
256,192,95578,1,0,0:0:0:0:
256,192,95754,1,8,0:0:0:0:
256,192,95931,1,8,0:0:0:0:
256,192,96107,1,8,0:0:0:0:
256,192,96813,1,8,0:0:0:0:
256,192,96989,1,0,0:0:0:0:
256,192,97166,1,0,0:0:0:0:
256,192,97519,1,0,0:0:0:0:
256,192,97872,1,8,0:0:0:0:
256,192,98225,1,0,0:0:0:0:
256,192,98577,1,8,0:0:0:0:
256,192,98930,1,8,0:0:0:0:
256,192,99460,1,0,0:0:0:0:
256,192,99812,1,0,0:0:0:0:
256,192,99989,1,8,0:0:0:0:
256,192,100342,1,8,0:0:0:0:
256,192,100695,1,0,0:0:0:0:
256,192,101047,1,8,0:0:0:0:
256,192,101224,1,0,0:0:0:0:
256,192,101400,1,8,0:0:0:0:
256,192,101577,1,8,0:0:0:0:
256,192,101753,1,0,0:0:0:0:
256,192,102635,1,0,0:0:0:0:
256,192,102812,1,8,0:0:0:0:
256,192,103165,1,0,0:0:0:0:
256,192,103518,1,8,0:0:0:0:
256,192,104047,1,0,0:0:0:0:
256,192,104223,1,8,0:0:0:0:
256,192,104576,1,0,0:0:0:0:
