osu file format v14

[General]
AudioFilename: audio.mp3
AudioLeadIn: 0
PreviewTime: 59411
Countdown: 0
SampleSet: Soft
StackLeniency: 0.3
Mode: 0
LetterboxInBreaks: 0
EpilepsyWarning: 1
WidescreenStoryboard: 1

[Editor]
Bookmarks: 125,5772,11419,17066,22713,28360,36830,42477,48124,53772,59419,70713,82007,93301,104595
DistanceSpacing: 1.3
BeatDivisor: 4
GridSize: 32
TimelineZoom: 2.999999

[Metadata]
Title:poslednyaya pesnya o ney
TitleUnicode:последняя песня о ней
Artist:egor nats
ArtistUnicode:егор натс
Creator:Daycore
Version:her priceless beauty
Source:
Tags:drum and bass dnb russian русский барханов alumetri cami gordon123 gordon yamakudzi mikan mikan- marvollo m_a_r_v_o_l_l_o shmiklak
BeatmapID:1831032
BeatmapSetID:844319

[Difficulty]
HPDrainRate:6
CircleSize:4.2
OverallDifficulty:9
ApproachRate:9.5
SliderMultiplier:1.7
SliderTickRate:0.5

[Events]
//Background and Video events
0,0,"porter poggerson.jpg",0,0
//Break Periods
//Storyboard Layer 0 (Background)
//Storyboard Layer 1 (Fail)
//Storyboard Layer 2 (Pass)
//Storyboard Layer 3 (Foreground)
//Storyboard Sound Samples

[TimingPoints]
137,352.941176470588,4,2,1,30,1,0
137,-166.666666666667,4,2,1,30,0,0
5774,352.941176470588,4,2,1,30,1,0
5774,-166.666666666667,4,2,1,30,0,0
11409,353.982300884956,4,2,1,30,1,0
11409,-111.111111111111,4,2,1,30,0,0
20878,-111.111111111111,4,2,1,5,0,0
20966,-111.111111111111,4,2,1,30,0,0
22626,-111.111111111111,4,2,1,5,0,0
22718,355.029585798817,4,2,1,30,1,0
22718,-111.111111111111,4,2,1,30,0,0
28389,350.877192982456,4,2,1,30,1,0
28389,-111.111111111111,4,2,1,30,0,0
32160,-111.111111111111,4,2,1,5,0,0
32248,-111.111111111111,4,2,1,30,0,0
36108,-1000,4,3,5,15,0,0
36459,-1000,4,3,5,5,0,0
36722,-1000,4,3,5,5,0,0
36827,352.733686067019,4,2,1,30,1,0
36827,-111.111111111111,4,2,1,30,0,0
56580,-111.111111111111,4,3,5,50,0,0
57991,-111.111111111111,4,2,1,50,0,0
58520,-111.111111111111,4,2,1,40,0,0
59049,-111.111111111111,4,2,1,30,0,0
59406,352.941176470588,4,2,1,65,1,0
59406,-76.9230769230769,4,2,1,65,0,1
69288,-62.5,4,2,1,65,0,1
70523,-52.6315789473684,4,2,1,65,0,0
70700,-76.9230769230769,4,2,1,65,0,1
71053,-76.9230769230769,4,2,1,65,0,1
80582,-62.5,4,2,1,65,0,1
81817,-52.6315789473684,4,2,1,65,0,0
81994,-76.9230769230769,4,2,1,65,0,1
91876,-52.6315789473684,4,2,1,65,0,1
93111,-52.6315789473684,4,2,1,65,0,0
93288,-76.9230769230769,4,2,1,65,0,1
93641,-76.9230769230769,4,2,1,65,0,1
104582,-76.9230769230769,4,2,1,45,0,0

[Colours]
Combo1 : 255,94,94
Combo2 : 0,128,255
Combo3 : 46,207,254
Combo4 : 128,255,128

[HitObjects]
62,134,137,5,2,0:0:0:0:
143,125,489,2,0,P|141:152|128:184,1,50.9999984436036,2|0,0:0|0:0,0:0:0:0:
208,242,1195,2,0,P|183:269|148:169,1,203.999993774414,2|0,0:0|0:0,0:0:0:0:
263,187,2254,2,0,P|282:236|265:293,1,101.999996887207,2|0,0:0|0:0,0:0:0:0:
270,282,5774,5,2,0:0:0:0:
304,216,6126,2,0,P|260:208|242:212,1,50.9999984436036,2|0,0:0|0:0,0:0:0:0:
252,92,6832,2,0,P|185:152|255:209,1,203.999993774414,2|0,0:0|0:0,0:0:0:0:
354,224,7891,2,0,P|327:217|251:209,1,101.999996887207,2|0,0:0|0:0,0:0:0:0:
373,89,8597,5,0,0:0:0:0:
373,89,8950,2,0,P|346:119|340:147,1,50.9999984436036,2|0,0:0|0:0,0:0:0:0:
354,224,9656,1,2,0:0:0:0:
349,313,11409,5,0,0:0:0:0:
378,236,11762,2,0,P|396:182|416:162,1,76.4999976654053,2|0,0:0|0:0,0:0:0:0:
504,3,12470,2,0,B|462:52|504:109|504:109|547:184|470:212|470:212|496:178|469:125,1,305.999990661621,2|2,0:0|0:0,0:0:0:0:
392,99,13355,1,0,0:0:0:0:
392,99,13532,2,0,P|393:149|420:190,1,76.4999976654053,2|0,0:0|0:0,0:0:0:0:
354,297,13886,2,0,P|353:247|326:206,1,76.4999976654053,2|0,0:0|0:0,0:0:0:0:
132,326,14240,6,0,B|187:313|187:313|211:288|211:288|295:269,1,152.999995330811,2|0,0:0|0:0,0:0:0:0:
271,275,14771,2,0,P|256:239|259:202,1,76.4999976654053,2|0,0:0|0:0,0:0:0:0:
177,186,15125,2,0,P|207:135|341:180,1,229.499992996216,2|0,0:0|0:0,0:0:0:0:
367,253,15833,2,0,P|411:217|417:185,1,76.4999976654053
400,125,16187,1,0,0:0:0:0:
462,79,16364,2,0,P|428:53|331:88,1,152.999995330811
179,71,17072,6,0,B|157:106|183:142|183:142|210:184|181:233,1,152.999995330811,2|0,0:0|0:0,0:0:0:0:
123,254,17603,2,0,P|171:291|255:257,1,152.999995330811,2|0,0:0|0:0,0:0:0:0:
189,215,18134,2,0,B|208:176|172:124|172:124|204:149|240:135,1,152.999995330811,2|0,0:0|0:0,0:0:0:0:
298,122,18665,1,0,0:0:0:0:
350,66,18842,6,0,P|373:106|368:146,1,76.4999976654053,2|0,0:0|0:0,0:0:0:0:
353,209,19196,2,0,P|373:244|446:185,1,152.999995330811,2|0,0:0|0:0,0:0:0:0:
453,122,19727,1,0,0:0:0:0:
449,199,19904,2,0,P|453:259|467:298,1,76.4999976654053,2|0,0:0|0:0,0:0:0:0:
494,341,20258,2,0,P|446:353|404:324,1,76.4999976654053
349,320,20612,2,0,B|265:312|265:312|227:329,1,114.749996498108
206,348,20966,1,2,0:0:0:0:
174,278,21143,6,0,B|174:260|162:246|162:246|175:235|182:203,2,76.4999976654053
98,294,21674,2,0,P|82:243|91:209,1,76.4999976654053
93,145,22028,2,0,B|115:118|115:118|366:96,1,267.749991828919
347,97,22718,6,0,B|363:135|363:135|328:265,1,152.999995330811,2|2,0:0|0:0,0:0:0:0:
333,242,23783,2,0,P|372:336|474:227,1,305.999990661621,2|2,0:0|0:0,0:0:0:0:
440,153,24670,1,0,0:0:0:0:
440,153,24848,2,0,P|439:113|450:62,1,76.4999976654053,2|0,0:0|0:0,0:0:0:0:
357,71,25203,2,0,P|358:111|347:162,1,76.4999976654053,2|0,0:0|0:0,0:0:0:0:
273,178,25558,6,0,B|178:169|178:169|150:152|150:152|30:136,2,229.499992996216,2|2|2,0:0|0:0|0:0,0:0:0:0:
351,146,26800,1,0,0:0:0:0:
413,198,26978,2,0,P|377:224|327:221,1,76.4999976654053
285,91,27333,2,0,P|320:64|370:67,1,76.4999976654053
441,100,27688,1,0,0:0:0:0:
441,100,28389,6,0,P|445:154|470:261,1,152.999995330811,2|0,0:0|0:0,0:0:0:0:
331,343,28915,2,0,P|349:269|357:193,1,152.999995330811,2|0,0:0|0:0,0:0:0:0:
231,124,29441,2,0,P|238:200|256:274,1,152.999995330811,2|0,0:0|0:0,0:0:0:0:
331,343,29967,1,0,0:0:0:0:
256,274,30143,2,0,B|219:264|219:264|155:285,1,76.4999976654053,2|0,0:0|0:0,0:0:0:0:
123,334,30494,2,0,P|100:281|154:193,1,152.999995330811,2|0,0:0|0:0,0:0:0:0:
224,182,31020,1,0,0:0:0:0:
139,200,31196,6,0,B|139:157|139:157|107:109,1,76.4999976654053,2|0,0:0|0:0,0:0:0:0:
61,33,31546,2,0,B|103:39|103:39|158:24,1,76.4999976654053
230,12,31897,2,0,P|226:54|311:73,1,114.749996498108
318,74,32248,1,2,0:0:0:0:
390,99,32424,2,0,B|389:121|384:142|384:142|390:167|386:197,2,76.4999976654053
441,243,32950,2,0,P|388:260|363:253,1,76.4999976654053
313,203,33301,6,0,P|291:241|314:309,2,114.749996498108
279,145,36108,6,0,L|287:114,1,29.75,0|0,2:3|0:0,0:0:0:0:
234,63,36827,6,0,P|274:42|333:58,1,76.4999976654053,0|0,3:0|0:0,3:0:0:0:
405,108,37179,1,0,0:0:0:0:
359,230,37356,1,0,3:0:0:0:
455,230,37532,2,0,P|403:226|350:228,1,76.4999976654053
253,307,37885,1,8,0:0:0:0:
212,175,38061,1,0,0:0:0:0:
162,347,38237,6,0,P|174:298|170:256,1,76.4999976654053,2|0,0:0|0:0,0:0:0:0:
219,165,38590,1,0,0:0:0:0:
102,200,38767,1,0,0:0:0:0:
256,64,38943,1,8,0:0:0:0:
121,90,39119,2,0,P|159:57|186:12,1,76.4999976654053
352,140,39472,1,2,0:0:0:0:
352,140,39560,1,2,0:0:0:0:
352,140,39648,6,0,P|404:132|460:209,1,152.999995330811,0|0,3:0|0:0,0:0:0:0:
454,356,40177,1,0,3:0:0:0:
454,356,40354,2,0,P|398:349|347:368,1,76.4999976654053
280,370,40707,1,8,0:0:0:0:
176,359,40883,1,2,0:0:0:0:
176,359,40971,1,2,0:0:0:0:
176,359,41059,6,0,P|192:321|181:261,1,76.4999976654053,2|0,0:0|0:0,0:0:0:0:
84,115,41412,2,0,P|73:151|72:189,1,76.4999976654053
83,12,41765,1,8,0:0:0:0:
176,62,41941,2,0,P|187:98|188:136,1,76.4999976654053
298,16,42294,1,2,0:0:0:0:
298,16,42382,1,2,0:0:0:0:
298,16,42470,6,0,P|293:75|316:171,1,152.999995330811,0|0,3:0|0:0,0:0:0:0:
431,297,42999,1,0,3:0:0:0:
431,297,43176,2,0,P|391:310|345:292,1,76.4999976654053
292,236,43528,1,8,0:0:0:0:
224,342,43705,1,2,0:0:0:0:
224,342,43793,1,2,0:0:0:0:
224,342,43881,6,0,B|252:264|187:289|225:174,1,152.999995330811,2|0,0:0|0:0,0:0:0:0:
259,76,44410,1,0,3:0:0:0:
68,112,44587,2,0,B|121:114|170:109|170:109,1,76.4999976654053,8|0,0:0|0:0,0:0:0:0:
275,68,44939,1,0,0:0:0:0:
288,235,45116,1,2,0:0:0:0:
288,235,45204,1,2,0:0:0:0:
288,235,45292,6,0,B|323:222|323:222|455:229,1,152.999995330811,0|0,3:0|0:0,0:0:0:0:
466,308,45821,1,0,3:0:0:0:
456,155,45998,2,0,P|437:212|449:258,1,76.4999976654053
473,329,46350,1,8,0:0:0:0:
313,311,46527,6,0,P|244:305|203:219,2,152.999995330811,2|0|0,0:0|0:0|0:0,0:0:0:0:
87,355,47409,2,0,P|127:364|174:344,1,76.4999976654053,8|0,0:0|0:0,0:0:0:0:
124,270,47761,1,0,0:0:0:0:
198,212,47938,1,2,0:0:0:0:
198,212,48026,1,2,0:0:0:0:
198,212,48114,6,0,P|150:185|49:216,1,152.999995330811,0|0,3:0|0:0,0:0:0:0:
88,87,48643,1,0,3:0:0:0:
88,87,48819,2,0,P|125:98|176:73,1,76.4999976654053
251,24,49172,1,8,0:0:0:0:
290,264,49349,6,0,P|254:222|274:100,1,152.999995330811,2|0,0:0|0:0,0:0:0:0:
338,180,49878,1,0,0:0:0:0:
384,258,50054,1,0,0:0:0:0:
324,339,50230,2,0,B|285:349|285:349|232:331,1,76.4999976654053,8|0,0:0|0:0,0:0:0:0:
384,258,50583,1,0,0:0:0:0:
480,365,50759,1,2,0:0:0:0:
480,365,50848,1,2,0:0:0:0:
480,365,50936,6,0,P|473:296|487:201,1,152.999995330811,0|0,3:0|0:0,0:0:0:0:
461,101,51465,1,0,3:0:0:0:
356,76,51641,2,0,B|341:76|341:76|276:101,1,76.4999976654053
198,145,51994,1,8,0:0:0:0:
305,231,52170,1,2,0:0:0:0:
305,231,52259,1,2,0:0:0:0:
305,231,52347,6,0,B|272:201|226:219|226:219|186:237|131:200,1,152.999995330811,2|0,0:0|0:0,0:0:0:0:
259,291,52876,1,0,0:0:0:0:
189,69,53052,2,0,P|198:124|196:157,1,76.4999976654053,8|0,0:0|0:0,0:0:0:0:
133,304,53405,1,0,0:0:0:0:
254,314,53581,1,2,0:0:0:0:
254,314,53670,1,2,0:0:0:0:
254,314,53758,6,0,B|277:298|277:298|426:305,1,152.999995330811,0|0,3:0|0:0,0:0:0:0:
495,348,54287,1,0,3:0:0:0:
485,178,54463,2,0,P|492:224|483:267,1,76.4999976654053
371,141,54816,1,8,0:0:0:0:
453,36,54992,1,2,0:0:0:0:
453,36,55080,1,2,0:0:0:0:
453,36,55169,6,0,B|408:14|372:40|372:40|336:65|289:30,1,152.999995330811,2|0,0:0|0:0,0:0:0:0:
190,14,55698,1,0,0:0:0:0:
101,132,55874,2,0,P|130:117|187:115,1,76.4999976654053,8|0,0:0|0:0,0:0:0:0:
385,194,56227,2,0,P|348:212|297:207,1,76.4999976654053
244,166,56491,1,0,0:0:0:0:
244,166,56580,5,8,2:3:0:0:
465,107,57991,5,0,3:0:0:0:
403,1,58167,1,8,0:0:0:0:
403,1,58520,5,0,3:0:0:0:
315,77,58696,1,8,0:0:0:0:
315,77,59049,5,8,0:0:0:0:
213,47,59225,1,8,0:0:0:0:
211,194,59406,6,0,P|179:233|174:294,1,110.499994941712,6|0,3:2|3:0,0:0:0:0:
314,189,59759,1,8,0:0:0:0:
227,75,59935,1,2,0:0:0:0:
227,75,60023,1,2,0:0:0:0:
227,75,60111,1,2,0:0:0:0:
329,211,60288,1,0,3:0:0:0:
311,8,60464,1,8,0:0:0:0:
224,178,60641,1,0,0:0:0:0:
474,214,60817,6,0,B|477:286|477:286|504:332,2,110.499994941712,0|0|8,3:0|0:0|0:0,0:0:0:0:
414,108,61347,1,0,0:0:0:0:
414,108,61435,1,0,0:0:0:0:
414,108,61523,2,0,L|341:115,1,55.2499974708558,2|0,0:0|0:0,0:0:0:0:
278,150,61700,2,0,L|205:157,1,55.2499974708558,0|0,3:0|0:0,0:0:0:0:
138,106,61876,5,8,0:0:0:0:
120,158,61964,1,0,3:0:0:0:
138,210,62053,1,0,3:0:0:0:
185,238,62141,1,8,0:0:0:0:
240,237,62229,6,0,L|151:329,1,110.499994941712,0|0,3:0|0:0,0:0:0:0:
128,352,62494,1,0,0:0:0:0:
128,352,62582,1,8,0:0:0:0:
60,252,62759,1,0,0:0:0:0:
242,316,62935,1,2,0:0:0:0:
201,94,63111,1,0,3:0:0:0:
43,268,63288,1,8,0:0:0:0:
255,232,63464,1,0,0:0:0:0:
135,39,63641,6,0,P|202:8|249:21,1,110.499994941712,0|0,3:0|0:0,0:0:0:0:
280,37,63906,1,0,0:0:0:0:
280,37,63994,2,0,P|334:40|380:12,1,110.499994941712,8|0,0:0|0:0,0:0:0:0:
493,27,64347,6,0,P|514:86|488:158,1,110.499994941712,2|0,0:0|3:0,0:0:0:0:
472,176,64611,1,0,0:0:0:0:
472,176,64700,1,8,0:0:0:0:
386,245,64876,1,0,0:0:0:0:
386,245,64964,1,0,0:0:0:0:
386,245,65053,6,0,B|382:305|382:305|353:364,1,110.499994941712,0|0,3:0|3:0,0:0:0:0:
356,113,65406,1,8,0:0:0:0:
484,268,65582,1,2,0:0:0:0:
484,268,65670,1,2,0:0:0:0:
484,268,65759,1,2,0:0:0:0:
484,27,65935,1,0,3:0:0:0:
264,143,66111,1,8,0:0:0:0:
473,160,66288,1,0,0:0:0:0:
144,61,66464,6,0,P|130:120|118:181,1,110.499994941712,0|0,3:0|0:0,0:0:0:0:
119,337,66817,1,8,0:0:0:0:
238,136,66994,1,0,0:0:0:0:
238,136,67082,1,0,0:0:0:0:
238,136,67170,2,0,L|314:125,1,55.2499974708558,2|0,0:0|0:0,0:0:0:0:
288,254,67347,2,0,L|212:243,1,55.2499974708558,0|0,3:0|0:0,0:0:0:0:
365,101,67523,5,8,0:0:0:0:
396,139,67611,1,0,3:0:0:0:
405,188,67700,1,0,3:0:0:0:
388,234,67788,1,8,0:0:0:0:
363,277,67876,6,0,B|420:287|420:287|487:264,1,110.499994941712,0|0,3:0|0:0,0:0:0:0:
302,346,68229,1,8,0:0:0:0:
395,190,68406,1,2,0:0:0:0:
395,190,68494,1,2,0:0:0:0:
395,190,68582,1,2,0:0:0:0:
421,357,68759,1,0,3:0:0:0:
256,224,68935,1,8,0:0:0:0:
442,264,69111,1,0,0:0:0:0:
113,247,69288,6,0,B|116:179|126:85,2,136,2|0|8,3:2|0:0|0:0,0:0:0:0:
257,318,69817,1,2,0:0:0:0:
257,318,69906,1,0,0:0:0:0:
257,318,69994,1,0,0:0:0:0:
399,247,70170,2,0,B|395:171|387:83,2,136,0|10|2,3:0|0:0|0:0,0:0:0:0:
314,48,70700,6,0,P|348:15|443:35,1,110.499994941712,0|0,3:0|3:0,0:0:0:0:
302,154,71053,1,8,0:0:0:0:
188,36,71229,1,2,0:0:0:0:
188,36,71317,1,2,0:0:0:0:
188,36,71406,1,2,0:0:0:0:
83,188,71582,1,0,3:0:0:0:
313,149,71759,1,8,0:0:0:0:
222,301,71935,1,0,0:0:0:0:
71,209,72111,6,0,B|126:194|126:194|200:220,2,110.499994941712,0|0|8,3:0|0:0|0:0,0:0:0:0:
50,55,72641,1,0,0:0:0:0:
50,55,72729,1,0,0:0:0:0:
50,55,72817,5,2,0:0:0:0:
91,38,72905,1,2,0:0:0:0:
135,37,72993,1,0,3:0:0:0:
176,53,73081,1,0,0:0:0:0:
209,83,73170,6,0,P|237:100|293:111,1,55.2499974708558,8|0,0:0|3:0,0:0:0:0:
373,22,73347,2,0,P|354:48|339:103,1,55.2499974708558,0|8,3:0|0:0,0:0:0:0:
336,322,73523,6,0,P|312:269|316:204,1,110.499994941712,0|0,3:0|0:0,0:0:0:0:
333,174,73788,1,0,0:0:0:0:
333,174,73876,1,8,0:0:0:0:
424,250,74053,1,0,0:0:0:0:
455,125,74229,1,2,0:0:0:0:
493,310,74406,1,0,3:0:0:0:
333,174,74582,1,8,0:0:0:0:
512,14,74759,1,0,0:0:0:0:
259,138,74935,6,0,P|259:212|291:245,1,110.499994941712,0|0,3:0|0:0,0:0:0:0:
324,260,75200,1,0,0:0:0:0:
324,260,75288,2,0,L|208:330,1,110.499994941712,8|0,0:0|0:0,0:0:0:0:
66,374,75641,6,0,P|66:300|34:267,1,110.499994941712,2|0,0:0|3:0,0:0:0:0:
1,252,75906,1,0,0:0:0:0:
1,252,75994,1,8,0:0:0:0:
110,112,76170,1,0,0:0:0:0:
110,112,76259,1,0,0:0:0:0:
110,112,76347,6,0,B|161:92|161:92|253:125,1,110.499994941712,0|0,3:0|3:0,0:0:0:0:
330,200,76700,1,8,0:0:0:0:
170,198,76876,1,2,0:0:0:0:
170,198,76964,1,2,0:0:0:0:
170,198,77053,1,2,0:0:0:0:
339,42,77229,1,0,3:0:0:0:
262,320,77406,1,8,0:0:0:0:
434,143,77582,1,0,0:0:0:0:
170,198,77759,6,0,B|170:110|170:110|133:55,1,110.499994941712,0|0,3:0|0:0,0:0:0:0:
116,284,78111,1,8,0:0:0:0:
282,259,78288,1,0,0:0:0:0:
282,259,78376,1,0,0:0:0:0:
282,259,78464,6,0,L|371:270,1,55.2499974708558,2|0,0:0|0:0,0:0:0:0:
336,118,78641,2,0,L|282:125,1,55.2499974708558,0|0,3:0|0:0,0:0:0:0:
175,346,78817,5,8,0:0:0:0:
247,346,78906,1,0,3:0:0:0:
318,342,78994,1,0,3:0:0:0:
390,342,79083,1,8,0:0:0:0:
460,334,79170,6,0,P|450:286|479:230,1,110.499994941712,0|0,3:0|0:0,0:0:0:0:
512,28,79523,1,8,0:0:0:0:
406,93,79700,1,2,0:0:0:0:
406,93,79788,1,2,0:0:0:0:
406,93,79876,1,2,0:0:0:0:
415,284,80053,1,0,3:0:0:0:
238,161,80229,1,8,0:0:0:0:
496,213,80406,1,0,0:0:0:0:
128,224,80582,6,0,B|100:147|129:171|96:64,2,136,2|0|8,3:2|0:0|0:0,0:0:0:0:
256,264,81111,1,2,0:0:0:0:
256,264,81200,1,0,0:0:0:0:
256,264,81288,1,0,0:0:0:0:
384,224,81464,2,0,B|413:139|383:172|416:64,2,136,0|8|2,3:0|0:0|0:0,0:0:0:0:
315,353,81994,6,0,L|190:343,1,110.499994941712,0|0,3:0|3:0,0:0:0:0:
34,260,82347,1,8,0:0:0:0:
167,112,82523,1,2,0:0:0:0:
167,112,82611,1,2,0:0:0:0:
167,112,82700,1,2,0:0:0:0:
204,344,82876,1,0,3:0:0:0:
60,151,83053,1,8,0:0:0:0:
212,223,83229,1,0,0:0:0:0:
378,36,83406,6,0,B|420:74|420:74|426:149,1,110.499994941712,0|0,3:0|0:0,0:0:0:0:
308,331,83759,1,8,0:0:0:0:
211,208,83935,1,0,0:0:0:0:
211,208,84023,1,0,0:0:0:0:
211,208,84111,6,0,P|168:195|129:198,1,55.2499974708558,2|0,0:0|0:0,0:0:0:0:
74,241,84288,1,0,3:0:0:0:
62,187,84376,1,0,0:0:0:0:
81,136,84464,1,8,0:0:0:0:
125,104,84552,1,0,3:0:0:0:
179,101,84640,1,0,3:0:0:0:
244,113,84729,1,8,0:0:0:0:
310,126,84817,6,0,B|349:136|349:136|355:141|355:141|429:164,1,110.499994941712,0|0,3:0|0:0,0:0:0:0:
292,27,85170,1,8,0:0:0:0:
332,232,85347,1,2,0:0:0:0:
332,232,85435,1,2,0:0:0:0:
332,232,85523,2,0,P|317:141|297:104,1,110.499994941712,2|0,0:0|3:0,0:0:0:0:
244,319,85876,1,8,0:0:0:0:
437,294,86053,1,0,0:0:0:0:
206,177,86229,5,0,3:0:0:0:
311,375,86406,1,0,0:0:0:0:
414,160,86582,2,0,P|347:223|309:241,1,110.499994941712,8|0,0:0|0:0,0:0:0:0:
164,254,86935,1,2,0:0:0:0:
257,57,87111,1,0,3:0:0:0:
429,281,87288,1,8,0:0:0:0:
206,177,87464,1,0,0:0:0:0:
497,239,87641,6,0,P|506:304|462:354,1,110.499994941712,0|0,3:0|3:0,0:0:0:0:
269,338,87994,1,8,0:0:0:0:
321,199,88170,1,2,0:0:0:0:
321,199,88259,1,2,0:0:0:0:
321,199,88347,1,2,0:0:0:0:
357,384,88523,1,0,3:0:0:0:
206,177,88700,1,8,0:0:0:0:
144,366,88876,1,0,0:0:0:0:
137,132,89053,6,0,P|178:99|237:101,1,110.499994941712,0|0,3:0|0:0,0:0:0:0:
429,281,89406,1,8,0:0:0:0:
213,185,89582,1,0,0:0:0:0:
213,185,89670,1,0,0:0:0:0:
213,185,89759,5,2,0:0:0:0:
273,188,89847,1,2,0:0:0:0:
333,194,89935,1,0,3:0:0:0:
393,198,90023,1,0,0:0:0:0:
453,202,90111,5,8,0:0:0:0:
492,144,90200,1,0,3:0:0:0:
482,74,90288,1,0,3:0:0:0:
428,30,90376,1,8,0:0:0:0:
356,19,90464,6,0,L|206:14,1,110.499994941712,0|0,3:0|0:0,0:0:0:0:
15,149,90817,1,8,0:0:0:0:
218,190,90994,1,2,0:0:0:0:
218,190,91082,1,2,0:0:0:0:
218,190,91170,1,2,0:0:0:0:
116,1,91347,1,0,3:0:0:0:
146,237,91523,1,8,0:0:0:0:
359,105,91700,1,0,0:0:0:0:
134,250,91876,5,2,3:2:0:0:
301,367,92052,1,0,0:0:0:0:
424,174,92229,1,8,0:0:0:0:
222,232,92406,5,2,0:0:0:0:
306,381,92582,1,0,0:0:0:0:
411,190,92759,1,0,3:0:0:0:
74,184,92935,5,8,0:0:0:0:
242,248,93111,1,2,0:0:0:0:
41,113,93288,6,0,P|89:106|147:156,1,110.499994941712,0|0,3:0|3:0,0:0:0:0:
199,347,93641,1,8,0:0:0:0:
81,192,93817,1,2,0:0:0:0:
81,192,93906,1,2,0:0:0:0:
81,192,93994,1,2,0:0:0:0:
126,380,94170,1,0,3:0:0:0:
139,139,94347,1,8,0:0:0:0:
15,249,94523,1,0,0:0:0:0:
272,311,94700,6,0,L|372:253,1,110.499994941712,0|0,3:0|0:0,0:0:0:0:
420,70,95053,1,8,0:0:0:0:
449,245,95229,1,0,0:0:0:0:
449,245,95317,1,0,0:0:0:0:
449,245,95406,6,0,P|418:195|380:180,1,55.2499974708558,2|0,0:0|0:0,0:0:0:0:
237,31,95582,1,0,3:0:0:0:
174,14,95670,1,0,0:0:0:0:
116,42,95758,1,8,0:0:0:0:
91,102,95846,1,0,3:0:0:0:
112,164,95934,1,0,3:0:0:0:
168,196,96023,1,8,0:0:0:0:
234,193,96111,6,0,L|372:177,1,110.499994941712,0|0,3:0|0:0,0:0:0:0:
174,14,96464,1,8,0:0:0:0:
13,108,96641,1,2,0:0:0:0:
13,108,96729,1,2,0:0:0:0:
13,108,96817,1,2,0:0:0:0:
151,268,96994,1,0,3:0:0:0:
100,35,97170,1,8,0:0:0:0:
5,196,97347,1,0,0:0:0:0:
132,357,97523,6,0,P|82:334|55:287,1,110.499994941712,0|0,3:0|0:0,0:0:0:0:
100,35,97876,1,8,0:0:0:0:
147,277,98053,1,2,0:0:0:0:
147,277,98141,1,2,0:0:0:0:
147,277,98229,1,2,0:0:0:0:
13,108,98406,1,0,3:0:0:0:
262,139,98582,1,8,0:0:0:0:
147,277,98759,1,0,0:0:0:0:
331,94,98935,6,0,P|281:57|205:80,1,110.499994941712,0|0,3:0|3:0,0:0:0:0:
57,184,99288,1,8,0:0:0:0:
269,146,99464,1,2,0:0:0:0:
269,146,99553,1,2,0:0:0:0:
269,146,99641,1,2,0:0:0:0:
80,102,99817,1,0,3:0:0:0:
190,303,99994,1,8,0:0:0:0:
40,177,100170,1,0,0:0:0:0:
345,123,100347,6,0,P|299:66|238:69,1,110.499994941712,0|0,3:0|0:0,0:0:0:0:
22,170,100700,1,8,0:0:0:0:
274,153,100876,1,0,0:0:0:0:
274,153,100964,1,0,0:0:0:0:
274,153,101053,6,0,P|289:182|352:196,1,55.2499974708558,2|0,0:0|0:0,0:0:0:0:
507,223,101229,1,0,3:0:0:0:
481,157,101317,1,0,0:0:0:0:
419,124,101405,1,8,0:0:0:0:
350,138,101493,1,0,0:0:0:0:
307,194,101581,1,0,3:0:0:0:
311,265,101670,1,8,0:0:0:0:
359,316,101758,6,0,P|316:309|249:321,1,110.499994941712,0|0,3:0|0:0,0:0:0:0:
93,129,102111,1,8,0:0:0:0:
306,134,102288,1,2,0:0:0:0:
306,134,102376,1,2,0:0:0:0:
306,134,102464,1,2,0:0:0:0:
78,236,102641,1,0,3:0:0:0:
284,20,102817,1,8,0:0:0:0:
93,129,102994,1,0,0:0:0:0:
363,57,103170,5,2,3:2:0:0:
226,374,103347,1,0,0:0:0:0:
234,16,103523,1,8,0:0:0:0:
389,201,103700,1,2,0:0:0:0:
385,205,103788,1,0,0:0:0:0:
381,209,103876,5,0,0:0:0:0:
30,330,104053,1,0,3:0:0:0:
231,5,104229,1,8,0:0:0:0:
437,351,104406,1,2,0:0:0:0:
433,348,104494,1,2,0:0:0:0:
429,344,104582,1,2,0:0:0:0:
