osu file format v14

[General]
AudioFilename: audio.mp3
AudioLeadIn: 0
PreviewTime: 59411
Countdown: 0
SampleSet: Soft
StackLeniency: 0.4
Mode: 0
LetterboxInBreaks: 0
EpilepsyWarning: 1
WidescreenStoryboard: 1

[Editor]
Bookmarks: 125,5772,11419,17066,22713,28360,36830,42477,48124,53772,59419,70713,82007,93301,104595
DistanceSpacing: 0.9
BeatDivisor: 4
GridSize: 16
TimelineZoom: 1

[Metadata]
Title:poslednyaya pesnya o ney
TitleUnicode:последняя песня о ней
Artist:egor nats
ArtistUnicode:егор натс
Creator:Daycore
Version:collab easy
Source:
Tags:drum and bass dnb russian русский барханов alumetri cami gordon123 gordon yamakudzi mikan mikan- marvollo m_a_r_v_o_l_l_o shmiklak
BeatmapID:1766218
BeatmapSetID:844319

[Difficulty]
HPDrainRate:3
CircleSize:3
OverallDifficulty:3
ApproachRate:3
SliderMultiplier:1
SliderTickRate:1

[Events]
//Background and Video events
0,0,"porter poggerson.jpg",0,0
//Break Periods
//Storyboard Layer 0 (Background)
//Storyboard Layer 1 (Fail)
//Storyboard Layer 2 (Pass)
//Storyboard Layer 3 (Foreground)
//Storyboard Sound Samples

[TimingPoints]
137,352.941176470588,4,2,1,30,1,0
137,-100,4,2,1,30,0,0
5774,352.941176470588,4,2,1,30,1,0
11409,353.982300884956,4,2,1,30,1,0
11409,-100,4,2,1,30,0,0
22718,355.029585798817,4,2,1,30,1,0
28389,350.877192982456,4,2,1,30,1,0
36108,-100,4,3,5,15,0,0
36459,-100,4,3,5,5,0,0
36744,-100,4,3,5,5,0,0
36827,352.733686067019,4,2,1,30,1,0
36827,-100,4,2,1,30,0,0
56580,-100,4,3,5,50,0,0
57991,-100,4,2,1,50,0,0
58520,-100,4,2,1,40,0,0
59049,-100,4,2,1,30,0,0
59406,352.941176470588,4,2,1,65,1,0
59406,-86.9565217391304,4,2,1,65,0,1
69288,-86.9565217391304,4,2,1,65,0,1
70523,-86.9565217391304,4,2,1,65,0,0
70700,-86.9565217391304,4,2,1,65,0,1
71053,-86.9565217391304,4,2,1,65,0,1
80582,-86.9565217391304,4,2,1,65,0,1
81817,-86.9565217391304,4,2,1,65,0,0
81994,-86.9565217391304,4,2,1,65,0,1
91876,-86.9565217391304,4,2,1,65,0,1
93111,-86.9565217391304,4,2,1,65,0,0
93288,-86.9565217391304,4,2,1,65,0,1
104582,-100,4,2,1,45,0,0

[Colours]
Combo1 : 255,94,94
Combo2 : 0,128,255
Combo3 : 46,207,254
Combo4 : 128,255,128

[HitObjects]
61,105,137,6,0,P|111:98|169:95,1,100,2|2,0:0|0:0,0:0:0:0:
330,36,1195,2,0,B|355:158|282:104|302:238,1,200,2|0,0:0|0:0,0:0:0:0:
255,305,2254,2,0,P|314:315|366:286,1,100,2|0,0:0|0:0,0:0:0:0:
491,62,5774,6,0,P|403:69|380:86,1,100,2|2,0:0|0:0,0:0:0:0:
241,177,6832,2,0,P|323:186|399:287,1,200,2|0,0:0|0:0,0:0:0:0:
335,338,7891,2,0,L|217:337,1,100,2|0,0:0|0:0,0:0:0:0:
144,299,8597,6,0,B|115:269|115:269|114:190,1,100,0|2,0:0|0:0,0:0:0:0:
198,46,9656,2,0,B|241:84|241:84|241:248,1,200,2|0,0:0|0:0,0:0:0:0:
241,226,11409,6,0,P|273:217|357:240,1,100,0|2,0:0|0:0,0:0:0:0:
465,355,12470,2,0,B|434:249|479:284|450:140,1,200,2|2,0:0|0:0,0:0:0:0:
459,67,13532,1,2,0:0:0:0:
459,67,13886,1,2,0:0:0:0:
369,71,14240,6,0,B|261:44|285:117|172:83,1,200,2|0,0:0|0:0,0:0:0:0:
95,40,15302,1,0,0:0:0:0:
21,92,15656,2,0,P|69:89|34:189,1,200
28,279,16718,1,0,0:0:0:0:
100,332,17072,6,0,B|147:311|147:311|316:345,1,200,2|0,0:0|0:0,0:0:0:0:
371,382,18134,2,0,B|394:345|370:291|370:291|337:231|370:176,1,200,2|2,0:0|0:0,0:0:0:0:
402,109,19196,1,2,0:0:0:0:
402,109,19550,1,0,0:0:0:0:
380,21,19904,6,0,P|306:43|259:169,1,200,2|0,0:0|0:0,0:0:0:0:
267,237,20966,2,0,P|223:258|74:209,1,200,2|0,0:0|0:0,0:0:0:0:
9,270,22028,1,0,0:0:0:0:
48,94,22718,6,0,P|84:113|152:106,1,100,2|2,0:0|0:0,0:0:0:0:
223,71,23428,1,0,0:0:0:0:
309,96,23783,2,0,B|352:127|397:97|397:97|456:69|501:115,1,200,2|2,0:0|0:0,0:0:0:0:
492,199,24848,1,2,0:0:0:0:
492,199,25203,1,2,0:0:0:0:
476,287,25558,6,0,B|449:318|449:318|330:349,2,150,2|2|2,0:0|0:0|0:0,0:0:0:0:
492,199,26978,2,0,P|482:148|397:209,1,200
392,200,28389,6,0,P|378:125|265:63,1,200,2|0,0:0|0:0,0:0:0:0:
188,61,29441,2,0,L|179:277,1,200,2|2,0:0|0:0,0:0:0:0:
119,327,30494,2,0,B|167:311|167:311|330:349,1,200,2|2,0:0|0:0,0:0:0:0:
443,354,31722,1,0,0:0:0:0:
354,252,32248,6,0,B|365:190|365:190|395:164|395:164|411:46|411:46|343:87|267:62|267:62|212:37|137:62,1,500
141,60,34704,1,0,0:0:0:0:
141,60,36108,6,0,P|124:86|124:170,1,100,8|0,0:0|0:0,0:0:0:0:
89,230,36827,6,0,B|121:256|179:217|179:217|230:182|292:226,1,200,0|0,3:0|0:0,0:0:0:0:
322,292,37885,1,8,0:0:0:0:
322,292,38237,2,0,B|357:250|357:250|355:138,2,150,2|0|0,0:0|0:0|0:0,0:0:0:0:
250,346,39648,6,0,P|291:379|349:376,1,100,0|0,3:0|0:0,0:0:0:0:
408,325,40354,1,0,0:0:0:0:
477,381,40707,2,0,B|512:339|512:339|512:222,2,150,8|0|8,0:0|0:0|0:0,0:0:0:0:
408,325,42118,1,0,0:0:0:0:
332,276,42470,6,0,P|289:229|236:224,1,100,0|0,3:0|0:0,0:0:0:0:
164,235,43176,1,0,0:0:0:0:
82,197,43528,2,0,B|44:137|44:137|43:50,2,150,8|0|8,0:0|0:0|0:0,0:0:0:0:
164,235,44939,1,0,0:0:0:0:
219,164,45292,6,0,P|261:122|301:115,1,100,0|0,3:0|0:0,0:0:0:0:
388,127,45998,1,0,0:0:0:0:
446,195,46350,2,0,P|459:265|456:366,2,150,8|0|8,0:0|0:0|0:0,0:0:0:0:
388,127,47761,1,0,0:0:0:0:
437,51,48114,6,0,P|374:35|306:100,1,150,0|0,3:0|3:0,0:0:0:0:
241,203,49172,1,8,0:0:0:0:
241,203,49525,2,0,B|215:241|148:246|148:246|190:277|187:343,1,200,0|8,0:0|0:0,0:0:0:0:
269,364,50583,1,0,0:0:0:0:
357,345,50936,6,0,B|378:300|378:300|416:281|416:281|442:225,1,150,0|0,3:0|3:0,0:0:0:0:
373,113,51994,1,8,0:0:0:0:
373,113,52347,2,0,B|352:104|352:104|263:109,2,100,2|0|8,0:0|0:0|0:0,0:0:0:0:
457,138,53405,1,0,0:0:0:0:
402,207,53758,6,0,B|353:236|353:236|243:232,1,150,0|0,3:0|3:0,0:0:0:0:
145,143,54816,1,8,0:0:0:0:
145,143,55169,2,0,B|73:154|77:215|77:215|131:263|176:234,1,200,2|8,0:0|0:0,0:0:0:0:
209,69,56580,5,8,0:0:0:0:
437,333,57991,2,0,B|430:279|430:279|449:255|449:255|435:168,2,150,0|0|8,3:0|3:0|0:0,0:0:0:0:
333,330,59406,6,0,B|284:308|284:308|103:335,1,230.000004386902,4|0,3:2|0:0,0:0:0:0:
73,236,60464,2,0,P|74:172|57:100,1,115.000002193451,8|0,0:0|3:0,0:0:0:0:
113,33,61170,1,8,0:0:0:0:
113,33,61523,2,0,P|170:-2|228:1,1,115.000002193451,2|8,0:0|0:0,0:0:0:0:
200,97,62229,6,0,B|172:171|172:171|172:238|172:238|229:326,1,230.000004386902,0|2,3:0|0:0,0:0:0:0:
294,378,63288,1,8,0:0:0:0:
294,378,63641,2,0,P|315:334|307:266,1,115.000002193451,0|8,3:0|0:0,0:0:0:0:
395,212,64347,2,0,P|346:172|274:174,1,115.000002193451,2|8,0:0|0:0,0:0:0:0:
315,65,65053,6,0,B|248:65|204:97|204:97|152:65|77:65,1,230.000004386902,0|2,3:0|0:0,0:0:0:0:
22,137,66111,1,8,0:0:0:0:
22,137,66464,2,0,P|55:161|59:253,1,115.000002193451,0|8,3:0|0:0,0:0:0:0:
58,333,67170,1,2,0:0:0:0:
58,333,67523,1,8,0:0:0:0:
153,371,67876,6,0,B|286:370,1,115.000002193451,0|8,3:0|0:0,0:0:0:0:
371,369,68582,2,0,P|377:350|376:242,1,115.000002193451,2|8,0:0|0:0,0:0:0:0:
279,226,69288,2,0,P|286:174|341:57,2,172.500003290176,2|2|10,3:2|0:0|0:0,0:0:0:0:
268,329,70700,1,0,3:0:0:0:
174,373,71053,6,0,L|148:120,1,230.000004386902,8|8,0:0|0:0,0:0:0:0:
174,43,72111,1,0,3:0:0:0:
174,43,72464,2,0,P|233:57|285:113,1,115.000002193451,8|2,0:0|0:0,0:0:0:0:
338,173,73170,1,8,0:0:0:0:
425,117,73523,6,0,B|457:138|452:214|413:246|413:246|358:289|372:340,1,230.000004386902,0|2,3:0|0:0,0:0:0:0:
272,354,74582,2,0,L|136:347,1,115.000002193451,8|0,0:0|3:0,0:0:0:0:
77,281,75288,2,0,P|49:230|50:166,1,115.000002193451,8|2,0:0|0:0,0:0:0:0:
93,81,75994,1,8,0:0:0:0:
93,81,76347,6,0,B|179:81|179:81|217:119|217:119|330:119,1,230.000004386902,0|2,3:0|0:0,0:0:0:0:
389,55,77406,1,8,0:0:0:0:
389,55,77759,2,0,P|430:101|449:162,1,115.000002193451,0|8,3:0|0:0,0:0:0:0:
391,237,78464,2,0,P|371:280|375:367,1,115.000002193451,2|8,0:0|0:0,0:0:0:0:
266,362,79170,6,0,L|18:353,1,230.000004386902,0|2,3:0|0:0,0:0:0:0:
7,253,80229,1,8,0:0:0:0:
7,253,80582,2,0,L|130:240,1,115.000002193451,2|8,3:2|0:0,0:0:0:0:
214,194,81288,2,0,P|250:143|262:80,1,115.000002193451,0|8,0:0|0:0,0:0:0:0:
329,13,81994,6,0,P|349:79|294:246,1,230.000004386902,0|2,3:0|0:0,0:0:0:0:
300,333,83053,2,0,P|370:346|428:311,1,115.000002193451,8|0,0:0|3:0,0:0:0:0:
458,240,83759,1,8,0:0:0:0:
458,240,84111,2,0,B|451:193|451:193|463:174|463:174|452:105,1,115.000002193451,2|8,0:0|0:0,0:0:0:0:
451,25,84817,6,0,B|388:18|388:18|209:36,1,230.000004386902,0|0,3:0|0:0,0:0:0:0:
124,30,85876,1,8,0:0:0:0:
124,30,86229,2,0,P|131:85|179:134,1,115.000002193451,0|8,3:0|0:0,0:0:0:0:
168,231,86935,2,0,P|119:269|104:328,1,115.000002193451,2|8,0:0|0:0,0:0:0:0:
203,323,87641,6,0,P|258:269|189:132,1,230.000004386902,0|2,3:0|0:0,0:0:0:0:
103,150,88700,1,8,0:0:0:0:
45,63,89053,2,0,P|123:46|172:72,1,115.000002193451,0|8,3:0|0:0,0:0:0:0:
258,48,89759,1,2,0:0:0:0:
211,140,90111,1,8,0:0:0:0:
224,244,90464,6,0,P|147:253|109:297,1,115.000002193451,0|8,3:0|0:0,0:0:0:0:
194,332,91170,2,0,P|240:339|310:290,1,115.000002193451,2|8,0:0|0:0,0:0:0:0:
396,318,91876,2,0,B|396:253|396:253|420:219|420:219|418:128,2,172.500003290176,2|2|8,3:2|0:0|0:0,0:0:0:0:
305,349,93288,6,0,B|250:312|184:350|184:350|127:387|69:348,1,230.000004386902,0|2,3:0|0:0,0:0:0:0:
23,277,94347,1,8,0:0:0:0:
27,173,94700,2,0,P|26:107|65:58,1,115.000002193451,0|8,3:0|0:0,0:0:0:0:
155,63,95406,2,0,B|197:80|197:80|398:44,1,230.000004386902,0|0,0:0|3:0,0:0:0:0:
481,31,96464,5,8,0:0:0:0:
481,31,96817,2,0,L|485:163,1,115.000002193451,2|8,0:0|0:0,0:0:0:0:
452,244,97523,2,0,P|387:275|324:276,1,115.000002193451,0|8,3:0|0:0,0:0:0:0:
259,337,98229,2,0,L|261:197,1,115.000002193451,2|8,0:0|0:0,0:0:0:0:
216,127,98935,6,0,B|173:86|97:105|97:105|87:229,1,230.000004386902,0|2,3:0|0:0,0:0:0:0:
109,309,99994,1,8,0:0:0:0:
109,309,100347,2,0,P|165:295|244:307,1,115.000002193451,0|8,3:0|0:0,0:0:0:0:
315,344,101053,2,0,P|371:352|450:325,1,115.000002193451,2|8,0:0|0:0,0:0:0:0:
458,239,101759,6,0,B|416:211|428:153|428:153|510:94|478:23,1,230.000004386902,0|2,3:0|0:0,0:0:0:0:
381,46,102817,1,8,0:0:0:0:
381,46,103170,2,0,L|184:36,2,172.500003290176,2|2|8,3:2|0:0|0:0,0:0:0:0:
463,9,104582,5,2,0:0:0:0:
