osu file format v14

[General]
AudioFilename: audio.mp3
AudioLeadIn: 0
PreviewTime: 59411
Countdown: 0
SampleSet: Soft
StackLeniency: 0.4
Mode: 0
LetterboxInBreaks: 0
EpilepsyWarning: 1
WidescreenStoryboard: 1

[Editor]
Bookmarks: 11419,36830,70713,82007,93301,104595
DistanceSpacing: 1.4
BeatDivisor: 4
GridSize: 32
TimelineZoom: 1.4

[Metadata]
Title:poslednyaya pesnya o ney
TitleUnicode:последняя песня о ней
Artist:egor nats
ArtistUnicode:егор натс
Creator:Daycore
Version:cami's hard
Source:
Tags:drum and bass dnb russian русский барханов alumetri cami gordon123 gordon yamakudzi mikan mikan- marvollo m_a_r_v_o_l_l_o shmiklak
BeatmapID:1766217
BeatmapSetID:844319

[Difficulty]
HPDrainRate:4
CircleSize:3.7
OverallDifficulty:6
ApproachRate:8
SliderMultiplier:1.34
SliderTickRate:1

[Events]
//Background and Video events
0,0,"porter poggerson.jpg",0,0
//Break Periods
//Storyboard Layer 0 (Background)
//Storyboard Layer 1 (Fail)
//Storyboard Layer 2 (Pass)
//Storyboard Layer 3 (Foreground)
//Storyboard Sound Samples

[TimingPoints]
137,352.941176470588,4,2,1,30,1,0
137,-125,4,2,1,30,0,0
5774,352.941176470588,4,2,1,30,1,0
5774,-125,4,2,1,30,0,0
8509,-125,4,2,1,5,0,0
8597,-125,4,2,1,30,0,0
11409,353.982300884956,4,2,1,30,1,0
11409,-117.647058823529,4,2,1,30,0,0
13798,-117.647058823529,4,2,1,5,0,0
13886,-117.647058823529,4,2,1,30,0,0
20878,-117.647058823529,4,2,1,5,0,0
20966,-117.647058823529,4,2,1,30,0,0
22538,-117.647058823529,4,2,1,30,0,0
22626,-117.647058823529,4,2,1,5,0,0
22715,-117.647058823529,4,2,1,30,0,0
22718,355.029585798817,4,2,1,30,1,0
22718,-117.647058823529,4,2,1,30,0,0
25114,-117.647058823529,4,2,1,5,0,0
25203,-117.647058823529,4,2,1,30,0,0
28389,350.877192982456,4,2,1,30,1,0
28389,-117.647058823529,4,2,1,30,0,0
32248,-117.647058823529,4,2,1,30,0,0
36108,-100,4,3,5,15,0,0
36459,-100,4,3,5,5,0,0
36656,-100,4,3,5,5,0,0
36827,352.733686067019,4,2,1,30,1,0
36827,-98.6806398452688,4,2,1,30,0,0
37797,-98.6806398452688,4,2,1,5,0,0
37885,-98.6806398452688,4,2,1,30,0,0
38855,-98.6806398452688,4,2,1,5,0,0
38943,-98.6806398452688,4,2,1,30,0,0
40618,-98.6806398452688,4,2,1,5,0,0
40707,-98.6806398452688,4,2,1,30,0,0
43440,-98.6806398452688,4,2,1,5,0,0
43528,-98.6806398452688,4,2,1,30,0,0
47849,-98.6806398452688,4,2,1,5,0,0
47938,-98.6806398452688,4,2,1,30,0,0
49084,-98.6806398452688,4,2,1,5,0,0
49172,-98.6806398452688,4,2,1,30,0,0
50142,-98.6806398452688,4,2,1,5,0,0
50230,-98.6806398452688,4,2,1,30,0,0
51906,-98.6806398452688,4,2,1,5,0,0
51994,-98.6806398452688,4,2,1,30,0,0
54728,-98.6806398452688,4,2,1,5,0,0
54816,-98.6806398452688,4,2,1,30,0,0
56580,-133.333333333333,4,3,5,50,0,0
57991,-133.333333333333,4,2,1,50,0,0
58520,-133.333333333333,4,2,1,40,0,0
59068,-133.333333333333,4,2,1,30,0,0
59332,-133.333333333333,4,2,1,30,0,0
59406,352.941176470588,4,2,1,65,1,0
59406,-90.9090909090909,4,2,1,65,0,1
60729,-90.9090909090909,4,2,1,5,0,1
60817,-90.9090909090909,4,2,1,65,0,1
72023,-90.9090909090909,4,2,1,5,0,1
72111,-90.9090909090909,4,2,1,65,0,1
104582,-90.9090909090909,4,2,1,45,0,0

[Colours]
Combo1 : 255,94,94
Combo2 : 0,128,255
Combo3 : 46,207,254
Combo4 : 128,255,128

[HitObjects]
102,274,137,5,2,0:0:0:0:
244,227,489,2,0,P|287:229|312:228,2,53.6,2|0|0,0:0|0:0|0:0,0:0:0:0:
173,195,1019,1,0,0:0:0:0:
218,122,1195,2,0,B|310:105|310:105|336:116|336:116|432:99,1,214.4,2|0,0:0|0:0,0:0:0:0:
428,99,2254,1,2,0:0:0:0:
358,232,2607,2,0,L|380:346,1,107.2,0|0,0:0|0:0,0:0:0:0:
378,337,5774,5,2,0:0:0:0:
285,219,6126,2,0,P|277:173|276:154,2,53.6,2|0|0,0:0|0:0|0:0,0:0:0:0:
342,267,6656,1,0,0:0:0:0:
416,222,6832,2,0,B|418:128|418:128|404:106|404:106|406:9,1,214.4,2|0,0:0|0:0,0:0:0:0:
405,11,7891,1,2,0:0:0:0:
262,57,8244,2,0,L|173:53,1,80.4
154,52,8597,5,0,0:0:0:0:
80,181,8950,2,0,P|76:211|77:235,2,53.6,2|0|0,0:0|0:0|0:0,0:0:0:0:
149,151,9479,1,0,0:0:0:0:
177,231,9656,2,0,L|296:234,1,107.2,2|0,0:0|0:0,0:0:0:0:
284,233,11409,5,0,0:0:0:0:
404,128,11762,2,0,P|409:88|409:53,2,56.9500010862351,2|0|0,0:0|0:0|0:0,0:0:0:0:
334,168,12293,1,0,0:0:0:0:
387,241,12470,2,0,P|364:302|304:335,2,113.90000217247,2|0|2,0:0|0:0|0:0,0:0:0:0:
340,175,13355,1,0,0:0:0:0:
250,191,13532,2,0,L|145:194,1,85.4250016293526,2|0,0:0|0:0,0:0:0:0:
135,195,13886,5,2,0:0:0:0:
65,335,14240,2,0,P|65:244|34:169,1,170.850003258705,2|2,0:0|0:0,0:0:0:0:
35,171,15126,1,2,0:0:0:0:
142,53,15479,2,0,B|240:-4|314:86|314:86|272:134|214:112,1,284.750005431175
233,117,17072,5,2,0:0:0:0:
148,251,17426,1,0,0:0:0:0:
232,216,17603,2,0,P|288:213|340:234,1,113.90000217247,2|0,0:0|0:0,0:0:0:0:
397,306,18134,2,0,P|429:249|379:151,1,170.850003258705,2|0,0:0|0:0,0:0:0:0:
340,234,18842,1,2,0:0:0:0:
199,310,19196,2,0,L|125:313,1,56.9500010862351,2|0,0:0|0:0,0:0:0:0:
71,350,19550,1,0,0:0:0:0:
22,198,19904,6,0,B|9:127|69:109|69:109|127:91|131:21|131:21|160:32|200:25,1,284.750005431175,2|0,0:0|0:0,0:0:0:0:
257,67,20966,2,0,B|255:169|153:190|153:190|91:247|112:341,1,341.70000651741,2|0,0:0|0:0,0:0:0:0:
113,342,22718,5,2,0:0:0:0:
265,295,23073,2,0,P|305:295|343:301,2,56.9500010862351,2|0|0,0:0|0:0|0:0,0:0:0:0:
196,253,23605,1,0,0:0:0:0:
168,165,23783,2,0,P|115:152|43:181,2,113.90000217247,2|0|2,0:0|0:0|0:0,0:0:0:0:
193,240,24670,1,0,0:0:0:0:
270,192,24848,2,0,L|270:103,1,85.4250016293526,2|0,0:0|0:0,0:0:0:0:
270,77,25203,5,2,0:0:0:0:
428,71,25558,2,0,P|428:162|459:237,1,170.850003258705,2|2,0:0|0:0,0:0:0:0:
458,235,26445,1,2,0:0:0:0:
351,353,26800,2,0,B|253:410|179:320|179:320|221:272|279:294,1,284.750005431175
259,288,28389,5,2,0:0:0:0:
418,295,28739,1,0,0:0:0:0:
494,342,28915,2,0,P|507:288|488:236,1,113.90000217247,2|0,0:0|0:0,0:0:0:0:
450,150,29441,2,0,P|398:214|417:294,1,170.850003258705,2|0,0:0|0:0,0:0:0:0:
488,236,30143,1,2,0:0:0:0:
354,112,30494,2,0,L|278:109,1,56.9500010862351,2|0,0:0|0:0,0:0:0:0:
226,167,30845,1,0,0:0:0:0:
73,67,31196,6,0,B|58:103|58:103|67:177,1,113.90000217247,2|0,0:0|0:0,0:0:0:0:
147,181,31722,2,0,P|133:223|62:257,1,113.90000217247
12,323,32248,2,0,B|27:351|54:360|54:360|156:287|246:346|246:346|308:385|387:343|387:343|371:280|304:278,1,512.550009776116,2|0,0:0|0:0,0:0:0:0:
318,279,34704,1,0,0:0:0:0:
318,279,36108,6,0,P|317:240|293:300,1,201,8|0,0:0|0:0,0:0:0:0:
343,358,36827,5,0,3:0:0:0:
475,221,37179,1,0,0:0:0:0:
475,221,37356,1,0,3:0:0:0:
402,160,37532,2,0,L|296:167,1,101.843683628352
267,201,37885,1,8,0:0:0:0:
99,110,38237,5,2,0:0:0:0:
99,110,38414,1,0,0:0:0:0:
166,176,38590,2,0,L|164:295,1,101.843683628352
137,317,38943,1,8,0:0:0:0:
137,317,39296,2,0,P|120:357|83:381,1,67.895789085568,0|2,0:0|0:0,0:0:0:0:
7,378,39648,6,0,P|0:311|27:249,1,135.791578171136,0|0,3:0|0:0,0:0:0:0:
119,225,40177,1,0,3:0:0:0:
90,316,40354,2,0,L|208:317,1,101.843683628352
215,358,40707,1,8,0:0:0:0:
360,236,41059,5,2,0:0:0:0:
360,236,41236,1,0,0:0:0:0:
172,206,41588,1,0,0:0:0:0:
261,144,41765,1,8,0:0:0:0:
261,144,42294,1,2,0:0:0:0:
327,210,42470,6,0,P|355:149|336:85,1,135.791578171136,0|0,3:0|0:0,0:0:0:0:
243,60,42999,1,0,3:0:0:0:
174,125,43176,2,0,L|186:245,1,101.843683628352
218,260,43528,1,8,0:0:0:0:
33,304,43881,5,2,0:0:0:0:
33,304,44058,1,0,0:0:0:0:
45,118,44410,1,0,3:0:0:0:
152,108,44587,1,8,0:0:0:0:
152,108,45292,6,0,P|217:100|267:34,1,135.791578171136,0|0,3:0|0:0,0:0:0:0:
173,15,45821,1,0,3:0:0:0:
173,15,45998,1,0,0:0:0:0:
103,220,46350,1,8,0:0:0:0:
24,46,46703,5,0,0:0:0:0:
112,80,46879,1,0,0:0:0:0:
220,235,47232,1,0,0:0:0:0:
309,202,47409,2,0,L|500:216,1,169.73947271392,8|0,0:0|0:0,0:0:0:0:
512,217,47938,1,2,0:0:0:0:
494,110,48114,5,0,3:0:0:0:
316,42,48467,1,0,0:0:0:0:
316,42,48643,1,0,3:0:0:0:
260,119,48819,2,0,L|270:236,1,101.843683628352
246,262,49172,1,8,0:0:0:0:
142,102,49525,5,0,0:0:0:0:
142,102,49701,1,0,0:0:0:0:
195,23,49878,2,0,L|307:15,1,101.843683628352
340,34,50230,1,8,0:0:0:0:
340,34,50583,2,0,P|385:42|408:56,1,67.895789085568,0|2,0:0|0:0,0:0:0:0:
429,144,50936,6,0,P|399:189|309:206,1,135.791578171136,0|0,3:0|0:0,0:0:0:0:
235,171,51465,1,0,3:0:0:0:
152,218,51641,2,0,L|154:107,1,101.843683628352
118,84,51994,1,8,0:0:0:0:
302,37,52347,5,2,0:0:0:0:
302,37,52523,1,0,0:0:0:0:
266,223,52876,1,0,0:0:0:0:
343,145,53052,1,8,0:0:0:0:
343,145,53581,1,2,0:0:0:0:
410,212,53758,6,0,P|339:240|277:211,1,135.791578171136,0|0,3:0|0:0,0:0:0:0:
250,131,54287,1,0,3:0:0:0:
172,185,54463,2,0,L|155:77,1,101.843683628352
174,40,54816,1,8,0:0:0:0:
363,25,55169,5,2,0:0:0:0:
363,25,55345,1,0,0:0:0:0:
308,207,55698,1,0,0:0:0:0:
250,131,55874,1,8,0:0:0:0:
250,131,56403,1,0,0:0:0:0:
182,77,56580,6,0,B|145:130|181:210|181:210|217:286|151:354|151:354|95:319|109:254,1,402.000015335084,8|0,0:0|3:0,0:0:0:0:
107,267,58167,1,8,0:0:0:0:
12,363,58520,6,0,B|51:294|2:227|2:227|5:179|35:147,1,226.125008625984,0|0,3:0|0:0,0:0:0:0:
63,129,59401,5,6,3:2:0:0:
147,173,59582,1,0,3:0:0:0:
190,87,59758,2,0,P|118:83|63:128,1,147.400004498291,8|2,0:0|0:0,0:0:0:0:
67,224,60288,1,0,3:0:0:0:
147,173,60464,2,0,L|259:167,1,110.550003373718,8|0,0:0|0:0,0:0:0:0:
298,192,60817,6,0,P|336:206|372:210,1,73.7000022491456,0|0,3:0|0:0,0:0:0:0:
448,156,61170,1,8,0:0:0:0:
448,156,61347,1,0,0:0:0:0:
499,236,61523,2,0,P|507:269|502:315,1,73.7000022491456,2|0,0:0|3:0,0:0:0:0:
424,374,61876,1,8,0:0:0:0:
424,374,61964,1,0,3:0:0:0:
424,374,62053,1,0,3:0:0:0:
400,273,62229,5,0,3:0:0:0:
297,111,62582,1,8,0:0:0:0:
218,164,62759,1,0,0:0:0:0:
122,162,62935,2,0,P|83:178|54:213,1,73.7000022491456,2|0,0:0|3:0,0:0:0:0:
76,295,63288,2,0,P|115:279|144:244,1,73.7000022491456,8|0,0:0|0:0,0:0:0:0:
122,162,63641,6,0,B|107:118|124:86|124:86|142:49|120:9,2,147.400004498291,0|8|2,3:0|0:0|0:0,0:0:0:0:
210,199,64523,1,0,3:0:0:0:
301,170,64700,2,0,P|318:134|322:94,1,73.7000022491456,8|0,0:0|0:0,0:0:0:0:
226,105,65053,5,0,3:0:0:0:
210,199,65229,1,0,3:0:0:0:
276,268,65406,2,0,P|332:267|398:199,1,147.400004498291,8|2,0:0|0:0,0:0:0:0:
414,112,65935,1,0,3:0:0:0:
375,24,66111,2,0,P|333:10|280:19,1,73.7000022491456,8|0,0:0|0:0,0:0:0:0:
232,75,66464,6,0,B|190:100|190:100|137:77|129:22,2,147.400004498291,0|8|2,3:0|0:0|0:0,0:0:0:0:
324,104,67347,1,0,3:0:0:0:
259,174,67523,2,0,L|300:186,2,36.8500011245728,8|0|0,0:0|3:0|3:0,0:0:0:0:
162,176,67876,6,0,P|178:227|280:269,1,147.400004498291,0|8,3:0|0:0,0:0:0:0:
351,254,68406,1,2,0:0:0:0:
371,347,68582,2,0,B|404:368|404:368|451:376,1,73.7000022491456,2|0,0:0|3:0,0:0:0:0:
512,313,68935,2,0,B|479:292|479:292|432:284,1,73.7000022491456,8|0,0:0|0:0,0:0:0:0:
371,347,69288,6,0,B|311:354|311:354|275:338|275:338|197:348,2,147.400004498291,2|8|0,3:2|0:0|0:0,0:0:0:0:
444,286,70170,1,0,3:0:0:0:
352,257,70347,2,0,B|338:222|338:222|336:172,1,73.7000022491456,10|2,0:0|0:0,0:0:0:0:
377,99,70700,5,0,3:0:0:0:
281,106,70876,1,0,3:0:0:0:
274,12,71053,2,0,P|343:35|376:98,1,147.400004498291,8|2,0:0|0:0,0:0:0:0:
336,186,71582,1,0,3:0:0:0:
281,106,71759,2,0,L|155:120,1,110.550003373718,8|0,0:0|0:0,0:0:0:0:
124,128,72111,6,0,P|99:164|85:218,1,73.7000022491456,0|0,3:0|0:0,0:0:0:0:
126,282,72464,1,8,0:0:0:0:
126,282,72641,1,0,0:0:0:0:
205,228,72817,2,0,P|246:222|302:239,1,73.7000022491456,2|0,0:0|3:0,0:0:0:0:
343,320,73170,1,8,0:0:0:0:
343,320,73259,1,0,3:0:0:0:
343,320,73347,1,0,3:0:0:0:
240,326,73523,5,0,3:0:0:0:
367,194,73876,1,8,0:0:0:0:
288,135,74053,1,0,0:0:0:0:
277,227,74229,2,0,P|305:260|360:284,1,73.7000022491456,2|0,0:0|3:0,0:0:0:0:
421,243,74582,2,0,P|393:210|338:186,1,73.7000022491456,8|0,0:0|0:0,0:0:0:0:
277,227,74935,6,0,B|241:256|202:256|202:256|159:256|123:299,2,147.400004498291,0|8|2,3:0|0:0|0:0,0:0:0:0:
288,135,75817,1,0,3:0:0:0:
200,99,75994,2,0,P|192:135|198:170,1,73.7000022491456,8|0,0:0|0:0,0:0:0:0:
277,227,76347,5,0,3:0:0:0:
293,321,76523,1,0,3:0:0:0:
199,336,76700,2,0,P|216:266|277:226,1,147.400004498291,8|2,0:0|0:0,0:0:0:0:
366,262,77229,1,0,3:0:0:0:
436,197,77406,2,0,P|437:153|428:119,1,73.7000022491456,8|0,0:0|0:0,0:0:0:0:
363,55,77759,6,0,B|322:39|322:39|268:56|243:119,2,147.400004498291,0|8|2,3:0|0:0|0:0,0:0:0:0:
429,124,78641,1,0,3:0:0:0:
351,180,78817,2,0,L|307:178,2,36.8500011245728,8|0|0,0:0|3:0|3:0,0:0:0:0:
436,221,79170,6,0,P|385:270|310:265,1,147.400004498291,0|8,3:0|0:0,0:0:0:0:
227,218,79700,1,2,0:0:0:0:
137,250,79876,2,0,B|125:288|125:288|127:328,1,73.7000022491456,2|0,0:0|3:0,0:0:0:0:
200,383,80229,2,0,B|212:345|212:345|210:305,1,73.7000022491456,8|0,0:0|0:0,0:0:0:0:
137,250,80582,6,0,B|137:188|137:188|155:163|155:163|155:91,2,147.400004498291,2|8|0,3:2|0:0|0:0,0:0:0:0:
210,311,81464,1,0,3:0:0:0:
299,274,81641,2,0,B|338:271|338:271|380:281,1,73.7000022491456,8|2,0:0|0:0,0:0:0:0:
431,353,81994,5,0,3:0:0:0:
466,264,82170,1,0,3:0:0:0:
447,169,82347,2,0,P|387:209|371:279,1,147.400004498291,8|2,0:0|0:0,0:0:0:0:
431,353,82876,1,0,3:0:0:0:
334,365,83053,2,0,P|303:347|282:317,1,73.7000022491456,8|0,0:0|0:0,0:0:0:0:
270,222,83406,6,0,P|236:234|208:258,1,73.7000022491456,0|0,3:0|0:0,0:0:0:0:
207,354,83759,1,8,0:0:0:0:
207,354,83935,1,0,0:0:0:0:
112,369,84111,2,0,P|68:366|33:346,1,73.7000022491456,2|0,0:0|3:0,0:0:0:0:
4,256,84464,1,8,0:0:0:0:
4,256,84553,1,0,3:0:0:0:
4,256,84641,1,0,3:0:0:0:
106,262,84817,5,0,3:0:0:0:
237,133,85170,1,8,0:0:0:0:
331,149,85347,1,2,0:0:0:0:
359,58,85523,2,0,P|381:27|422:4,1,73.7000022491456,2|0,0:0|3:0,0:0:0:0:
501,38,85876,2,0,P|479:69|438:92,1,73.7000022491456,8|0,0:0|0:0,0:0:0:0:
359,58,86229,6,0,B|330:31|292:33|292:33|248:36|219:6,2,147.400004498291,0|8|2,3:0|0:0|0:0,0:0:0:0:
374,152,87111,1,0,3:0:0:0:
278,137,87288,2,0,P|247:159|221:195,1,73.7000022491456,8|0,0:0|0:0,0:0:0:0:
236,282,87641,5,0,3:0:0:0:
312,224,87817,1,0,3:0:0:0:
368,298,87994,2,0,P|299:316|236:282,1,147.400004498291,8|2,0:0|0:0,0:0:0:0:
225,186,88523,1,0,3:0:0:0:
312,224,88700,2,0,P|320:186|310:146,1,73.7000022491456,8|0,0:0|0:0,0:0:0:0:
241,88,89053,6,0,B|189:80|189:80|141:99|120:146,2,147.400004498291,0|8|2,3:0|0:0|0:0,0:0:0:0:
312,152,89935,1,0,3:0:0:0:
380,85,90111,2,0,L|378:44,2,36.8500011245728,8|0|0,0:0|3:0|3:0,0:0:0:0:
451,148,90464,6,0,B|456:203|456:203|436:230|436:230|442:310,1,147.400004498291,0|8,3:0|0:0,0:0:0:0:
491,370,90994,1,0,0:0:0:0:
395,371,91170,2,0,P|365:343|348:300,1,73.7000022491456,2|0,0:0|3:0,0:0:0:0:
396,231,91523,2,0,P|426:259|443:302,1,73.7000022491456,8|0,0:0|0:0,0:0:0:0:
351,313,91876,6,0,B|315:321|288:299|288:299|240:289|194:307,2,147.400004498291,2|8|0,3:2|0:0|0:0,0:0:0:0:
396,231,92759,1,0,3:0:0:0:
333,158,92935,2,0,P|322:115|324:73,1,73.7000022491456,8|2,0:0|0:0,0:0:0:0:
416,105,93288,5,0,3:0:0:0:
447,12,93464,1,0,3:0:0:0:
351,19,93641,2,0,P|322:86|333:158,1,147.400004498291,8|2,0:0|0:0,0:0:0:0:
390,234,94170,1,0,3:0:0:0:
338,315,94347,2,0,P|302:323|257:319,1,73.7000022491456,8|0,0:0|0:0,0:0:0:0:
203,247,94700,6,0,P|167:239|122:243,1,73.7000022491456,0|0,3:0|0:0,0:0:0:0:
48,291,95053,1,8,0:0:0:0:
48,291,95229,1,0,0:0:0:0:
5,204,95406,2,0,P|3:150|15:104,1,73.7000022491456,2|0,0:0|3:0,0:0:0:0:
89,69,95759,1,8,0:0:0:0:
89,69,95847,1,0,3:0:0:0:
89,69,95935,1,0,3:0:0:0:
107,171,96111,5,0,3:0:0:0:
141,359,96464,1,8,0:0:0:0:
230,325,96641,1,2,0:0:0:0:
313,370,96817,2,0,P|352:373|394:365,1,73.7000022491456,2|0,0:0|3:0,0:0:0:0:
385,271,97170,2,0,P|346:268|304:276,1,73.7000022491456,8|0,0:0|0:0,0:0:0:0:
230,325,97523,6,0,B|185:308|178:274|178:274|169:231|122:217,2,147.400004498291,0|8|2,3:0|0:0|0:0,0:0:0:0:
312,273,98406,1,0,3:0:0:0:
363,352,98582,2,0,P|389:327|402:293,1,73.7000022491456,8|0,0:0|0:0,0:0:0:0:
377,201,98935,5,0,3:0:0:0:
312,273,99111,1,0,3:0:0:0:
280,182,99288,2,0,P|316:123|403:106,1,147.400004498291,8|2,0:0|0:0,0:0:0:0:
464,161,99817,1,0,3:0:0:0:
377,201,99994,2,0,P|368:237|373:285,1,73.7000022491456,8|0,0:0|0:0,0:0:0:0:
432,346,100347,6,0,B|487:343|487:343|507:294|489:236,2,147.400004498291,0|8|2,3:0|0:0|0:0,0:0:0:0:
336,358,101229,1,0,3:0:0:0:
261,297,101406,2,0,L|263:248,2,36.8500011245728,8|0|0,0:0|3:0|3:0,0:0:0:0:
177,344,101759,6,0,B|171:283|171:283|154:259|154:259|149:199,1,147.400004498291,0|8,3:0|0:0,0:0:0:0:
196,118,102288,1,2,0:0:0:0:
135,44,102464,2,0,P|89:37|43:49,1,73.7000022491456,2|0,0:0|3:0,0:0:0:0:
15,125,102817,2,0,P|61:132|107:120,1,73.7000022491456,8|0,0:0|0:0,0:0:0:0:
135,44,103170,6,0,B|164:21|206:27|206:27|247:33|285:4,2,147.400004498291,2|8|0,3:2|0:0|0:0,0:0:0:0:
183,127,104053,1,0,3:0:0:0:
277,113,104229,2,0,P|308:140|325:179,1,73.7000022491456,8|2,0:0|0:0,0:0:0:0:
295,261,104582,5,2,0:0:0:0:
