osu file format v14

[General]
AudioFilename: audio.mp3
AudioLeadIn: 0
PreviewTime: 59411
Countdown: 0
SampleSet: Soft
StackLeniency: 0.7
Mode: 0
LetterboxInBreaks: 0
EpilepsyWarning: 1
WidescreenStoryboard: 1

[Editor]
DistanceSpacing: 1.2
BeatDivisor: 4
GridSize: 32
TimelineZoom: 2

[Metadata]
Title:poslednyaya pesnya o ney
TitleUnicode:последняя песня о ней
Artist:egor nats
ArtistUnicode:егор натс
Creator:Daycore
Version:alumetri's extra
Source:
Tags:drum and bass dnb russian русский барханов alumetri cami gordon123 gordon yamakudzi mikan mikan- marvollo m_a_r_v_o_l_l_o shmiklak
BeatmapID:1766216
BeatmapSetID:844319

[Difficulty]
HPDrainRate:5.8
CircleSize:3.8
OverallDifficulty:9
ApproachRate:9.3
SliderMultiplier:1.82
SliderTickRate:1

[Events]
//Background and Video events
0,0,"porter poggerson.jpg",0,0
//Break Periods
//Storyboard Layer 0 (Background)
//Storyboard Layer 1 (Fail)
//Storyboard Layer 2 (Pass)
//Storyboard Layer 3 (Foreground)
//Storyboard Sound Samples

[TimingPoints]
137,352.941176470588,4,2,1,30,1,0
137,-133.333333333333,4,2,1,30,0,0
5774,352.941176470588,4,2,1,30,1,0
5774,-133.333333333333,4,2,1,30,0,0
11409,353.982300884956,4,2,1,30,1,0
11409,-133.333333333333,4,2,1,30,0,0
11939,-117.647058823529,4,2,1,30,0,0
20878,-117.647058823529,4,2,1,5,0,0
20966,-117.647058823529,4,2,1,30,0,0
22538,-117.647058823529,4,2,1,30,0,0
22626,-117.647058823529,4,2,1,5,0,0
22718,355.029585798817,4,2,1,30,1,0
22718,-133.333333333333,4,2,1,30,0,0
23250,-117.647058823529,4,2,1,30,0,0
28389,350.877192982456,4,2,1,30,1,0
28389,-117.647058823529,4,2,1,30,0,0
32160,-117.647058823529,4,2,1,5,0,0
32248,-117.647058823529,4,2,1,30,0,0
36108,-1000,4,3,5,15,0,0
36479,-1000,4,3,5,5,0,0
36656,-1000,4,3,5,5,0,0
36827,352.733686067019,4,2,1,30,1,0
36827,-99.009900990099,4,2,1,30,0,0
56580,-133.333333333333,4,3,5,50,0,0
57638,-133.333333333333,4,3,5,10,0,0
57991,-133.333333333333,4,2,1,50,0,0
58520,-133.333333333333,4,2,1,40,0,0
59049,-133.333333333333,4,2,1,30,0,0
59406,352.941176470588,4,2,1,65,1,0
59406,-80,4,2,1,65,0,1
104582,-80,4,2,1,45,0,0

[Colours]
Combo1 : 255,94,94
Combo2 : 0,128,255
Combo3 : 46,207,254
Combo4 : 128,255,128

[HitObjects]
62,64,137,5,2,0:0:0:0:
160,194,489,2,0,P|258:187|249:95,1,204.750007810593,2|0,0:0|0:0,0:0:0:0:
332,69,1195,2,0,P|305:258|151:281,1,341.250013017655,2|0,0:0|0:0,0:0:0:0:
25,196,2254,2,0,B|103:215|79:179|183:197,2,136.500005207062,2|0|0,0:0|0:0|0:0,0:0:0:0:
462,39,5774,5,2,0:0:0:0:
307,124,6126,2,0,P|286:216|381:203,1,204.750007810593,2|0,0:0|0:0,0:0:0:0:
395,317,6832,2,0,B|241:348|282:278|125:313,1,273.000010414124,2|0,0:0|0:0,0:0:0:0:
41,368,7891,2,0,P|74:305|38:253,1,136.500005207062,2|0,0:0|0:0,0:0:0:0:
9,150,8597,5,0,0:0:0:0:
137,122,8950,2,0,B|222:127|222:127|255:115|255:115|348:121,1,204.750007810593,2|0,0:0|0:0,0:0:0:0:
400,188,9656,2,0,P|381:120|418:48,1,136.500005207062,2|0,0:0|0:0,0:0:0:0:
404,61,11409,6,0,L|375:216,1,136.500005207062,0|2,0:0|0:0,0:0:0:0:
357,297,11939,1,0,0:0:0:0:
261,266,12116,2,0,P|223:262|181:274,1,77.3500014753342
98,329,12470,2,0,P|60:333|18:321,1,77.3500014753342,2|0,0:0|0:0,0:0:0:0:
191,355,12824,6,0,P|229:351|271:363,1,77.3500014753342
358,374,13178,1,2,0:0:0:0:
446,339,13355,1,0,0:0:0:0:
356,284,13532,2,0,P|351:243|370:192,1,77.3500014753342,2|0,0:0|0:0,0:0:0:0:
481,161,13886,1,2,0:0:0:0:
435,251,14063,1,0,0:0:0:0:
329,141,14240,6,0,P|290:139|246:152,1,77.3500014753342,2|0,0:0|0:0,0:0:0:0:
416,83,14594,1,0,0:0:0:0:
481,161,14771,1,2,0:0:0:0:
340,58,14948,2,0,P|361:23|401:5,1,77.3500014753342,0|2,0:0|0:0,0:0:0:0:
435,186,15302,2,0,P|434:145|408:109,1,77.3500014753342
361,254,15656,6,0,P|324:265|271:255,1,77.3500014753342
184,211,16010,1,0,0:0:0:0:
222,317,16187,1,0,0:0:0:0:
262,181,16364,2,0,P|260:133|237:92,1,77.3500014753342
154,52,16718,1,0,0:0:0:0:
62,96,16895,1,0,0:0:0:0:
239,24,17072,6,0,P|274:15|334:33,1,77.3500014753342,2|0,0:0|0:0,0:0:0:0:
436,80,17426,2,0,P|397:83|364:101,1,77.3500014753342,0|2,0:0|0:0,0:0:0:0:
238,159,17780,2,0,P|314:190|385:255,1,154.700002950668,0|2,0:0|0:0,0:0:0:0:
458,331,18311,1,0,0:0:0:0:
338,355,18488,5,0,0:0:0:0:
253,320,18665,1,0,0:0:0:0:
175,363,18842,2,0,P|138:352|88:356,1,77.3500014753342,2|0,0:0|0:0,0:0:0:0:
264,289,19196,2,0,P|301:278|351:282,1,77.3500014753342,2|0,0:0|0:0,0:0:0:0:
191,245,19550,1,0,0:0:0:0:
99,275,19727,1,0,0:0:0:0:
16,213,19904,6,0,P|11:176|34:122,1,77.3500014753342,2|0,0:0|0:0,0:0:0:0:
99,74,20258,1,0,0:0:0:0:
175,134,20435,1,0,0:0:0:0:
288,85,20612,2,0,P|324:78|370:88,1,77.3500014753342
460,111,20966,1,2,0:0:0:0:
383,181,21143,1,0,0:0:0:0:
446,266,21320,5,0,0:0:0:0:
382,343,21497,1,0,0:0:0:0:
292,291,21674,2,0,P|254:290|212:305,1,77.3500014753342
65,260,22028,2,0,P|123:297|146:392,1,154.700002950668
17,186,22718,6,0,P|11:108|42:39,1,136.500005207062,2|2,0:0|0:0,0:0:0:0:
136,20,23250,1,0,0:0:0:0:
193,108,23428,2,0,P|180:133|180:196,1,77.3500014753342
281,57,23783,2,0,P|294:82|294:145,1,77.3500014753342,2|0,0:0|0:0,0:0:0:0:
366,1,24138,5,0,0:0:0:0:
454,41,24315,1,0,0:0:0:0:
396,125,24493,2,0,P|391:157|402:210,1,77.3500014753342,2|0,0:0|0:0,0:0:0:0:
498,270,24848,2,0,P|503:302|492:355,1,77.3500014753342,2|0,0:0|0:0,0:0:0:0:
397,363,25203,1,2,0:0:0:0:
305,312,25380,1,0,0:0:0:0:
190,351,25558,6,0,P|155:348|109:359,1,77.3500014753342,2|0,0:0|0:0,0:0:0:0:
241,270,25913,2,0,P|275:276|317:298,1,77.3500014753342,0|2,0:0|0:0,0:0:0:0:
178,200,26268,1,0,0:0:0:0:
101,264,26445,1,2,0:0:0:0:
16,203,26623,2,0,P|13:157|24:111,1,77.3500014753342
115,53,26978,6,0,P|150:37|206:43,1,77.3500014753342
302,50,27333,1,0,0:0:0:0:
398,110,27510,1,0,0:0:0:0:
316,214,27688,2,0,P|309:252|315:298,1,77.3500014753342
415,137,28043,2,0,P|421:174|418:213,1,77.3500014753342
481,73,28389,5,2,0:0:0:0:
394,31,28564,1,0,0:0:0:0:
307,78,28739,1,0,0:0:0:0:
214,42,28915,1,2,0:0:0:0:
256,172,29090,2,0,P|259:244|195:335,1,154.700002950668,0|2,0:0|0:0,0:0:0:0:
84,275,29617,6,0,P|46:271|4:278,1,77.3500014753342
112,175,29967,2,0,P|149:180|188:198,1,77.3500014753342,0|2,0:0|0:0,0:0:0:0:
35,127,30318,1,0,0:0:0:0:
165,72,30494,2,0,P|200:56|238:50,1,77.3500014753342,2|0,0:0|0:0,0:0:0:0:
343,83,30845,1,0,0:0:0:0:
440,45,31020,1,0,0:0:0:0:
381,172,31196,6,0,P|372:211|380:253,1,77.3500014753342,2|0,0:0|0:0,0:0:0:0:
497,195,31546,2,0,P|503:157|494:119,1,77.3500014753342
373,18,31897,2,0,P|364:55|369:93,1,77.3500014753342
287,0,32248,1,2,0:0:0:0:
211,75,32424,1,0,0:0:0:0:
82,31,32599,6,0,P|38:84|51:180,1,154.700002950668
172,254,33125,2,0,P|179:178|133:119,1,154.700002950668
99,348,33652,1,0,0:0:0:0:
274,310,33827,1,0,0:0:0:0:
274,310,34704,5,0,0:0:0:0:
274,310,36108,6,0,P|278:293|285:286,1,27.3,8|0,2:3|0:0,0:0:0:0:
413,298,36827,6,0,P|406:253|411:193,1,91.9099981768342,0|0,3:0|0:0,0:0:0:0:
460,119,37179,1,0,0:0:0:0:
316,159,37356,2,0,B|212:188|237:137|126:163,1,183.819996353668,0|0,3:0|0:0,0:0:0:0:
30,139,37885,1,8,0:0:0:0:
62,245,38061,1,0,0:0:0:0:
21,349,38237,6,0,P|76:342|134:358,1,91.9099981768342,2|0,0:0|0:0,0:0:0:0:
210,317,38590,1,0,0:0:0:0:
306,356,38767,1,0,0:0:0:0:
403,312,38943,1,8,0:0:0:0:
485,354,39119,1,0,0:0:0:0:
403,294,39296,1,0,0:0:0:0:
281,357,39472,2,0,P|207:343|157:254,1,183.819996353668,2|0,0:0|0:0,0:0:0:0:
162,160,40001,5,0,0:0:0:0:
251,232,40177,1,0,3:0:0:0:
131,87,40354,2,0,P|129:136|144:190,1,91.9099981768342
242,26,40707,2,0,P|244:75|229:129,1,91.9099981768342,8|2,0:0|0:0,0:0:0:0:
223,249,41059,6,0,P|272:247|326:262,1,91.9099981768342,2|0,0:0|0:0,0:0:0:0:
423,237,41412,1,0,0:0:0:0:
481,322,41588,1,0,0:0:0:0:
510,226,41765,1,8,0:0:0:0:
457,147,41941,1,0,0:0:0:0:
491,61,42118,1,0,0:0:0:0:
434,161,42294,1,2,0:0:0:0:
307,114,42470,6,0,P|214:94|126:141,1,183.819996353668,0|0,3:0|0:0,0:0:0:0:
67,225,42999,1,0,3:0:0:0:
101,344,43176,2,0,P|143:349|194:338,1,91.9099981768342
275,256,43528,2,0,P|317:251|368:262,1,91.9099981768342,8|2,0:0|0:0,0:0:0:0:
436,343,43881,6,0,P|417:261|463:172,1,183.819996353668,2|0,0:0|0:0,0:0:0:0:
512,99,44410,1,0,3:0:0:0:
412,55,44587,1,8,0:0:0:0:
321,104,44763,1,0,0:0:0:0:
232,64,44939,1,0,0:0:0:0:
281,192,45116,2,0,P|299:240|232:362,1,183.819996353668,2|0,0:0|0:0,0:0:0:0:
165,308,45645,5,0,0:0:0:0:
48,360,45821,2,0,P|37:321|43:269,1,91.9099981768342,0|0,3:0|0:0,0:0:0:0:
109,193,46174,1,0,0:0:0:0:
72,97,46350,1,8,0:0:0:0:
200,171,46527,2,0,P|285:181|357:91,2,183.819996353668,2|0|0,0:0|0:0|0:0,0:0:0:0:
245,269,47409,5,8,0:0:0:0:
341,239,47585,1,0,0:0:0:0:
421,284,47761,1,0,0:0:0:0:
511,179,47938,2,0,P|520:270|491:357,2,183.819996353668,2|0|0,0:0|0:0|3:0,0:0:0:0:
388,178,48819,6,0,P|342:187|280:170,1,91.9099981768342
216,111,49172,1,8,0:0:0:0:
128,177,49349,2,0,P|107:252|142:359,1,183.819996353668,2|0,0:0|0:0,0:0:0:0:
226,305,49878,1,0,0:0:0:0:
308,348,50054,1,0,0:0:0:0:
386,305,50230,1,8,0:0:0:0:
492,361,50407,1,0,0:0:0:0:
450,247,50583,1,0,0:0:0:0:
495,141,50759,1,2,0:0:0:0:
367,204,50936,6,0,B|264:171|286:231|163:192,1,183.819996353668,0|0,3:0|0:0,0:0:0:0:
99,127,51465,1,0,3:0:0:0:
101,234,51641,2,0,P|103:282|84:332,1,91.9099981768342
11,241,51994,2,0,P|-3:197|0:151,1,91.9099981768342,8|2,0:0|0:0,0:0:0:0:
76,88,52347,2,0,P|167:64|279:109,1,183.819996353668,2|0,0:0|0:0,0:0:0:0:
317,164,52876,1,0,0:0:0:0:
279,260,53052,2,0,P|273:301|284:362,1,91.9099981768342,8|0,0:0|0:0,0:0:0:0:
224,194,53405,1,0,0:0:0:0:
146,245,53581,1,2,0:0:0:0:
28,207,53758,6,0,P|20:120|76:17,1,183.819996353668,0|0,3:0|0:0,0:0:0:0:
148,91,54287,1,0,3:0:0:0:
233,45,54463,2,0,P|274:36|333:47,1,91.9099981768342
451,145,54816,2,0,P|409:126|363:123,1,91.9099981768342,8|2,0:0|0:0,0:0:0:0:
476,224,55169,6,0,P|476:280|384:366,1,183.819996353668,2|0,0:0|0:0,0:0:0:0:
302,314,55698,1,0,0:0:0:0:
217,360,55874,2,0,P|172:353|123:357,1,91.9099981768342,8|0,0:0|0:0,0:0:0:0:
4,297,56227,2,0,P|45:278|94:269,1,91.9099981768342
218,224,56580,6,0,P|285:142|84:114,1,409.500015621186,8|0,2:3|0:0,0:0:0:0:
184,129,57991,5,0,3:0:0:0:
350,69,58167,1,8,0:0:0:0:
350,69,58520,5,0,3:0:0:0:
396,251,58696,1,8,0:0:0:0:
396,251,59049,5,8,0:0:0:0:
459,170,59225,1,8,0:0:0:0:
304,316,59401,5,6,3:2:0:0:
498,288,59582,1,0,3:0:0:0:
292,209,59758,1,8,0:0:0:0:
441,360,59935,1,2,0:0:0:0:
441,360,60023,1,2,0:0:0:0:
441,360,60111,1,2,0:0:0:0:
459,170,60288,1,0,3:0:0:0:
280,342,60464,2,0,P|227:353|152:326,1,113.75,8|0,0:0|0:0,0:0:0:0:
346,250,60817,5,0,3:0:0:0:
360,381,60994,1,0,0:0:0:0:
410,173,61170,1,8,0:0:0:0:
441,360,61347,1,0,0:0:0:0:
495,127,61523,1,2,0:0:0:0:
353,277,61700,1,0,3:0:0:0:
353,277,61788,1,0,0:0:0:0:
353,277,61876,2,0,L|283:282,1,56.875,8|0,0:0|3:0,0:0:0:0:
438,117,62053,2,0,L|508:112,1,56.875,0|8,3:0|0:0,0:0:0:0:
301,75,62229,6,0,P|242:66|178:89,1,113.75,0|0,3:0|0:0,0:0:0:0:
105,174,62582,1,8,0:0:0:0:
241,156,62759,1,0,0:0:0:0:
143,298,62935,1,2,0:0:0:0:
108,81,63111,1,0,3:0:0:0:
136,325,63288,1,8,0:0:0:0:
334,155,63464,1,0,0:0:0:0:
67,64,63641,6,0,P|43:112|61:207,1,113.75,0|0,3:0|0:0,0:0:0:0:
178,12,63994,2,0,P|202:60|184:155,1,113.75,8|0,0:0|0:0,0:0:0:0:
130,278,64347,1,2,0:0:0:0:
344,178,64523,1,0,3:0:0:0:
123,139,64700,1,8,0:0:0:0:
396,255,64876,1,0,0:0:0:0:
396,255,64964,1,0,0:0:0:0:
396,255,65053,6,0,P|428:261|465:257,1,56.875,0|0,3:0|0:0,0:0:0:0:
379,103,65229,2,0,P|347:97|310:101,1,56.875,0|0,3:0|0:0,0:0:0:0:
182,206,65406,2,0,P|171:260|191:336,1,113.75,8|2,0:0|0:0,0:0:0:0:
246,133,65759,1,2,0:0:0:0:
281,257,65935,1,0,3:0:0:0:
246,103,66111,1,8,0:0:0:0:
78,232,66288,1,0,0:0:0:0:
328,179,66464,5,0,3:0:0:0:
141,77,66641,1,0,0:0:0:0:
348,82,66817,1,8,0:0:0:0:
53,138,66994,1,0,0:0:0:0:
302,7,67170,1,2,0:0:0:0:
281,257,67347,1,0,3:0:0:0:
281,257,67435,1,0,0:0:0:0:
281,257,67523,2,0,L|274:327,1,56.875,8|0,0:0|3:0,0:0:0:0:
415,204,67700,2,0,L|409:147,1,56.875,0|8,3:0|0:0,0:0:0:0:
283,41,67876,6,0,P|226:34|158:67,1,113.75,0|0,3:0|0:0,0:0:0:0:
378,69,68229,2,0,P|435:72|490:120,1,113.75,8|2,0:0|0:0,0:0:0:0:
481,267,68582,1,2,0:0:0:0:
336,167,68759,1,0,3:0:0:0:
359,345,68935,1,8,0:0:0:0:
504,181,69111,1,0,0:0:0:0:
238,115,69288,5,2,3:2:0:0:
459,287,69464,1,0,0:0:0:0:
456,35,69641,5,8,0:0:0:0:
281,257,69817,1,2,0:0:0:0:
266,24,69994,5,0,0:0:0:0:
376,235,70170,1,0,3:0:0:0:
238,115,70347,5,10,0:0:0:0:
504,181,70523,1,2,0:0:0:0:
335,323,70700,6,0,P|280:338|213:312,1,113.75,0|0,3:0|3:0,0:0:0:0:
51,249,71053,2,0,P|106:234|173:260,1,113.75,8|2,0:0|0:0,0:0:0:0:
6,323,71406,1,2,0:0:0:0:
37,145,71582,1,0,3:0:0:0:
109,331,71759,1,8,0:0:0:0:
29,118,71935,1,0,0:0:0:0:
248,147,72111,5,0,3:0:0:0:
51,249,72288,1,0,0:0:0:0:
304,229,72464,1,8,0:0:0:0:
102,158,72641,1,0,0:0:0:0:
341,149,72817,1,2,0:0:0:0:
202,328,72994,1,0,3:0:0:0:
202,328,73082,1,0,0:0:0:0:
202,328,73170,2,0,L|130:342,1,56.875,8|0,0:0|3:0,0:0:0:0:
248,218,73347,2,0,L|320:232,1,56.875,0|8,3:0|0:0,0:0:0:0:
446,303,73523,6,0,P|458:256|445:186,1,113.75,0|0,3:0|0:0,0:0:0:0:
374,89,73876,1,8,0:0:0:0:
382,247,74053,1,0,0:0:0:0:
462,72,74229,1,2,0:0:0:0:
303,228,74406,1,0,3:0:0:0:
511,227,74582,1,8,0:0:0:0:
289,143,74759,1,0,0:0:0:0:
495,41,74935,6,0,P|511:94|498:153,1,113.75,0|0,3:0|0:0,0:0:0:0:
388,10,75288,2,0,P|372:63|385:122,1,113.75,8|0,0:0|0:0,0:0:0:0:
440,240,75641,1,2,0:0:0:0:
275,164,75817,1,0,3:0:0:0:
303,344,75994,1,8,0:0:0:0:
468,218,76170,1,0,0:0:0:0:
217,351,76347,6,0,P|162:359|89:333,1,113.75,0|0,3:0|3:0,0:0:0:0:
284,237,76700,1,8,0:0:0:0:
309,365,76876,1,2,0:0:0:0:
186,263,77053,1,2,0:0:0:0:
384,242,77229,1,0,3:0:0:0:
217,351,77406,1,8,0:0:0:0:
343,170,77582,1,0,0:0:0:0:
116,140,77759,6,0,P|63:133|1:152,1,113.75,0|0,3:0|0:0,0:0:0:0:
190,74,78111,1,8,0:0:0:0:
106,255,78288,1,0,0:0:0:0:
292,237,78464,1,2,0:0:0:0:
183,52,78641,1,0,3:0:0:0:
258,330,78817,1,8,0:0:0:0:
297,344,78906,1,0,3:0:0:0:
340,342,78994,1,0,3:0:0:0:
378,324,79082,1,8,0:0:0:0:
407,293,79170,6,0,P|427:239|434:167,1,113.75,0|0,3:0|0:0,0:0:0:0:
371,64,79523,1,8,0:0:0:0:
253,177,79700,1,2,0:0:0:0:
400,44,79876,1,2,0:0:0:0:
501,234,80053,1,0,3:0:0:0:
237,187,80229,1,8,0:0:0:0:
484,69,80406,1,0,0:0:0:0:
228,42,80582,5,2,3:2:0:0:
386,255,80759,1,0,0:0:0:0:
310,5,80935,5,8,0:0:0:0:
157,216,81111,1,2,0:0:0:0:
401,106,81288,5,0,0:0:0:0:
152,16,81464,1,0,3:0:0:0:
241,283,81641,5,8,0:0:0:0:
310,5,81817,1,2,0:0:0:0:
425,191,81994,5,0,3:0:0:0:
241,283,82170,1,0,3:0:0:0:
457,278,82347,1,8,0:0:0:0:
227,306,82523,1,2,0:0:0:0:
346,150,82700,1,2,0:0:0:0:
447,362,82876,1,0,3:0:0:0:
205,347,83053,1,8,0:0:0:0:
260,121,83229,1,0,0:0:0:0:
260,121,83317,1,0,0:0:0:0:
260,121,83406,6,0,P|319:112|382:128,1,113.75,0|0,3:0|0:0,0:0:0:0:
181,62,83759,1,8,0:0:0:0:
202,208,83935,1,0,0:0:0:0:
62,163,84111,1,2,0:0:0:0:
211,36,84288,1,0,3:0:0:0:
212,35,84376,1,0,0:0:0:0:
212,35,84464,2,0,L|275:39,1,56.875,8|0,0:0|3:0,0:0:0:0:
126,148,84641,2,0,L|63:152,1,56.875,0|8,3:0|0:0,0:0:0:0:
228,213,84817,6,0,P|236:274|206:351,1,113.75,0|0,3:0|0:0,0:0:0:0:
90,354,85170,1,8,0:0:0:0:
21,243,85347,1,2,0:0:0:0:
136,375,85523,1,2,0:0:0:0:
146,199,85700,1,0,3:0:0:0:
0,370,85876,1,8,0:0:0:0:
76,159,86053,1,0,0:0:0:0:
222,323,86229,6,0,P|279:335|335:316,1,113.75,0|0,3:0|0:0,0:0:0:0:
478,258,86582,2,0,P|421:259|371:233,1,113.75,8|0,0:0|0:0,0:0:0:0:
301,130,86935,1,2,0:0:0:0:
461,94,87111,1,0,3:0:0:0:
272,171,87288,1,8,0:0:0:0:
491,186,87464,1,0,0:0:0:0:
262,63,87641,6,0,P|210:54|138:78,1,113.75,0|0,3:0|3:0,0:0:0:0:
45,167,87994,1,8,0:0:0:0:
75,46,88170,1,2,0:0:0:0:
100,231,88347,1,2,0:0:0:0:
3,90,88523,1,0,3:0:0:0:
209,131,88700,1,8,0:0:0:0:
18,249,88876,1,0,0:0:0:0:
243,169,89053,6,0,P|291:157|379:184,1,113.75,0|0,3:0|0:0,0:0:0:0:
211,262,89406,2,0,P|160:236|104:233,1,113.75,8|0,0:0|0:0,0:0:0:0:
228,349,89759,1,2,0:0:0:0:
317,239,89935,1,0,3:0:0:0:
362,369,90111,1,8,0:0:0:0:
404,365,90199,1,0,3:0:0:0:
441,345,90287,1,0,3:0:0:0:
467,311,90375,1,8,0:0:0:0:
476,270,90464,6,0,P|483:223|470:158,1,113.75,0|0,3:0|0:0,0:0:0:0:
305,299,90817,2,0,P|298:251|311:186,1,113.75,8|0,0:0|0:0,0:0:0:0:
383,101,91170,1,2,0:0:0:0:
403,243,91347,1,0,3:0:0:0:
403,243,91435,1,0,0:0:0:0:
403,243,91523,1,8,0:0:0:0:
387,70,91700,1,0,0:0:0:0:
205,156,91876,5,2,3:2:0:0:
291,14,92053,1,0,0:0:0:0:
318,187,92229,5,8,0:0:0:0:
98,134,92406,1,2,0:0:0:0:
291,104,92582,5,0,0:0:0:0:
99,260,92759,1,0,3:0:0:0:
166,59,92935,5,8,0:0:0:0:
277,295,93111,1,2,0:0:0:0:
29,196,93288,5,0,3:0:0:0:
45,340,93464,1,0,3:0:0:0:
98,134,93641,1,8,0:0:0:0:
170,361,93817,1,2,0:0:0:0:
170,361,93906,1,2,0:0:0:0:
170,361,93994,2,0,P|226:366|293:329,1,113.75,2|0,0:0|3:0,0:0:0:0:
371,244,94347,2,0,P|427:239|494:276,1,113.75,8|0,0:0|0:0,0:0:0:0:
303,183,94700,5,0,3:0:0:0:
412,325,94876,1,0,0:0:0:0:
492,175,95053,1,8,0:0:0:0:
412,353,95229,1,0,0:0:0:0:
232,261,95406,1,2,0:0:0:0:
493,274,95582,1,0,3:0:0:0:
493,274,95670,1,0,0:0:0:0:
493,274,95759,2,0,L|502:195,1,56.875,8|0,0:0|3:0,0:0:0:0:
303,183,95935,2,0,L|312:262,1,56.875,0|8,3:0|0:0,0:0:0:0:
403,104,96111,6,0,P|447:94|525:118,1,113.75,0|0,3:0|0:0,0:0:0:0:
313,49,96464,2,0,P|267:50|198:94,1,113.75,8|2,0:0|0:0,0:0:0:0:
122,187,96817,1,2,0:0:0:0:
21,114,96994,1,0,3:0:0:0:
216,165,97170,1,8,0:0:0:0:
25,255,97347,1,0,0:0:0:0:
107,30,97523,5,0,3:0:0:0:
185,241,97700,1,0,0:0:0:0:
21,114,97876,1,8,0:0:0:0:
213,0,98053,1,2,0:0:0:0:
93,237,98229,1,2,0:0:0:0:
22,19,98406,1,0,3:0:0:0:
185,241,98582,1,8,0:0:0:0:
153,0,98759,1,0,0:0:0:0:
64,260,98935,6,0,P|69:318|101:368,1,113.75,0|0,3:0|3:0,0:0:0:0:
236,317,99288,2,0,P|265:269|270:213,1,113.75,8|2,0:0|0:0,0:0:0:0:
198,121,99641,1,2,0:0:0:0:
309,90,99817,1,0,3:0:0:0:
167,215,99994,1,8,0:0:0:0:
340,73,100170,1,0,0:0:0:0:
371,264,100347,6,0,P|369:322|349:379,1,113.75,0|0,3:0|0:0,0:0:0:0:
254,184,100700,2,0,P|256:242|276:299,1,113.75,8|0,0:0|0:0,0:0:0:0:
332,98,101053,1,2,0:0:0:0:
146,154,101229,1,0,3:0:0:0:
386,178,101406,1,8,0:0:0:0:
410,143,101494,1,0,3:0:0:0:
419,101,101582,1,0,3:0:0:0:
411,59,101670,1,8,0:0:0:0:
389,24,101759,6,0,P|334:12|260:30,1,113.75,0|0,3:0|0:0,0:0:0:0:
170,99,102111,1,8,0:0:0:0:
285,153,102288,1,2,0:0:0:0:
74,111,102464,1,2,0:0:0:0:
212,14,102641,1,0,3:0:0:0:
119,217,102817,1,8,0:0:0:0:
114,30,102994,1,0,0:0:0:0:
26,246,103170,5,2,3:2:0:0:
267,196,103347,1,0,0:0:0:0:
31,151,103523,5,8,0:0:0:0:
341,241,103700,1,2,0:0:0:0:
11,268,103876,5,0,0:0:0:0:
386,165,104053,1,0,3:0:0:0:
4,146,104229,5,8,0:0:0:0:
433,249,104406,1,2,0:0:0:0:
203,200,104582,5,2,0:0:0:0:
