osu file format v14

[General]
AudioFilename: audio.mp3
AudioLeadIn: 0
PreviewTime: 13886
Countdown: 0
SampleSet: Soft
StackLeniency: 0.5
Mode: 0
LetterboxInBreaks: 0
WidescreenStoryboard: 0

[Editor]
Bookmarks: 13406,30686,46046,61406,76766,92126,107486,122846,138206
DistanceSpacing: 1.2
BeatDivisor: 4
GridSize: 4
TimelineZoom: 1

[Metadata]
Title:hochu k tebe
TitleUnicode:хочу к тебе
Artist:egor nats
ArtistUnicode:егор натс
Creator:Gordon123
Version:Hard
Source:
Tags:hip hop rap pop Убегу Барханов russian русский Daycore Cami Nyantiaz
BeatmapID:1841645
BeatmapSetID:880705

[Difficulty]
HPDrainRate:5
CircleSize:4
OverallDifficulty:6
ApproachRate:7
SliderMultiplier:1.4
SliderTickRate:1

[Events]
//Background and Video events
0,0,"k tebe.jpg",0,0
//Break Periods
2,76966,90206
//Storyboard Layer 0 (Background)
//Storyboard Layer 1 (Fail)
//Storyboard Layer 2 (Pass)
//Storyboard Layer 3 (Foreground)
//Storyboard Sound Samples

[TimingPoints]
7646,480,4,2,1,20,1,0
14126,-100,4,2,0,20,0,0
14366,-100,4,2,1,60,0,0
30206,-100,4,2,1,40,0,0
30686,-100,4,2,1,60,0,0
45566,-100,4,2,1,25,0,0
45806,-100,4,2,1,23,0,0
46046,-100,4,2,1,35,0,0
50126,-100,4,2,1,20,0,0
50366,-100,4,2,1,25,0,0
59966,-100,4,2,1,53,0,0
60206,-100,4,2,1,55,0,0
60446,-100,4,2,1,60,0,0
61406,-100,4,2,1,70,0,1
75806,-100,4,2,1,25,0,0
76046,-100,4,2,1,23,0,0
76286,-100,4,2,1,20,0,0
90206,-100,4,2,1,40,0,0
92606,-100,4,2,1,60,0,0
107006,-100,4,2,1,25,0,0
107246,-100,4,2,1,23,0,0
107486,-100,4,2,1,35,0,0
111566,-100,4,2,1,20,0,0
111806,-100,4,2,1,35,0,0
121406,-100,4,2,1,45,0,0
122846,-100,4,2,1,60,0,1
138206,-100,4,2,1,60,0,0

[Colours]
Combo1 : 172,160,192
Combo2 : 242,206,96
Combo3 : 253,166,151

[HitObjects]
256,120,14126,5,0,0:0:0:0:
212,192,14366,2,0,L|128:208,1,70,0|4,0:0|0:0,0:0:0:0:
300,192,14846,2,0,L|384:208,1,70,8|0,0:0|0:0,0:0:0:0:
256,280,15326,1,4,0:0:0:0:
88,280,15806,6,0,B|52:280|52:280|12:256,1,70,8|4,0:0|0:0,0:0:0:0:
72,192,16286,1,0,0:0:0:0:
88,104,16526,2,0,B|52:104|52:104|22:121,2,70,4|8|0,0:0|0:0|0:0,0:0:0:0:
188,192,17246,1,4,0:0:0:0:
336,112,17726,6,0,L|428:96,1,70,8|4,0:0|0:0,0:0:0:0:
476,148,18206,1,0,0:0:0:0:
476,232,18446,1,4,0:0:0:0:
404,283,18686,2,0,L|336:272,1,70,8|0,0:0|0:0,0:0:0:0:
280,192,19166,1,4,0:0:0:0:
196,192,19406,5,0,0:0:0:0:
124,236,19646,2,0,L|96:316,1,70,8|4,0:0|0:0,0:0:0:0:
124,140,20126,2,0,L|96:60,1,70,0|4,0:0|0:0,0:0:0:0:
176,32,20606,1,8,0:0:0:0:
256,60,20846,1,0,0:0:0:0:
336,32,21086,1,4,0:0:0:0:
256,180,21566,5,8,0:0:0:0:
332,212,21806,2,0,L|320:288,1,70,4|0,0:0|0:0,0:0:0:0:
256,336,22286,1,4,0:0:0:0:
190,281,22526,2,0,L|180:212,1,70,8|0,0:0|0:0,0:0:0:0:
256,112,23006,1,4,0:0:0:0:
256,128,23486,5,8,0:0:0:0:
256,212,23726,1,4,0:0:0:0:
304,280,23966,2,0,P|336:292|396:272,1,70,0|4,0:0|0:0,0:0:0:0:
208,280,24446,2,0,P|173:275|141:287,1,70,8|0,0:0|0:0,0:0:0:0:
256,364,24926,1,4,0:0:0:0:
256,220,25406,5,8,0:0:0:0:
176,192,25646,2,0,B|188:160|188:160|188:112,1,70,4|0,0:0|0:0,0:0:0:0:
256,68,26126,1,4,0:0:0:0:
324,124,26366,2,0,B|324:160|324:160|336:192,2,70,8|0|4,0:0|0:0|0:0,0:0:0:0:
332,44,27086,5,0,0:0:0:0:
256,68,27326,1,8,0:0:0:0:
180,44,27566,1,4,0:0:0:0:
200,124,27806,2,0,L|216:212,1,70,0|4,0:0|0:0,0:0:0:0:
312,236,28286,2,0,L|296:148,1,70,8|0,0:0|0:0,0:0:0:0:
256,56,28766,1,4,0:0:0:0:
100,112,29246,6,0,P|66:109|7:136,1,70,8|0,0:0|0:0,0:0:0:0:
73,192,29726,1,0,0:0:0:0:
100,271,29966,2,0,P|65:274|31:265,2,70,0|2|2,0:0|0:2|0:2,0:0:0:0:
204,192,30686,1,4,0:0:0:0:
352,272,31166,6,0,L|376:364,1,70,8|4,0:0|0:0,0:0:0:0:
420,192,31646,1,0,0:0:0:0:
336,192,31886,1,4,0:0:0:0:
352,112,32126,2,0,L|376:20,1,70,8|0,0:0|0:0,0:0:0:0:
256,24,32606,1,4,0:0:0:0:
132,140,33086,5,8,0:0:0:0:
172,213,33326,2,0,L|145:286,1,70,4|0,0:0|0:0,0:0:0:0:
63,275,33806,2,0,L|87:209,1,70,4|8,0:0|0:0,0:0:0:0:
132,140,34286,1,0,0:0:0:0:
110,58,34526,1,4,0:0:0:0:
272,15,35006,6,0,L|282:91,1,70,8|4,0:0|0:0,0:0:0:0:
232,153,35486,2,0,L|241:222,1,70,0|4,0:0|0:0,0:0:0:0:
200,296,35966,1,8,0:0:0:0:
256,360,36206,1,0,0:0:0:0:
312,296,36446,1,4,0:0:0:0:
443,191,36926,5,8,0:0:0:0:
403,118,37166,2,0,L|427:52,1,70,4|0,0:0|0:0,0:0:0:0:
512,56,37646,2,0,L|487:121,1,70,4|8,0:0|0:0,0:0:0:0:
443,191,38126,1,0,0:0:0:0:
465,273,38366,1,4,0:0:0:0:
300,192,38846,6,0,P|284:148|288:92,1,70,8|4,0:0|0:0,0:0:0:0:
212,192,39326,2,0,P|228:236|224:292,1,70,0|4,0:0|0:0,0:0:0:0:
204,340,39806,1,8,0:0:0:0:
124,360,40046,1,0,0:0:0:0:
44,340,40286,1,4,0:0:0:0:
128,196,40766,6,0,B|128:160|128:160|152:124,1,70,8|4,0:0|0:0,0:0:0:0:
212,78,41246,1,0,0:0:0:0:
296,78,41486,1,4,0:0:0:0:
366,131,41726,2,0,B|385:160|385:160|385:196,1,70,8|0,0:0|0:0,0:0:0:0:
256,264,42206,1,4,0:0:0:0:
404,340,42686,6,0,L|496:348,1,70,8|4,0:0|0:0,0:0:0:0:
452,264,43166,2,0,L|360:256,1,70,0|4,0:0|0:0,0:0:0:0:
328,192,43646,1,8,0:0:0:0:
328,192,43886,1,0,0:0:0:0:
328,192,44126,1,4,0:0:0:0:
108,44,44606,6,0,L|38:37,1,70,8|4,0:0|0:0,0:0:0:0:
60,120,45086,2,0,L|129:126,1,70
180,192,45566,1,0,0:0:0:0:
180,192,45806,1,0,0:0:0:0:
180,192,46046,1,2,0:0:0:0:
318,173,48446,6,0,L|299:241,1,70,2|0,0:0|0:0,0:0:0:0:
212,240,48926,2,0,L|192:173,1,70,2|0,0:0|0:0,0:0:0:0:
194,88,49406,1,2,0:0:0:0:
255,30,49646,1,2,0:0:0:0:
318,88,49886,2,0,L|410:88,2,70,2|0|2,0:0|0:0|0:0,0:0:0:0:
194,276,52286,6,0,P|197:312|235:353,1,70,2|0,0:0|0:0,0:0:0:0:
297,340,52766,2,0,P|315:310|318:275,1,70,0|2,0:0|0:0,0:0:0:0:
300,192,53246,1,2,0:0:0:0:
212,192,53486,1,0,0:0:0:0:
256,76,53726,1,2,0:0:0:0:
420,108,54206,6,0,B|464:104|464:104|500:116,1,70
460,192,54686,1,0,0:0:0:0:
488,271,54926,2,0,B|464:280|464:280|420:276,1,70,2|0,0:0|0:0,0:0:0:0:
344,244,55406,1,0,0:0:0:0:
344,140,55646,1,2,0:0:0:0:
276,192,55886,6,0,L|200:192,1,70,0|2,0:0|0:0,0:0:0:0:
132,152,56366,1,0,0:0:0:0:
60,192,56606,1,0,0:0:0:0:
132,232,56846,1,0,0:0:0:0:
180,300,57086,2,0,L|212:380,1,70
306,364,57566,2,0,L|332:300,1,70,2|0,0:0|0:0,0:0:0:0:
256,224,58046,5,2,0:0:0:0:
220,52,59966,2,0,P|256:44|304:60,2,70,2|0|0,0:0|0:0|0:0,0:0:0:0:
256,128,60686,1,4,0:0:0:0:
200,192,60926,2,0,B|180:224|180:224|180:272,1,70,8|0,0:0|0:0,0:0:0:0:
332,256,61406,6,0,B|332:224|332:224|312:192,1,70,4|0,0:0|0:0,0:0:0:0:
256,128,61886,1,8,0:0:0:0:
280,52,62126,1,4,0:0:0:0:
292,44,62246,1,0,0:0:0:0:
304,36,62366,2,0,L|384:28,1,70,0|4,0:0|0:0,0:0:0:0:
420,100,62846,2,0,L|340:108,1,70,8|0,0:0|0:0,0:0:0:0:
161,106,63326,6,0,L|92:100,1,70,4|0,0:0|0:0,0:0:0:0:
138,29,63806,2,0,L|208:36,1,70,8|4,0:0|0:0,0:0:0:0:
224,40,64166,1,0,0:0:0:0:
240,44,64286,1,0,0:0:0:0:
256,124,64526,1,4,0:0:0:0:
328,168,64766,1,8,0:0:0:0:
256,212,65006,1,0,0:0:0:0:
176,240,65246,6,0,B|152:216|152:216|108:216,1,70,4|0,0:0|0:0,0:0:0:0:
44,168,65726,1,8,0:0:0:0:
44,84,65966,1,4,0:0:0:0:
60,84,66086,1,0,0:0:0:0:
76,84,66206,2,0,B|100:108|100:108|144:108,1,70,0|4,0:0|0:0,0:0:0:0:
216,84,66686,2,0,L|308:72,1,70,8|0,0:0|0:0,0:0:0:0:
356,120,67166,5,4,0:0:0:0:
356,216,67406,1,0,0:0:0:0:
285,261,67646,2,0,L|216:252,1,70,8|4,0:0|0:0,0:0:0:0:
206,241,68006,1,0,0:0:0:0:
197,229,68126,1,0,0:0:0:0:
136,120,68366,2,0,P|120:84|128:44,1,70,4|8,0:0|0:0,0:0:0:0:
64,168,68846,1,0,0:0:0:0:
136,216,69086,6,0,P|152:252|144:292,1,70,4|0,0:0|0:0,0:0:0:0:
66,264,69566,1,8,0:0:0:0:
64,168,69806,1,4,0:0:0:0:
72,156,69926,1,0,0:0:0:0:
80,144,70046,1,0,0:0:0:0:
176,140,70286,1,4,0:0:0:0:
256,80,70526,1,8,0:0:0:0:
336,140,70766,1,0,0:0:0:0:
348,224,71006,6,0,B|348:258|348:258|332:290,1,70,4|0,0:0|0:0,0:0:0:0:
256,336,71486,1,8,0:0:0:0:
181,290,71726,1,4,0:0:0:0:
181,274,71846,1,0,0:0:0:0:
181,256,71966,2,0,B|165:224|165:224|165:190,1,70,0|4,0:0|0:0,0:0:0:0:
256,136,72446,1,8,0:0:0:0:
256,52,72686,1,0,0:0:0:0:
340,36,72926,6,0,P|376:52|432:44,1,70,4|0,0:0|0:0,0:0:0:0:
492,52,73406,1,8,0:0:0:0:
440,120,73646,1,4,0:0:0:0:
432,132,73766,1,0,0:0:0:0:
424,144,73886,1,0,0:0:0:0:
340,192,74126,1,4,0:0:0:0:
256,140,74366,1,8,0:0:0:0:
172,192,74606,1,0,0:0:0:0:
176,276,74846,6,0,L|84:284,1,70,4|0,0:0|0:0,0:0:0:0:
140,360,75326,2,0,L|232:352,1,70,8|4,0:0|0:0,0:0:0:0:
302,353,75806,2,0,L|372:360,1,70
405,282,76286,2,0,L|336:276,1,70
256,200,76766,5,0,0:0:0:0:
256,56,91646,5,2,0:1:0:0:
256,92,91886,1,2,0:1:0:0:
256,128,92126,1,4,0:0:0:0:
348,240,92606,6,0,L|444:232,1,70,8|4,0:0|0:0,0:0:0:0:
388,312,93086,2,0,L|318:317,1,70,0|4,0:0|0:0,0:0:0:0:
256,264,93566,1,8,0:0:0:0:
193,317,93806,2,0,L|124:312,2,70,0|4|0,0:0|0:0|0:0,0:0:0:0:
256,264,94526,5,8,0:0:0:0:
200,204,94766,2,0,P|192:164|204:124,1,70,4|0,0:0|0:0,0:0:0:0:
256,76,95246,1,4,0:0:0:0:
313,135,95486,2,0,P|320:170|312:204,2,70,8|0|4,0:0|0:0|0:0,0:0:0:0:
256,16,96446,5,8,0:0:0:0:
204,84,96686,2,0,L|124:96,1,70,4|0,0:0|0:0,0:0:0:0:
71,150,97166,1,4,0:0:0:0:
71,234,97406,1,8,0:0:0:0:
134,289,97646,2,0,L|204:300,2,70,0|4|0,0:0|0:0|0:0,0:0:0:0:
156,192,98366,5,8,0:0:0:0:
208,124,98606,2,0,B|244:124|244:124|280:140,1,70,4|0,0:0|0:0,0:0:0:0:
340,192,99086,1,4,0:0:0:0:
340,192,99326,1,8,0:0:0:0:
275,246,99566,2,0,B|244:260|244:260|208:260,1,70,0|4,0:0|0:0,0:0:0:0:
56,192,100286,5,8,0:0:0:0:
139,193,100526,1,4,0:0:0:0:
208,146,100766,2,0,P|220:114|201:53,1,70,0|4,0:0|0:0,0:0:0:0:
207,242,101246,2,0,P|201:276|212:309,1,70,8|0,0:0|0:0,0:0:0:0:
290,194,101726,1,4,0:0:0:0:
311,194,102206,5,8,0:0:0:0:
343,118,102446,2,0,L|418:130,1,70,4|0,0:0|0:0,0:0:0:0:
467,194,102926,1,4,0:0:0:0:
412,260,103166,2,0,L|342:269,1,70,8|0,0:0|0:0,0:0:0:0:
242,194,103646,1,4,0:0:0:0:
264,194,104126,5,8,0:0:0:0:
296,274,104367,2,0,B|280:306|280:306|248:322,1,70,4|0,0:0|0:0,0:0:0:0:
264,194,104846,1,4,0:0:0:0:
296,106,105086,2,0,B|280:74|280:74|248:58,1,70,8|0,0:0|0:0,0:0:0:0:
164,192,105566,1,4,0:0:0:0:
332,192,106046,5,8,0:0:0:0:
368,114,106286,2,0,L|437:125,1,70,4|0,0:0|0:0,0:0:0:0:
438,254,106766,2,0,L|369:265,1,70
332,192,107246,1,0,0:0:0:0:
248,192,107486,1,2,0:0:0:0:
64,104,109886,6,0,B|104:104|104:104|148:128,1,70,2|0,0:0|0:0,0:0:0:0:
172,192,110366,1,2,0:0:0:0:
88,192,110606,1,0,0:0:0:0:
64,280,110846,2,0,B|104:280|104:280|130:265,1,70,2|2,0:0|0:0,0:0:0:0:
172,192,111326,2,0,L|260:192,2,70,2|0|2,0:0|0:0|0:0,0:0:0:0:
256,76,113726,5,2,0:0:0:0:
256,160,113966,1,0,0:0:0:0:
312,224,114206,2,0,P|334:250|340:284,1,70
256,287,114686,1,0,0:0:0:0:
172,285,114926,2,0,P|178:251|200:224,1,70,0|6,0:0|0:0,0:0:0:0:
200,56,115646,5,8,0:0:0:0:
256,120,115886,1,0,0:0:0:0:
312,56,116126,1,0,0:0:0:0:
320,68,116246,1,0,0:0:0:0:
328,80,116366,1,4,0:0:0:0:
292,208,116606,2,0,P|256:216|212:204,2,70,8|0|4,0:0|0:0|0:0,0:0:0:0:
372,240,117326,6,0,B|362:277|362:277|322:309,1,70,4|8,0:0|0:0,0:0:0:0:
256,372,117806,1,0,0:0:0:0:
256,356,117926,1,0,0:0:0:0:
256,340,118046,1,0,0:0:0:0:
174,296,118286,2,0,B|150:277|150:277|140:240,2,70,4|8|0,0:0|0:0|0:0,0:0:0:0:
256,260,119006,1,4,0:0:0:0:
256,192,119126,12,0,120926,0:0:0:0:
220,332,121406,6,0,P|256:340|304:324,2,70,2|0|0,0:0|0:0|0:0,0:0:0:0:
256,256,122126,1,4,0:0:0:0:
200,192,122366,2,0,B|176:168|176:168|176:128,1,70,8|0,0:0|0:0,0:0:0:0:
336,131,122846,6,0,B|336:168|336:168|312:192,1,70,4|0,0:0|0:0,0:0:0:0:
256,256,123326,1,8,0:0:0:0:
256,104,123566,1,4,0:0:0:0:
256,88,123686,1,0,0:0:0:0:
256,72,123806,1,0,0:0:0:0:
180,36,124046,1,4,0:0:0:0:
148,116,124286,2,0,L|79:113,1,70,8|0,0:0|0:0,0:0:0:0:
121,194,124766,6,0,L|190:197,1,70,4|0,0:0|0:0,0:0:0:0:
322,197,125246,2,0,L|392:194,1,70,8|4,0:0|0:0,0:0:0:0:
401,181,125606,1,0,0:0:0:0:
410,168,125726,1,0,0:0:0:0:
404,84,125966,2,0,L|335:88,1,70,4|8,0:0|0:0,0:0:0:0:
256,116,126446,1,0,0:0:0:0:
304,184,126686,6,0,P|312:224|292:268,1,70,4|0,0:0|0:0,0:0:0:0:
225,219,127166,1,8,0:0:0:0:
148,184,127406,1,4,0:0:0:0:
133,183,127526,1,0,0:0:0:0:
118,183,127646,1,0,0:0:0:0:
92,264,127886,1,4,0:0:0:0:
169,296,128126,2,0,B|169:336|169:336|189:376,1,70,8|0,0:0|0:0,0:0:0:0:
259,328,128606,5,4,0:0:0:0:
259,328,128846,1,0,0:0:0:0:
335,362,129086,2,0,B|349:336|349:336|349:296,1,70,8|4,0:0|0:0,0:0:0:0:
349,280,129446,1,0,0:0:0:0:
349,264,129566,1,0,0:0:0:0:
364,180,129806,2,0,P|320:156|308:112,1,70,4|8,0:0|0:0,0:0:0:0:
256,76,130286,1,0,0:0:0:0:
200,139,130526,6,0,P|180:167|148:180,1,70,4|0,0:0|0:0,0:0:0:0:
152,264,131006,2,0,L|68:276,1,70,8|4,0:0|0:0,0:0:0:0:
72,288,131366,1,0,0:0:0:0:
63,301,131486,1,0,0:0:0:0:
116,364,131726,2,0,L|185:373,1,70,4|8,0:0|0:0,0:0:0:0:
256,312,132206,1,0,0:0:0:0:
320,368,132446,6,0,L|389:359,1,70,4|0,0:0|0:0,0:0:0:0:
429,273,132926,2,0,L|360:264,1,70,8|4,0:0|0:0,0:0:0:0:
342,265,133286,1,0,0:0:0:0:
326,265,133406,1,0,0:0:0:0:
200,228,133646,2,0,B|212:196|212:196|212:144,1,70,4|8,0:0|0:0,0:0:0:0:
256,88,134126,1,0,0:0:0:0:
300,160,134366,6,0,B|300:196|300:196|312:228,1,70,4|0,0:0|0:0,0:0:0:0:
256,292,134846,1,8,0:0:0:0:
256,140,135086,1,4,0:0:0:0:
256,124,135206,1,0,0:0:0:0:
256,108,135326,1,0,0:0:0:0:
340,96,135566,2,0,L|436:88,1,70,4|8,0:0|0:0,0:0:0:0:
396,172,136046,2,0,L|300:180,1,70,0|4,0:0|0:0,0:0:0:0:
256,140,136526,5,0,0:0:0:0:
185,177,136766,2,0,L|116:172,1,70,8|0,0:0|0:0,0:0:0:0:
102,90,137246,2,0,L|172:96,1,70
256,96,137726,1,0,0:0:0:0:
300,168,137966,1,0,0:0:0:0:
212,168,138206,5,0,0:0:0:0:
