osu file format v14

[General]
AudioFilename: audio.mp3
AudioLeadIn: 0
PreviewTime: 13886
Countdown: 0
SampleSet: Soft
StackLeniency: 0.7
Mode: 0
LetterboxInBreaks: 0
WidescreenStoryboard: 0

[Editor]
Bookmarks: 15326,30686,46046,76766,107486,122846,138206
DistanceSpacing: 1
BeatDivisor: 4
GridSize: 16
TimelineZoom: 1.6

[Metadata]
Title:hochu k tebe
TitleUnicode:хочу к тебе
Artist:egor nats
ArtistUnicode:егор натс
Creator:Gordon123
Version:Collab Easy
Source:
Tags:hip hop rap pop Убегу Барханов russian русский Daycore Cami Nyantiaz
BeatmapID:1841644
BeatmapSetID:880705

[Difficulty]
HPDrainRate:2
CircleSize:3
OverallDifficulty:2
ApproachRate:3
SliderMultiplier:1
SliderTickRate:1

[Events]
//Background and Video events
0,0,"k tebe.jpg",0,0
//Break Periods
2,46246,57566
2,76766,90206
2,107966,113246
//Storyboard Layer 0 (Background)
//Storyboard Layer 1 (Fail)
//Storyboard Layer 2 (Pass)
//Storyboard Layer 3 (Foreground)
//Storyboard Sound Samples

[TimingPoints]
7646,480,4,2,1,20,1,0
14126,-100,4,2,0,20,0,0
14366,-100,4,2,1,60,0,0
30206,-100,4,2,1,40,0,0
30686,-100,4,2,1,60,0,0
45566,-100,4,2,1,25,0,0
45806,-100,4,2,1,23,0,0
46046,-100,4,2,1,35,0,0
50126,-100,4,2,1,20,0,0
50366,-100,4,2,1,35,0,0
59966,-100,4,2,1,53,0,0
60206,-100,4,2,1,55,0,0
60446,-100,4,2,1,60,0,0
61406,-100,4,2,1,70,0,1
75806,-100,4,2,1,25,0,0
76046,-100,4,2,1,23,0,0
76286,-100,4,2,1,20,0,0
76766,-100,4,2,1,20,0,0
90206,-100,4,2,1,40,0,0
92606,-100,4,2,1,60,0,0
107006,-100,4,2,1,25,0,0
107246,-100,4,2,1,23,0,0
107486,-100,4,2,1,35,0,0
111566,-100,4,2,1,20,0,0
111806,-100,4,2,1,35,0,0
121406,-100,4,2,1,45,0,0
122846,-100,4,2,1,60,0,1
138206,-100,4,2,1,60,0,0

[Colours]
Combo1 : 172,160,192
Combo2 : 242,206,96
Combo3 : 253,166,151

[HitObjects]
470,45,14366,5,0,0:0:0:0:
451,144,14846,1,8,0:0:0:0:
507,226,15326,6,0,P|477:241|393:224,1,100,4|8,0:0|0:0,0:0:0:0:
341,163,16286,2,0,B|298:205|319:266,1,100,0|8,0:0|0:0,0:0:0:0:
350,348,17246,2,0,B|256:315|256:315|156:354,1,200,4|0,0:0|0:0,0:0:0:0:
66,380,18686,1,8,0:0:0:0:
94,284,19166,6,0,L|196:241,2,100,4|8|0,0:0|0:0|0:0,0:0:0:0:
66,380,20606,1,8,0:0:0:0:
162,351,21086,2,0,B|256:315|256:315|350:348,1,200,4|0,0:0|0:0,0:0:0:0:
446,380,22526,1,8,0:0:0:0:
418,284,23006,6,0,L|312:244,2,100,4|8|0,0:0|0:0|0:0,0:0:0:0:
504,236,24446,1,8,0:0:0:0:
470,141,24926,2,0,B|438:105|445:53|445:53|404:88|327:71,1,200,4|0,0:0|0:0,0:0:0:0:
256,32,26366,1,8,0:0:0:0:
166,74,26846,6,0,B|108:88|67:53|67:53|74:105|42:141,1,200,4|0,0:0|0:0,0:0:0:0:
69,236,28286,1,8,0:0:0:0:
162,272,28766,2,0,B|256:238|256:238|361:269,1,200,4|0,0:0|0:0,0:0:0:0:
448,294,30206,1,2,0:2:0:0:
425,196,30686,6,0,B|435:123|435:123|501:67,2,150,4|4|8,0:0|0:0|0:0,0:0:0:0:
448,294,32606,1,4,0:0:0:0:
351,266,33086,2,0,L|247:276,1,100,8|0,0:0|0:0,0:0:0:0:
169,217,34046,1,8,0:0:0:0:
77,257,34526,6,0,P|67:184|1:128,2,150,4|4|8,0:0|0:0|0:0,0:0:0:0:
56,355,36446,1,4,0:0:0:0:
256,368,37406,1,0,0:0:0:0:
256,268,37886,1,8,0:0:0:0:
256,168,38366,6,0,P|284:127|331:113,1,100,4|8,0:0|0:0,0:0:0:0:
421,158,39326,2,0,P|388:202|340:212,1,100,0|8,0:0|0:0,0:0:0:0:
256,168,40286,1,4,0:0:0:0:
174,225,40766,2,0,L|180:344,2,100,8|0|8,0:0|0:0|0:0,0:0:0:0:
167,125,42206,5,4,0:0:0:0:
256,80,42686,2,0,P|310:72|368:80,1,100,8|0,0:0|0:0,0:0:0:0:
436,135,43646,1,8,0:0:0:0:
367,208,44126,1,4,0:0:0:0:
289,271,44606,2,0,B|239:281|190:267|190:267|146:283|90:272,1,200,8|0,0:0|0:0,0:0:0:0:
132,181,46046,5,2,0:0:0:0:
100,131,60446,6,0,P|151:108|209:87,1,100,0|8,0:0|0:0,0:0:0:0:
278,40,61406,5,4,0:0:0:0:
374,66,61886,1,8,0:0:0:0:
401,162,62366,1,0,0:0:0:0:
347,242,62846,2,0,B|299:234|299:234|245:249,1,100,8|4,0:0|0:0,0:0:0:0:
262,347,63806,2,0,P|172:313|154:219,1,200,8|8,0:0|0:0,0:0:0:0:
178,122,65246,6,0,L|73:103,2,100,4|8|0,0:0|0:0|0:0,0:0:0:0:
275,144,66686,2,0,L|373:161,1,100,8|4,0:0|0:0,0:0:0:0:
456,106,67646,2,0,P|473:176|375:264,1,200,8|8,0:0|0:0,0:0:0:0:
296,293,69086,5,4,0:0:0:0:
201,325,69566,2,0,L|99:355,1,100,8|0,0:0|0:0,0:0:0:0:
59,264,70526,2,0,L|154:235,1,100,8|4,0:0|0:0,0:0:0:0:
250,207,71486,2,0,B|293:168|339:168|339:168|340:166|340:166|341:168|341:168|409:168|446:120,1,200,8|8,0:0|0:0,0:0:0:0:
349,76,72926,6,0,P|387:44|436:37,2,100,4|8|0,0:0|0:0|0:0,0:0:0:0:
429,137,74366,2,0,P|437:172|434:245,1,100,8|4,0:0|0:0,0:0:0:0:
459,332,75326,6,0,B|431:301|431:301|261:296,1,200,8|0,0:0|0:0,0:0:0:0:
384,76,92126,6,0,P|378:105|402:180,1,100,4|8,0:0|0:0,0:0:0:0:
477,229,93086,2,0,P|442:259|374:263,1,100,0|8,0:0|0:0,0:0:0:0:
293,240,94046,2,0,B|195:219|195:219|86:243,1,200,4|0,0:0|0:0,0:0:0:0:
130,146,95486,1,8,0:0:0:0:
130,46,95966,6,0,P|57:73|28:144,2,150,4|4|8,0:0|0:0|0:0,0:0:0:0:
130,146,97886,2,0,P|180:129|235:154,2,100,4|8|0,0:0|0:0|0:0,0:0:0:0:
80,232,99326,1,8,0:0:0:0:
179,232,99806,6,0,P|214:263|286:260,1,100,4|8,0:0|0:0,0:0:0:0:
342,209,100766,1,0,0:0:0:0:
416,142,101246,1,8,0:0:0:0:
484,215,101726,1,4,0:0:0:0:
417,289,102206,1,8,0:0:0:0:
338,350,102686,2,0,B|293:331|293:331|233:356,1,100,0|8,0:0|0:0,0:0:0:0:
229,252,103646,6,0,B|205:182|205:182|226:76,2,150,4|4|8,0:0|0:0|0:0,0:0:0:0:
285,334,105566,2,0,P|207:344|179:334,1,100,4|8,0:0|0:0,0:0:0:0:
101,287,106526,2,0,P|23:277|-5:287,1,100,0|0,0:0|0:0,0:0:0:0:
2,384,107486,1,2,0:0:0:0:
2,384,115166,5,6,0:0:0:0:
89,335,115646,2,0,B|100:255|100:255|81:218|81:218|89:120,1,200,8|8,0:0|0:0,0:0:0:0:
125,48,117086,2,0,P|172:86|185:137,1,100,4|8,0:0|0:0,0:0:0:0:
222,214,118046,2,0,P|269:176|282:125,1,100,0|8,0:0|0:0,0:0:0:0:
347,65,119006,6,0,P|324:150|411:233,1,200,4|0,0:0|0:0,0:0:0:0:
419,132,120446,1,0,0:0:0:0:
489,203,120926,1,0,0:0:0:0:
508,298,121406,2,0,B|432:309|432:309|404:329|404:329|313:340,1,200,2|8,0:0|0:0,0:0:0:0:
215,332,122846,6,0,P|195:300|194:222,1,100,4|8,0:0|0:0,0:0:0:0:
242,154,123806,1,0,0:0:0:0:
341,166,124286,2,0,P|354:110|349:60,1,100,8|4,0:0|0:0,0:0:0:0:
255,40,125246,2,0,P|165:74|146:168,1,200,8|8,0:0|0:0,0:0:0:0:
108,260,126686,6,0,L|206:242,1,100,4|8,0:0|0:0,0:0:0:0:
306,246,127646,1,0,0:0:0:0:
395,291,128126,2,0,B|392:261|392:261|413:194,1,100,8|4,0:0|0:0,0:0:0:0:
454,103,129086,2,0,P|369:113|244:67,1,200,8|8,0:0|0:0,0:0:0:0:
167,45,130526,5,4,0:0:0:0:
100,119,131006,2,0,L|195:147,1,100,8|0,0:0|0:0,0:0:0:0:
199,247,131966,2,0,L|104:219,1,100,8|4,0:0|0:0,0:0:0:0:
51,304,132926,2,0,B|71:334|139:334|139:334|140:332|140:332|141:334|141:334|187:334|230:373,1,200,8|8,0:0|0:0,0:0:0:0:
321,332,134366,6,0,P|359:364|408:372,2,100,4|8|0,0:0|0:0|0:0,0:0:0:0:
273,244,135806,1,8,0:0:0:0:
330,162,136286,2,0,L|126:238,1,200,4|0,0:0|0:0,0:0:0:0:
48,265,137726,1,0,0:0:0:0:
69,167,138206,1,0,0:0:0:0:
