osu file format v14

[General]
AudioFilename: cray.mp3
AudioLeadIn: 0
PreviewTime: 30
Countdown: 0
SampleSet: Soft
StackLeniency: 0.7
Mode: 1
LetterboxInBreaks: 0
WidescreenStoryboard: 0

[Editor]
DistanceSpacing: 0.5
BeatDivisor: 4
GridSize: 32
TimelineZoom: 1

[Metadata]
Title:Goat standing up meme undertale
TitleUnicode:Goat standing up meme undertale
Artist:eg_9371
ArtistUnicode:eg_9371
Creator:Stefan
Version:Oni
Source:UNDERTALE
Tags:siivagunner silvagunner asriel tryna be cray memory short version toby fox pissy pamper young nudy pi'erre bourne playboi carti video game instrumental thenutritiousguy tng
BeatmapID:2550967
BeatmapSetID:1226780

[Difficulty]
HPDrainRate:9
CircleSize:5
OverallDifficulty:5
ApproachRate:5
SliderMultiplier:1.4
SliderTickRate:1

[Events]
//Background and Video events
0,0,"BG.png",0,-10
//Break Periods
//Storyboard Layer 0 (Background)
//Storyboard Layer 1 (Fail)
//Storyboard Layer 2 (Pass)
//Storyboard Layer 3 (Foreground)
//Storyboard Layer 4 (Overlay)
//Storyboard Sound Samples

[TimingPoints]
30,731.707317073171,4,2,0,30,1,0

[HitObjects]
256,192,30,5,0,0:0:0:0:
256,192,395,1,0,0:0:0:0:
256,192,578,1,2,0:0:0:0:
256,192,1127,1,2,0:0:0:0:
256,192,1676,1,2,0:0:0:0:
256,192,1859,1,0,0:0:0:0:
256,192,2225,1,0,0:0:0:0:
256,192,2590,1,2,0:0:0:0:
256,192,2956,1,2,0:0:0:0:
256,192,3322,1,0,0:0:0:0:
256,192,3505,1,2,0:0:0:0:
256,192,4054,1,2,0:0:0:0:
256,192,4786,1,0,0:0:0:0:
256,192,5517,1,0,0:0:0:0:
256,192,5883,1,0,0:0:0:0:
256,192,6249,1,0,0:0:0:0:
256,192,6432,1,2,0:0:0:0:
256,192,6981,1,2,0:0:0:0:
256,192,7530,1,2,0:0:0:0:
256,192,7712,1,0,0:0:0:0:
256,192,8078,1,0,0:0:0:0:
256,192,8444,1,0,0:0:0:0:
256,192,8810,1,2,0:0:0:0:
256,192,9176,1,0,0:0:0:0:
256,192,9359,1,2,0:0:0:0:
256,192,9908,1,0,0:0:0:0:
256,192,10639,1,0,0:0:0:0:
256,192,11371,1,2,0:0:0:0:
256,192,11737,1,0,0:0:0:0:
256,192,12103,1,0,0:0:0:0:
256,192,12286,1,2,0:0:0:0:
256,192,12834,1,2,0:0:0:0:
256,192,13383,1,2,0:0:0:0:
256,192,13566,1,0,0:0:0:0:
256,192,13932,1,2,0:0:0:0:
256,192,14298,1,0,0:0:0:0:
256,192,14664,1,2,0:0:0:0:
256,192,15030,1,0,0:0:0:0:
256,192,15212,1,2,0:0:0:0:
256,192,15761,1,2,0:0:0:0:
256,192,16493,1,0,0:0:0:0:
256,192,17225,1,2,0:0:0:0:
256,192,17590,1,0,0:0:0:0:
256,192,17956,1,0,0:0:0:0:
256,192,18139,1,2,0:0:0:0:
256,192,18688,1,2,0:0:0:0:
256,192,19237,1,2,0:0:0:0:
256,192,19420,1,0,0:0:0:0:
256,192,19786,1,0,0:0:0:0:
256,192,20151,1,2,0:0:0:0:
256,192,20517,1,0,0:0:0:0:
256,192,20883,1,0,0:0:0:0:
256,192,21066,1,2,0:0:0:0:
256,192,21615,1,0,0:0:0:0:
256,192,22347,1,0,0:0:0:0:
256,192,23078,1,2,0:0:0:0:
256,192,23444,1,0,0:0:0:0:
256,192,23810,1,0,0:0:0:0:
256,192,23993,1,2,0:0:0:0:
256,192,24542,1,2,0:0:0:0:
256,192,25090,1,2,0:0:0:0:
256,192,25273,1,0,0:0:0:0:
256,192,25639,1,0,0:0:0:0:
256,192,26005,1,2,0:0:0:0:
256,192,26371,1,2,0:0:0:0:
256,192,26737,1,0,0:0:0:0:
256,192,26920,1,2,0:0:0:0:
256,192,27469,1,2,0:0:0:0:
256,192,28200,1,0,0:0:0:0:
256,192,28932,1,0,0:0:0:0:
256,192,29298,1,0,0:0:0:0:
256,192,29664,1,0,0:0:0:0:
256,192,29847,1,2,0:0:0:0:
256,192,30395,1,2,0:0:0:0:
256,192,30944,1,2,0:0:0:0:
256,192,31127,1,0,0:0:0:0:
256,192,31493,1,2,0:0:0:0:
256,192,31859,1,2,0:0:0:0:
256,192,32225,1,0,0:0:0:0:
256,192,32590,1,0,0:0:0:0:
256,192,32773,1,2,0:0:0:0:
256,192,33322,1,0,0:0:0:0:
256,192,34054,1,0,0:0:0:0:
256,192,34786,1,2,0:0:0:0:
256,192,35151,1,0,0:0:0:0:
