osu file format v14

[General]
AudioFilename: d.mp3
AudioLeadIn: 0
PreviewTime: 66181
Countdown: 0
SampleSet: None
StackLeniency: 0.7
Mode: 1
LetterboxInBreaks: 0
WidescreenStoryboard: 1

[Editor]
DistanceSpacing: 0.6
BeatDivisor: 3
GridSize: 32
TimelineZoom: 3.999998

[Metadata]
Title:theta
TitleUnicode:θ
Artist:effe
ArtistUnicode:effe
Creator:Raphalge
Version:???
Source:crossbeats REV.SUNRISE
Tags:
BeatmapID:1854230
BeatmapSetID:886977

[Difficulty]
HPDrainRate:6
CircleSize:2
OverallDifficulty:6.5
ApproachRate:10
SliderMultiplier:1.4
SliderTickRate:1

[Events]
//Background and Video events
0,0,"a.jpg",0,-20
//Break Periods
//Storyboard Layer 0 (Background)
//Storyboard Layer 1 (Fail)
//Storyboard Layer 2 (Pass)
//Storyboard Layer 3 (Foreground)
//Storyboard Sound Samples

[TimingPoints]
1146,428.571428571429,4,1,0,60,1,0
5431,-99.009900990099,4,1,0,60,0,0
5646,-98.0392156862745,4,1,0,60,0,0
5860,-97.0873786407767,4,1,0,60,0,0
6074,-96.1538461538461,4,1,0,60,0,0
6288,-95.2380952380952,4,1,0,60,0,0
7360,-94.3396226415094,4,1,0,60,0,0
7574,-93.4579439252336,4,1,0,60,0,0
7681,-92.5925925925926,4,1,0,60,0,0
7788,-91.743119266055,4,1,0,60,0,0
7896,-90.9090909090909,4,1,0,60,0,0
8003,-90.0900900900901,4,1,0,60,0,0
9288,-89.2857142857143,4,1,0,60,0,0
9431,-88.4955752212389,4,1,0,60,0,0
9574,-87.719298245614,4,1,0,60,0,0
9717,-86.9565217391304,4,1,0,60,0,0
9860,-86.2068965517241,4,1,0,60,0,0
9931,-85.4700854700855,4,1,0,60,0,0
10146,-90.0900900900901,4,1,0,60,0,0
11003,-89.2857142857143,4,1,0,60,0,0
11146,-88.4955752212389,4,1,0,60,0,0
11217,-87.719298245614,4,1,0,60,0,0
11288,-86.9565217391304,4,1,0,60,0,0
11360,-86.2068965517241,4,1,0,60,0,0
11431,-85.4700854700855,4,1,0,60,0,0
11538,-84.7457627118644,4,1,0,60,0,0
11646,-84.0336134453781,4,1,0,60,0,0
11860,-90.0900900900901,4,1,0,60,0,0
12931,-89.2857142857143,4,1,0,60,0,0
13038,-88.4955752212389,4,1,0,60,0,0
13146,-87.719298245614,4,1,0,60,0,0
13288,-86.9565217391304,4,1,0,60,0,0
13431,-86.2068965517241,4,1,0,60,0,0
13574,-85.4700854700855,4,1,0,60,0,0
13788,-84.7457627118644,4,1,0,60,0,0
13896,-84.0336134453781,4,1,0,60,0,0
14003,-83.3333333333333,4,1,0,60,0,0
14110,-84.0336134453781,4,1,0,60,0,0
14217,-84.7457627118644,4,1,0,60,0,0
14324,-85.4700854700855,4,1,0,60,0,0
14431,-86.2068965517241,4,1,0,60,0,0
14574,-86.9565217391304,4,1,0,60,0,0
14717,-87.719298245614,4,1,0,60,0,0
14860,-88.4955752212389,4,1,0,60,0,0
15074,-89.2857142857143,4,1,0,60,0,0
17860,-88.4955752212389,4,1,0,60,0,0
18003,-87.719298245614,4,1,0,60,0,0
18146,-86.9565217391304,4,1,0,60,0,0
18288,-86.2068965517241,4,1,0,60,0,0
18503,-89.2857142857143,4,1,0,60,0,0
19896,-88.4955752212389,4,1,0,60,0,0
20003,-87.719298245614,4,1,0,60,0,0
20146,-86.9565217391304,4,1,0,60,0,0
20288,-86.2068965517241,4,1,0,60,0,0
20431,-85.4700854700855,4,1,0,60,0,0
20574,-84.7457627118644,4,1,0,60,0,0
20717,-84.0336134453781,4,1,0,60,0,0
20860,-83.3333333333333,4,1,0,60,0,0
21717,-100,4,1,0,60,0,0
22467,-99.009900990099,4,1,0,60,0,0
22574,-98.0392156862745,4,1,0,60,0,0
22788,-96.1538461538461,4,1,0,60,0,0
22896,-95.2380952380952,4,1,0,60,0,0
23110,-93.4579439252336,4,1,0,60,0,0
23217,-92.5925925925926,4,1,0,60,0,0
23324,-91.743119266055,4,1,0,60,0,0
23431,-90.9090909090909,4,1,0,60,0,0
28896,-90.0900900900901,4,1,0,60,0,0
29003,-88.4955752212389,4,1,0,60,0,0
29110,-86.9565217391304,4,1,0,60,0,0
29217,-85.4700854700855,4,1,0,60,0,0
29324,-84.0336134453781,4,1,0,60,0,0
29378,-83.3333333333333,4,1,0,60,0,0
29431,-82.6446280991736,4,1,0,60,0,0
29753,-90.9090909090909,4,1,0,60,0,0
32288,-90.0900900900901,4,1,0,60,0,0
32574,-88.4955752212389,4,1,0,60,0,0
32860,-86.9565217391304,4,1,0,60,0,0
33074,-85.4700854700855,4,1,0,60,0,0
33288,-84.7457627118644,4,1,0,60,0,0
33396,-84.0336134453781,4,1,0,60,0,0
33503,-83.3333333333333,4,1,0,60,0,0
33610,-82.6446280991736,4,1,0,60,0,0
33717,-81.9672131147541,4,1,0,60,0,0
34038,-90.9090909090909,4,1,0,60,0,0
36931,-90.0900900900901,4,1,0,60,0,0
37146,-88.4955752212389,4,1,0,60,0,0
37253,-87.719298245614,4,1,0,60,0,0
37360,-86.9565217391304,4,1,0,60,0,0
37467,-86.2068965517241,4,1,0,60,0,0
37574,-85.4700854700855,4,1,0,60,0,0
37788,-84.0336134453781,4,1,0,60,0,0
38003,-82.6446280991736,4,1,0,60,0,0
38217,-81.9672131147541,4,1,0,60,0,0
38324,-81.3008130081301,4,1,0,60,0,0
38431,-80.6451612903226,4,1,0,60,0,0
38485,-80,4,1,0,60,0,0
38538,-79.3650793650794,4,1,0,60,0,0
38860,-90.9090909090909,4,1,0,60,0,0
42610,-90.0900900900901,4,1,0,60,0,0
42860,-88.4955752212389,4,1,0,60,0,0
43146,-86.9565217391304,4,1,0,60,0,0
43288,-84.7457627118644,4,1,0,60,0,0
43431,-83.3333333333333,4,1,0,60,0,0
43574,-81.9672131147541,4,1,0,60,0,0
44003,-142.857142857143,4,1,0,60,0,0
44217,-148.148148148148,4,1,0,60,0,0
44431,-153.846153846154,4,1,0,60,0,0
44646,-160,4,1,0,60,0,0
44860,-166.666666666667,4,1,0,60,0,0
45288,-142.857142857143,4,1,0,60,0,0
45503,-148.148148148148,4,1,0,60,0,0
45717,-153.846153846154,4,1,0,60,0,0
45931,-160,4,1,0,60,0,0
46146,-166.666666666667,4,1,0,60,0,0
46574,-142.857142857143,4,1,0,60,0,0
46788,-137.931034482759,4,1,0,60,0,0
47003,-133.333333333333,4,1,0,60,0,0
47217,-129.032258064516,4,1,0,60,0,0
47431,-125,4,1,0,60,0,0
47646,-117.647058823529,4,1,0,60,0,0
47860,-111.111111111111,4,1,0,60,0,0
48074,-105.263157894737,4,1,0,60,0,0
48288,-108.108108108108,4,1,0,60,0,0
48503,-111.111111111111,4,1,0,60,0,0
48717,-114.285714285714,4,1,0,60,0,0
48931,-117.647058823529,4,1,0,60,0,0
49146,-125,4,1,0,60,0,0
49360,-133.333333333333,4,1,0,60,0,0
49574,-142.857142857143,4,1,0,60,0,0
49788,-153.846153846154,4,1,0,60,0,0
50003,-166.666666666667,4,1,0,60,0,0
50431,-142.857142857143,4,1,0,60,0,0
50646,-137.931034482759,4,1,0,60,0,0
50860,-133.333333333333,4,1,0,60,0,0
51074,-129.032258064516,4,1,0,60,0,0
51288,-125,4,1,0,60,0,0
51503,-117.647058823529,4,1,0,60,0,0
51717,-111.111111111111,4,1,0,60,0,0
51931,-105.263157894737,4,1,0,60,0,0
52146,-108.108108108108,4,1,0,60,0,0
52360,-111.111111111111,4,1,0,60,0,0
52574,-114.285714285714,4,1,0,60,0,0
52788,-117.647058823529,4,1,0,60,0,0
53003,-121.212121212121,4,1,0,60,0,0
53217,-125,4,1,0,60,0,0
53431,-133.333333333333,4,1,0,60,0,0
53646,-142.857142857143,4,1,0,60,0,0
53860,-153.846153846154,4,1,0,60,0,0
54074,-166.666666666667,4,1,0,60,0,0
54288,-181.818181818182,4,1,0,60,0,0
54610,-100,4,1,0,60,0,0
59110,-99.009900990099,4,1,0,60,0,0
59217,-98.0392156862745,4,1,0,60,0,0
59431,-96.1538461538461,4,1,0,60,0,0
59646,-94.3396226415094,4,1,0,60,0,0
59753,-93.4579439252336,4,1,0,60,0,0
59860,-92.5925925925926,4,1,0,60,0,0
61681,-91.743119266055,4,1,0,60,0,0
61788,-90.9090909090909,4,1,0,60,0,0
62003,-89.2857142857143,4,1,0,60,0,0
62217,-87.719298245614,4,1,0,60,0,0
62324,-86.9565217391304,4,1,0,60,0,0
62431,-86.2068965517241,4,1,0,60,0,0
62646,-85.4700854700855,4,1,0,60,0,0
62753,-84.7457627118644,4,1,0,60,0,0
62860,-84.0336134453781,4,1,0,60,0,0
62967,-83.3333333333333,4,1,0,60,0,0
63074,-82.6446280991736,4,1,0,60,0,0
63181,-81.9672131147541,4,1,0,60,0,0
63288,-81.3008130081301,4,1,0,60,0,0
63503,-80,4,1,0,60,0,0
63717,-78.7401574803149,4,1,0,60,0,0
63931,-77.5193798449612,4,1,0,60,0,0
64146,-76.3358778625954,4,1,0,60,0,0
64574,-99.009900990099,4,1,0,60,0,0
64681,-98.0392156862745,4,1,0,60,0,0
64788,-97.0873786407767,4,1,0,60,0,0
64896,-96.1538461538461,4,1,0,60,0,0
65003,-95.2380952380952,4,1,0,60,0,0
65217,-93.4579439252336,4,1,0,60,0,0
65324,-91.743119266055,4,1,0,60,0,0
65431,-90.0900900900901,4,1,0,60,0,0
65646,-88.4955752212389,4,1,0,60,0,0
65753,-86.2068965517241,4,1,0,60,0,0
65860,-84.0336134453781,4,1,0,60,0,0
65967,-82.6446280991736,4,1,0,60,0,0
66074,-80.6451612903226,4,1,0,60,0,0
66181,-78.7401574803149,4,1,0,60,0,0
66288,-76.9230769230769,4,1,0,60,0,1
78610,-76.3358778625954,4,1,0,60,0,1
78717,-75.7575757575758,4,1,0,60,0,1
78931,-74.6268656716418,4,1,0,60,0,1
79038,-74.0740740740741,4,1,0,60,0,1
79146,-73.5294117647059,4,1,0,60,0,1
79253,-72.992700729927,4,1,0,60,0,1
79360,-72.463768115942,4,1,0,60,0,1
79467,-71.9424460431655,4,1,0,60,0,1
79574,-71.4285714285714,4,1,0,60,0,1
79788,-70.4225352112676,4,1,0,60,0,1
79896,-69.9300699300699,4,1,0,60,0,1
80003,-69.4444444444444,4,1,0,60,0,1
93717,-69.4444444444444,4,1,0,60,0,0

[HitObjects]
251,232,1146,5,0,0:0:0:0:
251,232,1360,1,0,0:0:0:0:
251,232,1574,1,8,0:0:0:0:
248,239,1788,1,8,0:0:0:0:
227,227,2003,1,0,0:0:0:0:
228,217,2217,1,8,0:0:0:0:
229,220,2431,1,8,0:0:0:0:
227,227,2646,1,8,0:0:0:0:
225,237,2860,1,0,0:0:0:0:
225,237,3074,1,0,0:0:0:0:
230,235,3288,1,8,0:0:0:0:
225,237,3503,1,8,0:0:0:0:
225,237,3717,1,0,0:0:0:0:
230,235,3931,1,8,0:0:0:0:
225,237,4146,1,8,0:0:0:0:
225,237,4360,1,8,0:0:0:0:
230,235,4574,1,0,0:0:0:0:
225,237,4788,1,0,0:0:0:0:
233,228,5003,1,8,0:0:0:0:
249,237,5217,1,8,0:0:0:0:
247,234,5431,1,0,0:0:0:0:
246,233,5646,1,8,0:0:0:0:
242,231,5860,1,8,0:0:0:0:
247,234,6074,1,8,0:0:0:0:
246,233,6288,1,0,0:0:0:0:
242,231,6503,1,8,0:0:0:0:
247,234,6610,1,0,0:0:0:0:
237,239,6824,1,0,0:0:0:0:
366,256,6931,1,8,0:0:0:0:
237,239,7146,1,8,0:0:0:0:
237,239,7360,1,0,0:0:0:0:
237,239,7574,1,8,0:0:0:0:
336,257,7681,1,0,0:0:0:0:
336,257,7788,1,8,0:0:0:0:
336,257,7896,1,8,0:0:0:0:
246,227,8003,5,0,0:0:0:0:
326,248,8217,1,8,0:0:0:0:
406,217,8431,1,0,0:0:0:0:
373,221,8646,1,8,0:0:0:0:
361,238,8753,1,0,0:0:0:0:
361,237,8860,1,8,0:0:0:0:
361,237,8967,1,8,0:0:0:0:
360,237,9074,1,0,0:0:0:0:
360,237,9288,1,8,0:0:0:0:
363,220,9431,1,0,0:0:0:0:
362,219,9574,1,8,0:0:0:0:
351,215,9717,1,8,0:0:0:0:
294,241,9860,1,0,0:0:0:0:
366,205,9931,1,8,0:0:0:0:
336,194,10146,1,0,0:0:0:0:
356,258,10360,1,8,0:0:0:0:
356,258,10467,1,0,0:0:0:0:
356,258,10574,1,8,0:0:0:0:
356,258,10681,1,8,0:0:0:0:
356,258,10788,1,0,0:0:0:0:
348,244,11003,1,8,0:0:0:0:
363,244,11146,1,0,0:0:0:0:
416,275,11217,1,8,0:0:0:0:
380,268,11288,1,0,0:0:0:0:
380,268,11360,1,0,0:0:0:0:
380,268,11431,1,8,0:0:0:0:
395,242,11538,1,0,0:0:0:0:
394,242,11646,1,8,0:0:0:0:
315,248,11860,1,0,0:0:0:0:
281,231,12074,1,8,0:0:0:0:
287,231,12181,1,0,0:0:0:0:
287,230,12288,1,8,0:0:0:0:
287,230,12396,1,8,0:0:0:0:
287,231,12503,1,0,0:0:0:0:
291,242,12717,1,8,0:0:0:0:
307,258,12931,1,0,0:0:0:0:
401,325,13038,1,8,0:0:0:0:
324,271,13146,1,8,0:0:0:0:
324,271,13288,1,0,0:0:0:0:
324,271,13431,1,0,0:0:0:0:
324,271,13574,1,8,0:0:0:0:
324,271,13788,1,0,0:0:0:0:
379,288,13896,1,8,0:0:0:0:
330,277,14003,1,8,0:0:0:0:
303,246,14110,1,0,0:0:0:0:
339,273,14217,1,0,0:0:0:0:
324,271,14324,1,8,0:0:0:0:
324,271,14431,1,0,0:0:0:0:
413,212,14574,1,8,0:0:0:0:
413,212,14717,1,8,0:0:0:0:
413,212,14860,1,0,0:0:0:0:
406,265,15074,1,8,0:0:0:0:
406,265,15288,1,0,0:0:0:0:
427,262,15503,1,8,0:0:0:0:
427,262,15610,1,0,0:0:0:0:
427,262,15717,1,8,0:0:0:0:
427,262,15824,1,8,0:0:0:0:
428,258,15931,1,0,0:0:0:0:
427,262,16146,1,8,0:0:0:0:
421,266,16360,1,0,0:0:0:0:
397,270,16467,1,8,0:0:0:0:
421,266,16574,1,8,0:0:0:0:
411,231,16681,1,0,0:0:0:0:
427,262,16788,1,0,0:0:0:0:
401,273,16896,1,8,0:0:0:0:
381,306,17003,1,0,0:0:0:0:
410,275,17217,1,8,0:0:0:0:
429,303,17324,1,0,0:0:0:0:
426,296,17431,1,8,0:0:0:0:
425,296,17538,1,8,0:0:0:0:
425,296,17646,1,0,0:0:0:0:
425,290,17860,1,8,0:0:0:0:
486,229,18003,1,0,0:0:0:0:
486,229,18146,1,0,0:0:0:0:
486,229,18288,1,8,0:0:0:0:
421,240,18503,1,8,0:0:0:0:
431,282,18717,1,0,0:0:0:0:
404,263,18931,1,8,0:0:0:0:
404,263,19038,1,0,0:0:0:0:
404,263,19146,1,8,0:0:0:0:
405,252,19253,1,8,0:0:0:0:
406,251,19360,1,0,0:0:0:0:
406,253,19574,1,8,0:0:0:0:
404,242,19788,1,0,0:0:0:0:
404,242,19896,1,8,0:0:0:0:
404,241,20003,1,8,0:0:0:0:
456,207,20146,1,0,0:0:0:0:
456,207,20288,1,8,0:0:0:0:
456,207,20431,1,0,0:0:0:0:
456,207,20574,1,8,0:0:0:0:
456,207,20717,1,8,0:0:0:0:
456,207,20860,1,0,0:0:0:0:
278,226,21717,1,0,0:0:0:0:
278,226,21824,1,8,0:0:0:0:
278,226,21931,1,0,0:0:0:0:
282,232,22146,1,8,0:0:0:0:
278,226,22360,1,0,0:0:0:0:
278,226,22467,1,0,0:0:0:0:
278,226,22574,1,8,0:0:0:0:
258,223,22788,1,0,0:0:0:0:
258,223,22896,1,8,0:0:0:0:
259,223,23110,1,0,0:0:0:0:
259,223,23217,1,8,0:0:0:0:
259,222,23324,1,8,0:0:0:0:
217,219,23431,5,0,0:0:0:0:
314,242,23753,1,8,0:0:0:0:
314,242,23860,1,0,0:0:0:0:
321,234,24074,1,8,0:0:0:0:
388,250,24288,1,0,0:0:0:0:
347,261,24717,1,8,0:0:0:0:
353,258,24931,1,8,0:0:0:0:
355,259,25146,1,0,0:0:0:0:
361,255,25360,1,0,0:0:0:0:
360,255,25467,1,0,0:0:0:0:
361,252,25574,1,8,0:0:0:0:
361,252,25788,1,0,0:0:0:0:
359,263,26003,1,8,0:0:0:0:
345,259,26431,1,0,0:0:0:0:
345,259,26646,1,8,0:0:0:0:
343,203,26860,1,0,0:0:0:0:
343,203,27181,1,8,0:0:0:0:
414,290,27288,1,0,0:0:0:0:
381,269,27503,1,8,0:0:0:0:
381,269,27717,1,0,0:0:0:0:
377,260,28146,1,8,0:0:0:0:
377,260,28574,1,0,0:0:0:0:
370,245,28896,1,8,0:0:0:0:
370,245,29003,1,0,0:0:0:0:
370,244,29110,1,8,0:0:0:0:
370,244,29217,1,8,0:0:0:0:
386,203,29324,1,0,0:0:0:0:
386,203,29378,1,0,0:0:0:0:
386,203,29431,1,0,0:0:0:0:
360,237,29753,1,8,0:0:0:0:
360,237,29860,1,0,0:0:0:0:
360,237,30074,1,8,0:0:0:0:
357,217,30181,1,8,0:0:0:0:
357,217,30288,1,0,0:0:0:0:
355,217,30610,1,8,0:0:0:0:
355,217,30717,1,8,0:0:0:0:
341,233,30824,1,0,0:0:0:0:
341,233,30931,1,8,0:0:0:0:
341,233,31146,1,0,0:0:0:0:
328,222,31574,1,8,0:0:0:0:
313,231,31788,1,0,0:0:0:0:
313,231,31896,1,8,0:0:0:0:
328,222,32003,1,0,0:0:0:0:
356,258,32288,1,8,0:0:0:0:
347,253,32574,1,0,0:0:0:0:
346,250,32860,1,8,0:0:0:0:
351,266,33074,1,0,0:0:0:0:
356,235,33288,1,8,0:0:0:0:
356,235,33396,1,0,0:0:0:0:
356,235,33503,1,8,0:0:0:0:
331,237,33610,1,8,0:0:0:0:
356,237,33717,1,0,0:0:0:0:
333,231,34038,1,8,0:0:0:0:
334,227,34146,1,0,0:0:0:0:
334,222,34360,1,8,0:0:0:0:
342,218,34574,1,0,0:0:0:0:
322,213,35003,1,8,0:0:0:0:
325,213,35217,1,8,0:0:0:0:
322,213,35431,1,0,0:0:0:0:
319,203,35753,1,8,0:0:0:0:
319,203,35860,1,0,0:0:0:0:
319,203,36074,1,8,0:0:0:0:
296,217,36288,1,0,0:0:0:0:
304,196,36503,1,8,0:0:0:0:
315,197,36717,1,8,0:0:0:0:
311,187,36931,1,0,0:0:0:0:
319,232,37146,1,8,0:0:0:0:
376,269,37253,1,0,0:0:0:0:
385,264,37360,1,8,0:0:0:0:
326,297,37467,1,8,0:0:0:0:
326,297,37574,1,0,0:0:0:0:
316,287,37788,1,8,0:0:0:0:
400,260,38003,1,0,0:0:0:0:
400,260,38217,1,8,0:0:0:0:
400,260,38324,1,0,0:0:0:0:
416,255,38431,1,8,0:0:0:0:
413,258,38485,1,8,0:0:0:0:
328,178,38538,1,8,0:0:0:0:
383,223,38860,1,0,0:0:0:0:
442,245,39074,1,8,0:0:0:0:
442,245,39181,1,0,0:0:0:0:
442,245,39288,1,8,0:0:0:0:
411,222,39503,1,8,0:0:0:0:
410,222,39610,1,0,0:0:0:0:
396,255,39717,1,8,0:0:0:0:
396,255,39824,1,8,0:0:0:0:
391,253,39931,1,0,0:0:0:0:
390,251,40146,1,8,0:0:0:0:
395,252,40360,1,0,0:0:0:0:
396,255,40467,1,8,0:0:0:0:
396,255,40574,1,0,0:0:0:0:
372,247,40896,1,8,0:0:0:0:
372,247,41003,1,0,0:0:0:0:
392,288,41217,1,8,0:0:0:0:
401,258,41431,1,0,0:0:0:0:
400,258,41753,1,8,0:0:0:0:
385,251,42074,1,0,0:0:0:0:
384,246,42181,1,8,0:0:0:0:
384,246,42288,1,0,0:0:0:0:
375,182,42610,1,8,0:0:0:0:
376,224,42860,1,0,0:0:0:0:
403,256,43146,1,8,0:0:0:0:
444,242,43288,1,0,0:0:0:0:
444,242,43431,1,0,0:0:0:0:
444,242,43574,1,8,0:0:0:0:
410,261,44003,1,0,0:0:0:0:
410,261,44217,1,8,0:0:0:0:
410,261,44431,1,8,0:0:0:0:
410,261,44646,1,8,0:0:0:0:
410,261,44860,1,0,0:0:0:0:
419,258,45288,1,8,0:0:0:0:
410,261,45503,1,0,0:0:0:0:
419,258,45717,1,8,0:0:0:0:
419,258,45931,1,8,0:0:0:0:
420,258,46146,1,0,0:0:0:0:
365,221,46574,1,0,0:0:0:0:
365,221,46788,1,8,0:0:0:0:
365,221,47003,1,8,0:0:0:0:
365,221,47217,1,0,0:0:0:0:
365,228,47431,1,8,0:0:0:0:
367,233,47646,1,0,0:0:0:0:
367,233,47860,1,8,0:0:0:0:
365,228,48074,1,8,0:0:0:0:
367,233,48288,1,0,0:0:0:0:
378,218,48503,1,8,0:0:0:0:
371,223,48717,1,0,0:0:0:0:
374,227,48931,1,8,0:0:0:0:
371,223,49146,1,8,0:0:0:0:
371,223,49360,1,0,0:0:0:0:
374,227,49574,1,8,0:0:0:0:
384,247,49788,1,8,0:0:0:0:
384,247,50003,1,0,0:0:0:0:
381,222,50431,1,0,0:0:0:0:
385,222,50646,1,8,0:0:0:0:
381,222,50860,1,8,0:0:0:0:
364,213,51074,1,0,0:0:0:0:
379,217,51288,1,8,0:0:0:0:
381,222,51503,1,8,0:0:0:0:
381,222,51717,1,0,0:0:0:0:
370,199,51931,1,0,0:0:0:0:
371,202,52146,1,8,0:0:0:0:
371,201,52360,1,0,0:0:0:0:
370,199,52574,1,0,0:0:0:0:
371,202,52788,1,8,0:0:0:0:
397,233,53003,1,8,0:0:0:0:
397,233,53217,1,0,0:0:0:0:
397,233,53431,1,8,0:0:0:0:
397,233,53646,1,0,0:0:0:0:
397,233,53860,1,8,0:0:0:0:
397,233,54074,1,8,0:0:0:0:
397,233,54288,1,0,0:0:0:0:
373,230,54610,1,8,0:0:0:0:
373,230,54717,1,0,0:0:0:0:
375,224,54931,1,8,0:0:0:0:
375,218,55146,1,0,0:0:0:0:
421,266,55253,1,8,0:0:0:0:
421,266,55360,1,0,0:0:0:0:
421,266,55574,1,8,0:0:0:0:
403,261,55896,1,0,0:0:0:0:
402,262,56003,1,8,0:0:0:0:
406,268,56217,1,8,0:0:0:0:
406,268,56431,1,8,0:0:0:0:
394,299,56538,1,0,0:0:0:0:
381,284,56860,1,8,0:0:0:0:
382,284,57181,1,8,0:0:0:0:
382,284,57288,1,0,0:0:0:0:
381,284,57503,1,8,0:0:0:0:
382,284,57717,1,0,0:0:0:0:
357,297,57824,1,8,0:0:0:0:
356,300,57931,1,0,0:0:0:0:
381,284,58146,1,8,0:0:0:0:
382,284,58360,1,0,0:0:0:0:
382,284,58467,1,0,0:0:0:0:
381,278,58574,1,8,0:0:0:0:
381,284,58788,1,8,0:0:0:0:
382,284,59003,1,0,0:0:0:0:
382,284,59110,1,0,0:0:0:0:
382,284,59217,1,8,0:0:0:0:
399,288,59431,1,8,0:0:0:0:
394,292,59646,1,0,0:0:0:0:
394,292,59753,1,8,0:0:0:0:
394,291,59860,1,0,0:0:0:0:
399,288,60074,1,8,0:0:0:0:
421,288,60288,1,0,0:0:0:0:
421,288,60396,1,0,0:0:0:0:
418,285,60503,1,8,0:0:0:0:
418,285,60717,1,0,0:0:0:0:
371,272,60931,1,8,0:0:0:0:
371,272,61038,1,0,0:0:0:0:
371,272,61146,1,8,0:0:0:0:
431,278,61360,1,0,0:0:0:0:
431,278,61467,1,8,0:0:0:0:
431,278,61574,1,0,0:0:0:0:
431,258,61681,1,0,0:0:0:0:
431,280,61788,1,8,0:0:0:0:
412,268,62003,1,0,0:0:0:0:
412,268,62217,1,8,0:0:0:0:
412,268,62324,1,0,0:0:0:0:
412,268,62431,1,8,0:0:0:0:
419,268,62646,1,8,0:0:0:0:
412,268,62753,1,0,0:0:0:0:
412,268,62860,1,8,0:0:0:0:
412,268,62967,1,8,0:0:0:0:
412,268,63074,1,0,0:0:0:0:
412,268,63181,1,0,0:0:0:0:
410,269,63288,1,8,0:0:0:0:
406,273,63503,1,0,0:0:0:0:
381,252,63717,1,8,0:0:0:0:
382,251,63931,1,0,0:0:0:0:
381,252,64146,1,8,0:0:0:0:
201,163,64574,5,0,0:0:0:0:
201,163,64681,1,8,0:0:0:0:
201,163,64788,1,8,0:0:0:0:
201,163,64896,1,0,0:0:0:0:
201,163,65003,1,8,0:0:0:0:
194,172,65217,1,0,0:0:0:0:
194,171,65324,1,0,0:0:0:0:
191,168,65431,1,8,0:0:0:0:
202,182,65646,1,0,0:0:0:0:
202,182,65753,1,8,0:0:0:0:
194,172,65860,1,0,0:0:0:0:
194,172,65967,1,8,0:0:0:0:
192,143,66074,1,8,0:0:0:0:
192,142,66181,1,8,0:0:0:0:
216,144,66288,1,0,0:0:0:0:
426,294,66610,1,8,0:0:0:0:
426,294,66717,1,0,0:0:0:0:
477,303,66931,1,8,0:0:0:0:
426,283,67146,1,0,0:0:0:0:
426,294,67360,1,8,0:0:0:0:
433,292,67467,1,0,0:0:0:0:
433,292,67574,1,8,0:0:0:0:
433,292,67788,1,8,0:0:0:0:
426,294,68003,1,0,0:0:0:0:
433,292,68324,1,8,0:0:0:0:
433,292,68431,1,0,0:0:0:0:
434,287,68646,1,8,0:0:0:0:
449,274,68860,1,0,0:0:0:0:
473,295,69003,1,8,0:0:0:0:
473,295,69146,1,8,0:0:0:0:
473,295,69288,1,0,0:0:0:0:
487,229,69503,1,8,0:0:0:0:
404,309,69610,1,0,0:0:0:0:
412,278,69717,1,8,0:0:0:0:
474,279,69931,1,0,0:0:0:0:
474,279,70038,1,0,0:0:0:0:
473,280,70146,1,8,0:0:0:0:
473,280,70360,1,8,0:0:0:0:
474,279,70574,1,0,0:0:0:0:
394,249,70788,1,8,0:0:0:0:
464,278,70896,1,0,0:0:0:0:
464,278,71003,1,8,0:0:0:0:
444,285,71217,1,8,0:0:0:0:
426,283,71431,1,0,0:0:0:0:
440,283,71646,1,8,0:0:0:0:
439,283,71753,1,8,0:0:0:0:
444,285,71860,1,0,0:0:0:0:
433,284,72074,1,8,0:0:0:0:
431,284,72288,1,0,0:0:0:0:
431,284,72503,1,8,0:0:0:0:
434,263,72556,1,8,0:0:0:0:
431,284,72610,1,8,0:0:0:0:
433,303,72717,1,0,0:0:0:0:
386,303,72931,1,8,0:0:0:0:
433,309,73146,1,0,0:0:0:0:
411,283,73467,1,8,0:0:0:0:
411,290,73574,1,0,0:0:0:0:
411,288,73788,1,8,0:0:0:0:
411,283,74003,1,0,0:0:0:0:
411,283,74217,1,8,0:0:0:0:
411,290,74324,1,0,0:0:0:0:
411,288,74431,1,8,0:0:0:0:
413,304,74646,1,8,0:0:0:0:
411,296,74860,1,0,0:0:0:0:
377,327,75181,1,8,0:0:0:0:
377,327,75288,1,0,0:0:0:0:
370,312,75503,1,8,0:0:0:0:
393,293,75717,1,8,0:0:0:0:
428,313,75860,1,0,0:0:0:0:
428,313,76003,1,0,0:0:0:0:
428,313,76146,1,8,0:0:0:0:
472,328,76360,1,8,0:0:0:0:
406,323,76574,1,0,0:0:0:0:
452,293,76788,1,8,0:0:0:0:
381,293,76896,1,0,0:0:0:0:
381,293,77003,1,8,0:0:0:0:
432,313,77217,1,8,0:0:0:0:
432,313,77431,1,0,0:0:0:0:
379,308,77646,1,8,0:0:0:0:
376,308,77753,1,8,0:0:0:0:
379,308,77860,1,0,0:0:0:0:
379,308,78074,1,8,0:0:0:0:
360,313,78288,1,0,0:0:0:0:
386,307,78503,1,8,0:0:0:0:
379,308,78610,1,0,0:0:0:0:
379,308,78717,1,8,0:0:0:0:
396,311,78931,1,8,0:0:0:0:
360,313,79038,1,0,0:0:0:0:
374,322,79146,1,8,0:0:0:0:
373,322,79253,1,8,0:0:0:0:
377,322,79360,1,0,0:0:0:0:
377,272,79467,1,0,0:0:0:0:
378,322,79574,1,8,0:0:0:0:
434,321,79788,1,0,0:0:0:0:
434,321,79896,1,8,0:0:0:0:
434,321,80003,1,0,0:0:0:0:
455,320,80324,1,8,0:0:0:0:
455,319,80431,1,0,0:0:0:0:
454,319,80538,1,8,0:0:0:0:
458,304,80646,1,8,0:0:0:0:
455,320,80860,1,0,0:0:0:0:
451,306,81074,1,8,0:0:0:0:
451,306,81181,1,0,0:0:0:0:
454,319,81288,1,8,0:0:0:0:
399,263,81396,1,8,0:0:0:0:
448,315,81503,1,8,0:0:0:0:
446,316,81717,1,0,0:0:0:0:
434,309,82038,1,8,0:0:0:0:
434,309,82146,1,0,0:0:0:0:
434,309,82253,1,8,0:0:0:0:
434,309,82360,1,8,0:0:0:0:
415,328,82574,1,0,0:0:0:0:
417,308,82717,1,8,0:0:0:0:
415,303,82860,1,8,0:0:0:0:
416,301,83003,1,0,0:0:0:0:
442,258,83110,1,8,0:0:0:0:
442,258,83217,1,8,0:0:0:0:
419,288,83324,1,8,0:0:0:0:
442,258,83431,1,0,0:0:0:0:
434,243,83753,1,8,0:0:0:0:
434,243,83860,1,0,0:0:0:0:
434,243,83967,1,8,0:0:0:0:
424,238,84074,1,8,0:0:0:0:
441,281,84288,1,0,0:0:0:0:
411,226,84503,1,8,0:0:0:0:
406,226,84610,1,0,0:0:0:0:
406,226,84717,1,8,0:0:0:0:
406,226,84824,1,8,0:0:0:0:
411,226,84931,1,8,0:0:0:0:
387,258,85146,1,0,0:0:0:0:
412,232,85360,1,8,0:0:0:0:
411,234,85467,1,8,0:0:0:0:
411,234,85574,1,0,0:0:0:0:
411,234,85681,1,8,0:0:0:0:
411,234,85788,1,8,0:0:0:0:
416,239,86003,1,0,0:0:0:0:
411,234,86217,1,8,0:0:0:0:
411,234,86324,1,0,0:0:0:0:
411,234,86431,1,8,0:0:0:0:
411,234,86538,1,8,0:0:0:0:
413,228,86646,1,0,0:0:0:0:
411,234,86860,1,8,0:0:0:0:
367,225,87181,1,8,0:0:0:0:
367,225,87288,1,8,0:0:0:0:
367,225,87396,1,0,0:0:0:0:
367,225,87503,1,8,0:0:0:0:
367,225,87717,1,0,0:0:0:0:
338,240,87931,1,8,0:0:0:0:
338,240,88038,1,0,0:0:0:0:
338,237,88146,1,8,0:0:0:0:
338,237,88253,1,8,0:0:0:0:
318,237,88360,1,8,0:0:0:0:
319,237,88574,1,0,0:0:0:0:
346,218,88788,1,8,0:0:0:0:
346,218,88896,1,0,0:0:0:0:
346,218,89003,1,8,0:0:0:0:
344,218,89110,1,8,0:0:0:0:
344,219,89217,1,0,0:0:0:0:
386,228,89431,1,8,0:0:0:0:
386,228,89574,1,0,0:0:0:0:
386,228,89717,1,0,0:0:0:0:
427,207,89860,1,8,0:0:0:0:
427,207,89967,1,0,0:0:0:0:
339,274,90074,1,8,0:0:0:0:
339,274,90181,1,8,0:0:0:0:
339,274,90288,1,8,0:0:0:0:
326,247,90503,1,0,0:0:0:0:
330,249,90610,1,8,0:0:0:0:
330,249,90717,1,8,0:0:0:0:
329,249,90824,1,0,0:0:0:0:
329,249,90931,1,8,0:0:0:0:
318,246,91146,1,0,0:0:0:0:
439,233,91360,1,8,0:0:0:0:
432,253,91467,1,0,0:0:0:0:
432,253,91574,1,8,0:0:0:0:
432,253,91681,1,8,0:0:0:0:
493,292,91788,1,8,0:0:0:0:
431,263,92003,1,0,0:0:0:0:
435,261,92217,1,8,0:0:0:0:
434,261,92324,1,0,0:0:0:0:
434,261,92431,1,8,0:0:0:0:
434,261,92538,1,8,0:0:0:0:
431,263,92646,1,0,0:0:0:0:
357,277,92860,1,8,0:0:0:0:
375,260,93074,1,0,0:0:0:0:
375,260,93181,1,8,0:0:0:0:
374,260,93288,1,8,0:0:0:0:
374,260,93396,1,0,0:0:0:0:
376,253,93503,1,0,0:0:0:0:
376,253,93610,1,8,0:0:0:0:
375,260,93717,1,0,0:0:0:0:
