osu file format v14

[General]
AudioFilename: audio.mp3
AudioLeadIn: 0
PreviewTime: 27350
Countdown: 0
SampleSet: Normal
StackLeniency: 0.7
Mode: 3
LetterboxInBreaks: 0
SpecialStyle: 0
WidescreenStoryboard: 0

[Editor]
Bookmarks: 27403,33403,54832,69564,82260,109689
DistanceSpacing: 0.8
BeatDivisor: 8
GridSize: 32
TimelineZoom: 1.6

[Metadata]
Title:Ants
TitleUnicode:Ants
Artist:edIT
ArtistUnicode:edIT
Creator:Toaph Daddy
Version:Stage 1: Sting
Source:
Tags:ausnz australia new zealand qualifiers SV
BeatmapID:1882999
BeatmapSetID:901864

[Difficulty]
HPDrainRate:7
CircleSize:4
OverallDifficulty:7
ApproachRate:5
SliderMultiplier:1.4
SliderTickRate:1

[Events]
//Background and Video events
0,0,"rain.jpg",0,0
//Break Periods
//Storyboard Layer 0 (Background)
//Storyboard Layer 1 (Fail)
//Storyboard Layer 2 (Pass)
//Storyboard Layer 3 (Foreground)
//Storyboard Sound Samples

[TimingPoints]
325,428.571428571429,4,1,0,100,1,0
325,-166.666666666667,4,1,0,100,0,0
27325,-153.846153846154,4,1,0,100,0,0
27378,-142.857142857143,4,1,0,100,0,0
27432,-133.333333333333,4,1,0,100,0,0
27485,-125,4,1,0,100,0,0
27539,-117.647058823529,4,1,0,100,0,0
27592,-111.111111111111,4,1,0,100,0,0
27646,-105.263157894737,4,1,0,100,0,0
27700,-100,4,1,0,100,0,0
27753,-40,4,1,0,100,0,0
27780,-200,4,1,0,100,0,0
27807,-100,4,1,0,100,0,0
28610,-50,4,1,0,100,0,0
28664,-83.3333333333333,4,1,0,100,0,0
28717,-125,4,1,0,100,0,0
28771,-200,4,1,0,100,0,0
28825,-166.666666666667,4,1,0,100,0,0
28878,-142.857142857143,4,1,0,100,0,0
28932,-125,4,1,0,100,0,0
28985,-111.111111111111,4,1,0,100,0,0
29039,-1000,4,1,0,100,0,0
29066,-500,4,1,0,100,0,0
29092,-285.714285714286,4,1,0,100,0,0
29119,-181.818181818182,4,1,0,100,0,0
29146,-133.333333333333,4,1,0,100,0,0
29173,-100,4,1,0,100,0,0
29200,-57.1428571428571,4,1,0,100,0,0
29226,-40,4,1,0,100,0,0
29253,-40,4,1,0,100,0,0
29280,-200,4,1,0,100,0,0
29307,-100,4,1,0,100,0,0
29682,-66.6666666666667,4,1,0,100,0,0
29736,-83.3333333333333,4,1,0,100,0,0
29789,-125,4,1,0,100,0,0
29843,-200,4,1,0,100,0,0
29896,-66.6666666666667,4,1,0,100,0,0
29950,-83.3333333333333,4,1,0,100,0,0
30003,-125,4,1,0,100,0,0
30057,-200,4,1,0,100,0,0
30110,-100,4,1,0,100,0,0
30325,-66.6666666666667,4,1,0,100,0,0
30379,-83.3333333333333,4,1,0,100,0,0
30432,-125,4,1,0,100,0,0
30486,-200,4,1,0,100,0,0
30539,-50,4,1,0,100,0,0
30592,-58.8235294117647,4,1,0,100,0,0
30646,-83.3333333333333,4,1,0,100,0,0
30700,-125,4,1,0,100,0,0
30753,-166.666666666667,4,1,0,100,0,0
30807,-200,4,1,0,100,0,0
30860,-250,4,1,0,100,0,0
30914,-333.333333333333,4,1,0,100,0,0
30967,-500,4,1,0,100,0,0
30994,-500,4,1,0,100,0,0
31020,-285.714285714286,4,1,0,100,0,0
31047,-181.818181818182,4,1,0,100,0,0
31074,-133.333333333333,4,1,0,100,0,0
31101,-100,4,1,0,100,0,0
31128,-57.1428571428571,4,1,0,100,0,0
31154,-40,4,1,0,100,0,0
31182,-50,4,1,0,100,0,0
31209,-200,4,1,0,100,0,0
31236,-100,4,1,0,100,0,0
31610,-50,4,1,0,100,0,0
31663,-76.9230769230769,4,1,0,100,0,0
31717,-125,4,1,0,100,0,0
31771,-200,4,1,0,100,0,0
31825,-1000,4,1,0,100,0,0
31852,-500,4,1,0,100,0,0
31878,-285.714285714286,4,1,0,100,0,0
31905,-181.818181818182,4,1,0,100,0,0
31932,-133.333333333333,4,1,0,100,0,0
31959,-100,4,1,0,100,0,0
31986,-57.1428571428571,4,1,0,100,0,0
32012,-40,4,1,0,100,0,0
32039,-50,4,1,0,100,0,0
32093,-83.3333333333333,4,1,0,100,0,0
32146,-125,4,1,0,100,0,0
32200,-200,4,1,0,100,0,0
32253,-166.666666666667,4,1,0,100,0,0
32307,-142.857142857143,4,1,0,100,0,0
32360,-125,4,1,0,100,0,0
32414,-111.111111111111,4,1,0,100,0,0
32467,-100,4,1,0,100,0,0
32682,-33.3333333333333,4,1,0,100,0,0
32708,-200,4,1,0,100,0,0
32735,-142.857142857143,4,1,0,100,0,0
32789,-111.111111111111,4,1,0,100,0,0
32842,-90.9090909090909,4,1,0,100,0,0
32896,-76.9230769230769,4,1,0,100,0,0
32950,-66.6666666666667,4,1,0,100,0,0
33003,-100,4,1,0,100,0,0
33110,-66.6666666666667,4,1,0,100,0,0
33164,-83.3333333333333,4,1,0,100,0,0
33217,-125,4,1,0,100,0,0
33271,-200,4,1,0,100,0,0
33325,-66.6666666666667,4,1,0,100,0,0
33379,-83.3333333333333,4,1,0,100,0,0
33432,-125,4,1,0,100,0,0
33486,-200,4,1,0,100,0,0
33539,-100,4,1,0,100,0,0
33753,-50,4,1,0,100,0,0
33807,-83.3333333333333,4,1,0,100,0,0
33860,-125,4,1,0,100,0,0
33914,-200,4,1,0,100,0,0
34021,-166.666666666667,4,1,0,100,0,0
34075,-142.857142857143,4,1,0,100,0,0
34128,-125,4,1,0,100,0,0
34182,-55.5555555555556,4,1,0,100,0,0
34209,-1000,4,1,0,100,0,0
34235,-55.5555555555556,4,1,0,100,0,0
34262,-1000,4,1,0,100,0,0
34289,-55.5555555555556,4,1,0,100,0,0
34316,-1000,4,1,0,100,0,0
34396,-1000,4,1,0,100,0,0
34423,-500,4,1,0,100,0,0
34449,-285.714285714286,4,1,0,100,0,0
34476,-181.818181818182,4,1,0,100,0,0
34503,-133.333333333333,4,1,0,100,0,0
34530,-100,4,1,0,100,0,0
34557,-57.1428571428571,4,1,0,100,0,0
34583,-40,4,1,0,100,0,0
34610,-50,4,1,0,100,0,0
34637,-200,4,1,0,100,0,0
34664,-100,4,1,0,100,0,0
35467,-66.6666666666667,4,1,0,100,0,0
35521,-83.3333333333333,4,1,0,100,0,0
35574,-125,4,1,0,100,0,0
35628,-200,4,1,0,100,0,0
35896,-1000,4,1,0,100,0,0
35923,-500,4,1,0,100,0,0
35949,-285.714285714286,4,1,0,100,0,0
35976,-181.818181818182,4,1,0,100,0,0
36003,-133.333333333333,4,1,0,100,0,0
36030,-100,4,1,0,100,0,0
36057,-57.1428571428571,4,1,0,100,0,0
36083,-40,4,1,0,100,0,0
36110,-50,4,1,0,100,0,0
36137,-200,4,1,0,100,0,0
36164,-100,4,1,0,100,0,0
36539,-66.6666666666667,4,1,0,100,0,0
36593,-83.3333333333333,4,1,0,100,0,0
36646,-125,4,1,0,100,0,0
36700,-200,4,1,0,100,0,0
36753,-66.6666666666667,4,1,0,100,0,0
36807,-83.3333333333333,4,1,0,100,0,0
36860,-125,4,1,0,100,0,0
36914,-200,4,1,0,100,0,0
36967,-100,4,1,0,100,0,0
37182,-66.6666666666667,4,1,0,100,0,0
37236,-83.3333333333333,4,1,0,100,0,0
37289,-125,4,1,0,100,0,0
37343,-200,4,1,0,100,0,0
37825,-1000,4,1,0,100,0,0
37852,-500,4,1,0,100,0,0
37878,-285.714285714286,4,1,0,100,0,0
37905,-181.818181818182,4,1,0,100,0,0
37932,-133.333333333333,4,1,0,100,0,0
37959,-100,4,1,0,100,0,0
37986,-57.1428571428571,4,1,0,100,0,0
38012,-40,4,1,0,100,0,0
38039,-50,4,1,0,100,0,0
38066,-200,4,1,0,100,0,0
38093,-100,4,1,0,100,0,0
38467,-33.3333333333333,4,1,0,100,0,0
38494,-303.030303030303,4,1,0,100,0,0
38575,-28.5714285714286,4,1,0,100,0,0
38602,-303.030303030303,4,1,0,100,0,0
38682,-25,4,1,0,100,0,0
38709,-303.030303030303,4,1,0,100,0,0
38789,-22.2222222222222,4,1,0,100,0,0
38816,-303.030303030303,4,1,0,100,0,0
38896,-50,4,1,0,100,0,0
38950,-83.3333333333333,4,1,0,100,0,0
39003,-125,4,1,0,100,0,0
39057,-200,4,1,0,100,0,0
39111,-166.666666666667,4,1,0,100,0,0
39164,-142.857142857143,4,1,0,100,0,0
39218,-125,4,1,0,100,0,0
39271,-111.111111111111,4,1,0,100,0,0
39325,-100,4,1,0,100,0,0
39539,-50,4,1,0,100,0,0
39566,-200,4,1,0,100,0,0
39593,-142.857142857143,4,1,0,100,0,0
39646,-111.111111111111,4,1,0,100,0,0
39700,-90.9090909090909,4,1,0,100,0,0
39753,-76.9230769230769,4,1,0,100,0,0
39807,-66.6666666666667,4,1,0,100,0,0
39860,-100,4,1,0,100,0,0
39967,-66.6666666666667,4,1,0,100,0,0
40021,-83.3333333333333,4,1,0,100,0,0
40074,-125,4,1,0,100,0,0
40128,-200,4,1,0,100,0,0
40181,-66.6666666666667,4,1,0,100,0,0
40235,-83.3333333333333,4,1,0,100,0,0
40288,-125,4,1,0,100,0,0
40342,-200,4,1,0,100,0,0
40396,-250,4,1,0,100,0,0
40503,-50,4,1,0,100,0,0
40610,-250,4,1,0,100,0,0
40717,-50,4,1,0,100,0,0
40825,-20,4,1,0,100,0,0
40878,-200,4,1,0,100,0,0
41253,-50,4,1,0,100,0,0
41280,-250,4,1,0,100,0,0
41307,-50,4,1,0,100,0,0
41334,-250,4,1,0,100,0,0
41360,-50,4,1,0,100,0,0
41387,-250,4,1,0,100,0,0
41414,-50,4,1,0,100,0,0
41441,-250,4,1,0,100,0,0
41467,-100,4,1,0,100,0,0
42325,-50,4,1,0,100,0,0
42379,-83.3333333333333,4,1,0,100,0,0
42432,-125,4,1,0,100,0,0
42486,-200,4,1,0,100,0,0
42540,-166.666666666667,4,1,0,100,0,0
42592,-142.857142857143,4,1,0,100,0,0
42753,-1000,4,1,0,100,0,0
42780,-500,4,1,0,100,0,0
42806,-285.714285714286,4,1,0,100,0,0
42833,-181.818181818182,4,1,0,100,0,0
42860,-133.333333333333,4,1,0,100,0,0
42887,-100,4,1,0,100,0,0
42914,-57.1428571428571,4,1,0,100,0,0
42940,-40,4,1,0,100,0,0
42967,-40,4,1,0,100,0,0
42994,-200,4,1,0,100,0,0
43021,-100,4,1,0,100,0,0
43396,-66.6666666666667,4,1,0,100,0,0
43450,-83.3333333333333,4,1,0,100,0,0
43503,-125,4,1,0,100,0,0
43557,-200,4,1,0,100,0,0
43610,-66.6666666666667,4,1,0,100,0,0
43664,-200,4,1,0,100,0,0
43717,-66.6666666666667,4,1,0,100,0,0
43771,-200,4,1,0,100,0,0
43825,-100,4,1,0,100,0,0
44039,-50,4,1,0,100,0,0
44093,-83.3333333333333,4,1,0,100,0,0
44146,-125,4,1,0,100,0,0
44200,-200,4,1,0,100,0,0
44254,-166.666666666667,4,1,0,100,0,0
44307,-142.857142857143,4,1,0,100,0,0
44467,-100,4,1,0,100,0,0
44789,-50,4,1,0,100,0,0
44816,-1000,4,1,0,100,0,0
44842,-50,4,1,0,100,0,0
44869,-1000,4,1,0,100,0,0
44896,-50,4,1,0,100,0,0
44923,-1000,4,1,0,100,0,0
44950,-50,4,1,0,100,0,0
44977,-1000,4,1,0,100,0,0
45003,-200,4,1,0,100,0,0
45057,-166.666666666667,4,1,0,100,0,0
45110,-142.857142857143,4,1,0,100,0,0
45164,-125,4,1,0,100,0,0
45217,-111.111111111111,4,1,0,100,0,0
45271,-100,4,1,0,100,0,0
45325,-58.8235294117647,4,1,0,100,0,0
45351,-250,4,1,0,100,0,0
45378,-58.8235294117647,4,1,0,100,0,0
45404,-250,4,1,0,100,0,0
45432,-58.8235294117647,4,1,0,100,0,0
45458,-250,4,1,0,100,0,0
45485,-58.8235294117647,4,1,0,100,0,0
45511,-250,4,1,0,100,0,0
45539,-100,4,1,0,100,0,0
45753,-50,4,1,0,100,0,0
45807,-83.3333333333333,4,1,0,100,0,0
45860,-125,4,1,0,100,0,0
45914,-200,4,1,0,100,0,0
45968,-111.111111111111,4,1,0,100,0,0
46075,-100,4,1,0,100,0,0
46396,-50,4,1,0,100,0,0
46423,-200,4,1,0,100,0,0
46450,-142.857142857143,4,1,0,100,0,0
46503,-111.111111111111,4,1,0,100,0,0
46557,-90.9090909090909,4,1,0,100,0,0
46610,-76.9230769230769,4,1,0,100,0,0
46664,-66.6666666666667,4,1,0,100,0,0
46717,-100,4,1,0,100,0,0
46825,-66.6666666666667,4,1,0,100,0,0
46879,-83.3333333333333,4,1,0,100,0,0
46932,-125,4,1,0,100,0,0
46986,-200,4,1,0,100,0,0
47039,-66.6666666666667,4,1,0,100,0,0
47093,-83.3333333333333,4,1,0,100,0,0
47146,-125,4,1,0,100,0,0
47200,-200,4,1,0,100,0,0
47253,-111.111111111111,4,1,0,100,0,0
47575,-250,4,1,0,100,0,0
47682,-50,4,1,0,100,0,0
47789,-100,4,1,0,100,0,0
47896,-250,4,1,0,100,0,0
48003,-50,4,1,0,100,0,0
48110,-100,4,1,0,100,0,0
48217,-250,4,1,0,100,0,0
48271,-50,4,1,0,100,0,0
48325,-40,4,1,0,100,0,0
48352,-200,4,1,0,100,0,0
48379,-100,4,1,0,100,0,0
49182,-50,4,1,0,100,0,0
49236,-83.3333333333333,4,1,0,100,0,0
49289,-125,4,1,0,100,0,0
49343,-200,4,1,0,100,0,0
49610,-1000,4,1,0,100,0,0
49637,-500,4,1,0,100,0,0
49663,-285.714285714286,4,1,0,100,0,0
49690,-181.818181818182,4,1,0,100,0,0
49717,-133.333333333333,4,1,0,100,0,0
49744,-100,4,1,0,100,0,0
49771,-57.1428571428571,4,1,0,100,0,0
49797,-40,4,1,0,100,0,0
49825,-40,4,1,0,100,0,0
49852,-200,4,1,0,100,0,0
49879,-100,4,1,0,100,0,0
50253,-66.6666666666667,4,1,0,100,0,0
50307,-83.3333333333333,4,1,0,100,0,0
50360,-125,4,1,0,100,0,0
50414,-200,4,1,0,100,0,0
50467,-66.6666666666667,4,1,0,100,0,0
50521,-83.3333333333333,4,1,0,100,0,0
50574,-125,4,1,0,100,0,0
50628,-200,4,1,0,100,0,0
50682,-100,4,1,0,100,0,0
50896,-50,4,1,0,100,0,0
50950,-83.3333333333333,4,1,0,100,0,0
51003,-125,4,1,0,100,0,0
51057,-200,4,1,0,100,0,0
51110,-142.857142857143,4,1,0,100,0,0
51539,-1000,4,1,0,100,0,0
51566,-500,4,1,0,100,0,0
51592,-285.714285714286,4,1,0,100,0,0
51619,-181.818181818182,4,1,0,100,0,0
51646,-133.333333333333,4,1,0,100,0,0
51673,-100,4,1,0,100,0,0
51700,-57.1428571428571,4,1,0,100,0,0
51726,-40,4,1,0,100,0,0
51753,-40,4,1,0,100,0,0
51780,-200,4,1,0,100,0,0
51807,-100,4,1,0,100,0,0
52610,-50,4,1,0,100,0,0
52664,-83.3333333333333,4,1,0,100,0,0
52717,-125,4,1,0,100,0,0
52771,-200,4,1,0,100,0,0
52825,-111.111111111111,4,1,0,100,0,0
52932,-100,4,1,0,100,0,0
53253,-50,4,1,0,100,0,0
53280,-200,4,1,0,100,0,0
53307,-142.857142857143,4,1,0,100,0,0
53360,-111.111111111111,4,1,0,100,0,0
53414,-90.9090909090909,4,1,0,100,0,0
53467,-76.9230769230769,4,1,0,100,0,0
53521,-66.6666666666667,4,1,0,100,0,0
53575,-100,4,1,0,100,0,0
54110,-500,4,1,0,100,0,0
54137,-100,4,1,0,100,0,0
54164,-500,4,1,0,100,0,0
54191,-100,4,1,0,100,0,0
54217,-500,4,1,0,100,0,0
54244,-100,4,1,0,100,0,0
54271,-500,4,1,0,100,0,0
54298,-100,4,1,0,100,0,0
54325,-500,4,1,0,100,0,0
54352,-100,4,1,0,100,0,0
54378,-500,4,1,0,100,0,0
54405,-100,4,1,0,100,0,0
54432,-500,4,1,0,100,0,0
54459,-100,4,1,0,100,0,0
54485,-500,4,1,0,100,0,0
54512,-100,4,1,0,100,0,0
54539,-1000,4,1,0,100,0,0
54566,-500,4,1,0,100,0,0
54592,-285.714285714286,4,1,0,100,0,0
54619,-181.818181818182,4,1,0,100,0,0
54646,-133.333333333333,4,1,0,100,0,0
54673,-100,4,1,0,100,0,0
54700,-57.1428571428571,4,1,0,100,0,0
54726,-40,4,1,0,100,0,0
54753,-10,4,1,0,100,0,0
54780,-100,4,1,0,100,0,0
55182,-40,4,1,0,100,0,0
55209,-200,4,1,0,100,0,0
55236,-100,4,1,0,100,0,0
56039,-50,4,1,0,100,0,0
56093,-83.3333333333333,4,1,0,100,0,0
56146,-125,4,1,0,100,0,0
56200,-200,4,1,0,100,0,0
56254,-166.666666666667,4,1,0,100,0,0
56307,-142.857142857143,4,1,0,100,0,0
56361,-125,4,1,0,100,0,0
56414,-111.111111111111,4,1,0,100,0,0
56467,-200,4,1,0,100,0,0
56494,-166.666666666667,4,1,0,100,0,0
56520,-142.857142857143,4,1,0,100,0,0
56547,-125,4,1,0,100,0,0
56574,-111.111111111111,4,1,0,100,0,0
56601,-100,4,1,0,100,0,0
56628,-57.1428571428571,4,1,0,100,0,0
56654,-40,4,1,0,100,0,0
56682,-40,4,1,0,100,0,0
56709,-200,4,1,0,100,0,0
56736,-100,4,1,0,100,0,0
57110,-66.6666666666667,4,1,0,100,0,0
57164,-83.3333333333333,4,1,0,100,0,0
57217,-125,4,1,0,100,0,0
57271,-200,4,1,0,100,0,0
57325,-66.6666666666667,4,1,0,100,0,0
57379,-83.3333333333333,4,1,0,100,0,0
57432,-125,4,1,0,100,0,0
57486,-200,4,1,0,100,0,0
57539,-50,4,1,0,100,0,0
57593,-83.3333333333333,4,1,0,100,0,0
57646,-125,4,1,0,100,0,0
57700,-200,4,1,0,100,0,0
57753,-181.818181818182,4,1,0,100,0,0
57807,-166.666666666667,4,1,0,100,0,0
57860,-153.846153846154,4,1,0,100,0,0
57914,-142.857142857143,4,1,0,100,0,0
57967,-125,4,1,0,100,0,0
58182,-100,4,1,0,100,0,0
58289,-66.6666666666667,4,1,0,100,0,0
58342,-200,4,1,0,100,0,0
58396,-66.6666666666667,4,1,0,100,0,0
58449,-200,4,1,0,100,0,0
58503,-66.6666666666667,4,1,0,100,0,0
58556,-200,4,1,0,100,0,0
58610,-40,4,1,0,100,0,0
58637,-200,4,1,0,100,0,0
58664,-100,4,1,0,100,0,0
59467,-50,4,1,0,100,0,0
59521,-83.3333333333333,4,1,0,100,0,0
59574,-125,4,1,0,100,0,0
59628,-200,4,1,0,100,0,0
59682,-166.666666666667,4,1,0,100,0,0
59735,-142.857142857143,4,1,0,100,0,0
59789,-125,4,1,0,100,0,0
59842,-111.111111111111,4,1,0,100,0,0
59896,-100,4,1,0,100,0,0
60110,-25,4,1,0,100,0,0
60164,-200,4,1,0,100,0,0
60485,-25,4,1,0,100,0,0
60539,-100,4,1,0,100,0,0
60753,-58.8235294117647,4,1,0,100,0,0
60789,-250,4,1,0,100,0,0
60825,-58.8235294117647,4,1,0,100,0,0
60861,-250,4,1,0,100,0,0
60896,-58.8235294117647,4,1,0,100,0,0
60932,-250,4,1,0,100,0,0
60967,-50,4,1,0,100,0,0
60994,-250,4,1,0,100,0,0
61021,-50,4,1,0,100,0,0
61048,-250,4,1,0,100,0,0
61075,-50,4,1,0,100,0,0
61102,-250,4,1,0,100,0,0
61128,-50,4,1,0,100,0,0
61155,-250,4,1,0,100,0,0
61182,-50,4,1,0,100,0,0
61236,-83.3333333333333,4,1,0,100,0,0
61289,-125,4,1,0,100,0,0
61343,-200,4,1,0,100,0,0
61610,-166.666666666667,4,1,0,100,0,0
61717,-142.857142857143,4,1,0,100,0,0
61825,-125,4,1,0,100,0,0
61932,-111.111111111111,4,1,0,100,0,0
62039,-40,4,1,0,100,0,0
62066,-200,4,1,0,100,0,0
62093,-100,4,1,0,100,0,0
62896,-50,4,1,0,100,0,0
62950,-83.3333333333333,4,1,0,100,0,0
63003,-125,4,1,0,100,0,0
63057,-200,4,1,0,100,0,0
63325,-1000,4,1,0,100,0,0
63352,-500,4,1,0,100,0,0
63378,-285.714285714286,4,1,0,100,0,0
63405,-181.818181818182,4,1,0,100,0,0
63432,-133.333333333333,4,1,0,100,0,0
63459,-100,4,1,0,100,0,0
63486,-57.1428571428571,4,1,0,100,0,0
63512,-40,4,1,0,100,0,0
63539,-40,4,1,0,100,0,0
63566,-200,4,1,0,100,0,0
63593,-100,4,1,0,100,0,0
63896,-58.8235294117647,4,1,0,100,0,0
63967,-250,4,1,0,100,0,0
64039,-58.8235294117647,4,1,0,100,0,0
64110,-250,4,1,0,100,0,0
64182,-58.8235294117647,4,1,0,100,0,0
64253,-250,4,1,0,100,0,0
64325,-100,4,1,0,100,0,0
64503,-58.8235294117647,4,1,0,100,0,0
64557,-250,4,1,0,100,0,0
64610,-50,4,1,0,100,0,0
64664,-83.3333333333333,4,1,0,100,0,0
64717,-125,4,1,0,100,0,0
64771,-200,4,1,0,100,0,0
65253,-1000,4,1,0,100,0,0
65280,-500,4,1,0,100,0,0
65306,-285.714285714286,4,1,0,100,0,0
65333,-181.818181818182,4,1,0,100,0,0
65360,-133.333333333333,4,1,0,100,0,0
65387,-100,4,1,0,100,0,0
65414,-57.1428571428571,4,1,0,100,0,0
65440,-40,4,1,0,100,0,0
65467,-40,4,1,0,100,0,0
65494,-200,4,1,0,100,0,0
65521,-100,4,1,0,100,0,0
66325,-50,4,1,0,100,0,0
66379,-83.3333333333333,4,1,0,100,0,0
66432,-125,4,1,0,100,0,0
66486,-200,4,1,0,100,0,0
66540,-166.666666666667,4,1,0,100,0,0
66592,-142.857142857143,4,1,0,100,0,0
66647,-125,4,1,0,100,0,0
66700,-111.111111111111,4,1,0,100,0,0
66753,-100,4,1,0,100,0,0
66967,-200,4,1,0,100,0,0
67021,-142.857142857143,4,1,0,100,0,0
67075,-111.111111111111,4,1,0,100,0,0
67128,-90.9090909090909,4,1,0,100,0,0
67182,-76.9230769230769,4,1,0,100,0,0
67235,-66.6666666666667,4,1,0,100,0,0
67289,-100,4,1,0,100,0,0
67396,-66.6666666666667,4,1,0,100,0,0
67450,-83.3333333333333,4,1,0,100,0,0
67503,-125,4,1,0,100,0,0
67557,-200,4,1,0,100,0,0
67610,-66.6666666666667,4,1,0,100,0,0
67664,-83.3333333333333,4,1,0,100,0,0
67717,-125,4,1,0,100,0,0
67771,-200,4,1,0,100,0,0
67825,-100,4,1,0,100,0,0
68039,-50,4,1,0,100,0,0
68093,-83.3333333333333,4,1,0,100,0,0
68146,-125,4,1,0,100,0,0
68200,-200,4,1,0,100,0,0
68467,-166.666666666667,4,1,0,100,0,0
68521,-142.857142857143,4,1,0,100,0,0
68575,-125,4,1,0,100,0,0
68628,-111.111111111111,4,1,0,100,0,0
68682,-100,4,1,0,100,0,0
68896,-40,4,1,0,100,0,0
68923,-200,4,1,0,100,0,0
68950,-100,4,1,0,100,0,0
69753,-50,4,1,0,100,0,0
69807,-83.3333333333333,4,1,0,100,0,0
69860,-125,4,1,0,100,0,0
69914,-200,4,1,0,100,0,0
69968,-166.666666666667,4,1,0,100,0,0
70021,-142.857142857143,4,1,0,100,0,0
70075,-125,4,1,0,100,0,0
70128,-111.111111111111,4,1,0,100,0,0
70182,-1000,4,1,0,100,0,0
70209,-500,4,1,0,100,0,0
70235,-285.714285714286,4,1,0,100,0,0
70262,-181.818181818182,4,1,0,100,0,0
70289,-133.333333333333,4,1,0,100,0,0
70316,-100,4,1,0,100,0,0
70343,-57.1428571428571,4,1,0,100,0,0
70369,-40,4,1,0,100,0,0
70396,-40,4,1,0,100,0,0
70423,-200,4,1,0,100,0,0
70450,-100,4,1,0,100,0,0
70557,-1000,4,1,0,100,0,0
70584,-500,4,1,0,100,0,0
70610,-285.714285714286,4,1,0,100,0,0
70637,-181.818181818182,4,1,0,100,0,0
70664,-133.333333333333,4,1,0,100,0,0
70691,-100,4,1,0,100,0,0
70718,-57.1428571428571,4,1,0,100,0,0
70744,-40,4,1,0,100,0,0
70771,-100,4,1,0,100,0,0
71467,-50,4,1,0,100,0,0
71521,-83.3333333333333,4,1,0,100,0,0
71574,-125,4,1,0,100,0,0
71628,-200,4,1,0,100,0,0
72110,-1000,4,1,0,100,0,0
72137,-500,4,1,0,100,0,0
72163,-285.714285714286,4,1,0,100,0,0
72190,-181.818181818182,4,1,0,100,0,0
72217,-133.333333333333,4,1,0,100,0,0
72244,-100,4,1,0,100,0,0
72271,-57.1428571428571,4,1,0,100,0,0
72297,-40,4,1,0,100,0,0
72325,-40,4,1,0,100,0,0
72352,-200,4,1,0,100,0,0
72379,-100,4,1,0,100,0,0
72539,6,4,1,0,100,1,0
72539,-10,4,1,0,100,0,0
72544,428.571428571429,4,1,0,100,1,0
72544,-1000,4,1,0,100,0,0
72646,428.571428571429,4,1,0,100,1,0
72646,-100,4,1,0,100,0,0
73182,-50,4,1,0,100,0,0
73236,-83.3333333333333,4,1,0,100,0,0
73289,-125,4,1,0,100,0,0
73343,-200,4,1,0,100,0,0
73397,-166.666666666667,4,1,0,100,0,0
73450,-142.857142857143,4,1,0,100,0,0
73504,-125,4,1,0,100,0,0
73557,-111.111111111111,4,1,0,100,0,0
73610,-100,4,1,0,100,0,0
73824,-40,4,1,0,100,0,0
73851,-200,4,1,0,100,0,0
73878,-100,4,1,0,100,0,0
74039,428.571428571429,4,1,0,100,1,0
74467,-66.6666666666667,4,1,0,100,0,0
74521,-83.3333333333333,4,1,0,100,0,0
74574,-125,4,1,0,100,0,0
74628,-200,4,1,0,100,0,0
74681,-125,4,1,0,100,0,0
74896,-66.6666666666667,4,1,0,100,0,0
74950,-100,4,1,0,100,0,0
75003,-125,4,1,0,100,0,0
75057,-200,4,1,0,100,0,0
75111,-33.3333333333333,4,1,0,100,0,0
75164,-303.030303030303,4,1,0,100,0,0
75324,-33.3333333333333,4,1,0,100,0,0
75377,-303.030303030303,4,1,0,100,0,0
75539,-100,4,1,0,100,0,0
75753,-40,4,1,0,100,0,0
75780,-200,4,1,0,100,0,0
75807,-100,4,1,0,100,0,0
76610,-50,4,1,0,100,0,0
76664,-83.3333333333333,4,1,0,100,0,0
76717,-125,4,1,0,100,0,0
76771,-200,4,1,0,100,0,0
77039,-1000,4,1,0,100,0,0
77066,-500,4,1,0,100,0,0
77092,-285.714285714286,4,1,0,100,0,0
77119,-181.818181818182,4,1,0,100,0,0
77146,-133.333333333333,4,1,0,100,0,0
77173,-100,4,1,0,100,0,0
77200,-57.1428571428571,4,1,0,100,0,0
77226,-40,4,1,0,100,0,0
77253,-10,4,1,0,100,0,0
77280,-1000,4,1,0,100,0,0
77574,-10,4,1,0,100,0,0
77601,-1000,4,1,0,100,0,0
77896,-20,4,1,0,100,0,0
77922,-1000,4,1,0,100,0,0
78110,-100,4,1,0,100,0,0
78324,-20,4,1,0,100,0,0
78350,-1000,4,1,0,100,0,0
78539,-20,4,1,0,100,0,0
78565,-1000,4,1,0,100,0,0
78753,-33.3333333333333,4,1,0,100,0,0
78780,-1000,4,1,0,100,0,0
78860,-33.3333333333333,4,1,0,100,0,0
78887,-1000,4,1,0,100,0,0
78967,-1000,4,1,0,100,0,0
78994,-500,4,1,0,100,0,0
79020,-285.714285714286,4,1,0,100,0,0
79047,-181.818181818182,4,1,0,100,0,0
79074,-133.333333333333,4,1,0,100,0,0
79101,-100,4,1,0,100,0,0
79128,-57.1428571428571,4,1,0,100,0,0
79154,-40,4,1,0,100,0,0
79181,-40,4,1,0,100,0,0
79208,-200,4,1,0,100,0,0
79235,-100,4,1,0,100,0,0
80039,-50,4,1,0,100,0,0
80093,-83.3333333333333,4,1,0,100,0,0
80146,-125,4,1,0,100,0,0
80200,-200,4,1,0,100,0,0
80254,-166.666666666667,4,1,0,100,0,0
80307,-142.857142857143,4,1,0,100,0,0
80361,-125,4,1,0,100,0,0
80414,-111.111111111111,4,1,0,100,0,0
80467,-100,4,1,0,100,0,0
80574,-333.333333333333,4,1,0,100,0,0
80601,-200,4,1,0,100,0,0
80628,-142.857142857143,4,1,0,100,0,0
80655,-76.9230769230769,4,1,0,100,0,0
80681,-66.6666666666667,4,1,0,100,0,0
80708,-58.8235294117647,4,1,0,100,0,0
80735,-250,4,1,0,100,0,0
80789,-125,4,1,0,100,0,0
80842,-100,4,1,0,100,0,0
80896,-83.3333333333333,4,1,0,100,0,0
80949,-62.5,4,1,0,100,0,0
81003,-333.333333333333,4,1,0,100,0,0
81030,-142.857142857143,4,1,0,100,0,0
81056,-76.9230769230769,4,1,0,100,0,0
81083,-58.8235294117647,4,1,0,100,0,0
81110,-100,4,1,0,100,0,0
81539,-1000,4,1,0,100,0,0
81566,-500,4,1,0,100,0,0
81592,-285.714285714286,4,1,0,100,0,0
81619,-181.818181818182,4,1,0,100,0,0
81646,-133.333333333333,4,1,0,100,0,0
81673,-100,4,1,0,100,0,0
81700,-57.1428571428571,4,1,0,100,0,0
81726,-40,4,1,0,100,0,0
81753,-50,4,1,0,100,0,0
81807,-83.3333333333333,4,1,0,100,0,0
81860,-125,4,1,0,100,0,0
81914,-200,4,1,0,100,0,0
81967,-153.846153846154,4,1,0,100,0,0
82021,-125,4,1,0,100,0,0
82074,-100,4,1,0,100,0,0
82128,-83.3333333333333,4,1,0,100,0,0
82181,-125,4,1,0,100,0,0
82396,-100,4,1,0,100,0,0
82610,-40,4,1,0,100,0,0
82637,-200,4,1,0,100,0,0
82664,-100,4,1,0,100,0,0
83467,-50,4,1,0,100,0,0
83521,-83.3333333333333,4,1,0,100,0,0
83574,-125,4,1,0,100,0,0
83628,-200,4,1,0,100,0,0
83682,-166.666666666667,4,1,0,100,0,0
83735,-142.857142857143,4,1,0,100,0,0
83789,-125,4,1,0,100,0,0
83842,-111.111111111111,4,1,0,100,0,0
83896,-1000,4,1,0,100,0,0
83923,-500,4,1,0,100,0,0
83949,-285.714285714286,4,1,0,100,0,0
83976,-181.818181818182,4,1,0,100,0,0
84003,-133.333333333333,4,1,0,100,0,0
84030,-100,4,1,0,100,0,0
84057,-57.1428571428571,4,1,0,100,0,0
84083,-40,4,1,0,100,0,0
84110,-40,4,1,0,100,0,0
84137,-200,4,1,0,100,0,0
84164,-100,4,1,0,100,0,0
84325,-1000,4,1,0,100,0,0
84352,-500,4,1,0,100,0,0
84378,-285.714285714286,4,1,0,100,0,0
84405,-181.818181818182,4,1,0,100,0,0
84432,-133.333333333333,4,1,0,100,0,0
84459,-100,4,1,0,100,0,0
84486,-57.1428571428571,4,1,0,100,0,0
84512,-40,4,1,0,100,0,0
84539,-40,4,1,0,100,0,0
84566,-200,4,1,0,100,0,0
84593,-100,4,1,0,100,0,0
85182,-50,4,1,0,100,0,0
85236,-83.3333333333333,4,1,0,100,0,0
85289,-125,4,1,0,100,0,0
85343,-200,4,1,0,100,0,0
85396,-125,4,1,0,100,0,0
85824,-10,4,1,0,100,0,0
85851,-1000,4,1,0,100,0,0
86039,-83.3333333333333,4,1,0,100,0,0
86039,-100,4,1,0,100,0,0
86092,-90.9090909090909,4,1,0,100,0,0
86146,-100,4,1,0,100,0,0
86896,-50,4,1,0,100,0,0
86950,-83.3333333333333,4,1,0,100,0,0
87003,-125,4,1,0,100,0,0
87057,-200,4,1,0,100,0,0
87111,-166.666666666667,4,1,0,100,0,0
87164,-142.857142857143,4,1,0,100,0,0
87218,-125,4,1,0,100,0,0
87271,-111.111111111111,4,1,0,100,0,0
87325,-100,4,1,0,100,0,0
87539,-40,4,1,0,100,0,0
87566,-200,4,1,0,100,0,0
87593,-100,4,1,0,100,0,0
87967,-55.5555555555556,4,1,0,100,0,0
88021,-83.3333333333333,4,1,0,100,0,0
88074,-125,4,1,0,100,0,0
88128,-333.333333333333,4,1,0,100,0,0
88181,-55.5555555555556,4,1,0,100,0,0
88235,-83.3333333333333,4,1,0,100,0,0
88288,-125,4,1,0,100,0,0
88342,-333.333333333333,4,1,0,100,0,0
88395,-100,4,1,0,100,0,0
88503,-55.5555555555556,4,1,0,100,0,0
88557,-83.3333333333333,4,1,0,100,0,0
88610,-125,4,1,0,100,0,0
88664,-333.333333333333,4,1,0,100,0,0
88717,-100,4,1,0,100,0,0
88824,-55.5555555555556,4,1,0,100,0,0
88878,-83.3333333333333,4,1,0,100,0,0
88931,-125,4,1,0,100,0,0
88985,-333.333333333333,4,1,0,100,0,0
89039,-66.6666666666667,4,1,0,100,0,0
89092,-200,4,1,0,100,0,0
89146,-66.6666666666667,4,1,0,100,0,0
89199,-200,4,1,0,100,0,0
89253,-66.6666666666667,4,1,0,100,0,0
89467,-40,4,1,0,100,0,0
89494,-200,4,1,0,100,0,0
89521,-100,4,1,0,100,0,0
90325,-50,4,1,0,100,0,0
90379,-83.3333333333333,4,1,0,100,0,0
90432,-125,4,1,0,100,0,0
90486,-200,4,1,0,100,0,0
90753,-1000,4,1,0,100,0,0
90780,-500,4,1,0,100,0,0
90806,-285.714285714286,4,1,0,100,0,0
90833,-181.818181818182,4,1,0,100,0,0
90860,-133.333333333333,4,1,0,100,0,0
90887,-100,4,1,0,100,0,0
90914,-57.1428571428571,4,1,0,100,0,0
90940,-40,4,1,0,100,0,0
90967,-40,4,1,0,100,0,0
90994,-200,4,1,0,100,0,0
91021,-100,4,1,0,100,0,0
91396,-50,4,1,0,100,0,0
91449,-166.666666666667,4,1,0,100,0,0
91610,-100,4,1,0,100,0,0
91717,-50,4,1,0,100,0,0
91770,-166.666666666667,4,1,0,100,0,0
91931,-100,4,1,0,100,0,0
92039,-50,4,1,0,100,0,0
92093,-83.3333333333333,4,1,0,100,0,0
92146,-125,4,1,0,100,0,0
92200,-200,4,1,0,100,0,0
92253,-166.666666666667,4,1,0,100,0,0
92306,-142.857142857143,4,1,0,100,0,0
92360,-125,4,1,0,100,0,0
92414,-111.111111111111,4,1,0,100,0,0
92467,-55.5555555555556,4,1,0,100,0,0
92494,-1000,4,1,0,100,0,0
92520,-55.5555555555556,4,1,0,100,0,0
92547,-1000,4,1,0,100,0,0
92574,-55.5555555555556,4,1,0,100,0,0
92601,-1000,4,1,0,100,0,0
92627,-55.5555555555556,4,1,0,100,0,0
92654,-1000,4,1,0,100,0,0
92681,-142.857142857143,4,1,0,100,0,0
92735,-111.111111111111,4,1,0,100,0,0
92789,-90.9090909090909,4,1,0,100,0,0
92842,-76.9230769230769,4,1,0,100,0,0
92896,-100,4,1,0,100,0,0
93324,-250,4,1,0,100,0,0
93378,-166.666666666667,4,1,0,100,0,0
93431,-111.111111111111,4,1,0,100,0,0
93485,-90.9090909090909,4,1,0,100,0,0
93539,-76.9230769230769,4,1,0,100,0,0
93592,-58.8235294117647,4,1,0,100,0,0
93646,-100,4,1,0,100,0,0
93753,-50,4,1,0,100,0,0
93807,-83.3333333333333,4,1,0,100,0,0
93860,-125,4,1,0,100,0,0
93914,-200,4,1,0,100,0,0
93968,-166.666666666667,4,1,0,100,0,0
94021,-142.857142857143,4,1,0,100,0,0
94075,-125,4,1,0,100,0,0
94128,-111.111111111111,4,1,0,100,0,0
94182,-100,4,1,0,100,0,0
94396,-40,4,1,0,100,0,0
94423,-200,4,1,0,100,0,0
94450,-100,4,1,0,100,0,0
94717,-40,4,1,0,100,0,0
94744,-200,4,1,0,100,0,0
94771,-100,4,1,0,100,0,0
94824,-50,4,1,0,100,0,0
94877,-166.666666666667,4,1,0,100,0,0
95039,-55.5555555555556,4,1,0,100,0,0
95093,-83.3333333333333,4,1,0,100,0,0
95146,-125,4,1,0,100,0,0
95200,-333.333333333333,4,1,0,100,0,0
95253,-100,4,1,0,100,0,0
95467,-50,4,1,0,100,0,0
95521,-83.3333333333333,4,1,0,100,0,0
95574,-125,4,1,0,100,0,0
95628,-200,4,1,0,100,0,0
95681,-166.666666666667,4,1,0,100,0,0
95789,-142.857142857143,4,1,0,100,0,0
96110,-1000,4,1,0,100,0,0
96137,-500,4,1,0,100,0,0
96163,-285.714285714286,4,1,0,100,0,0
96190,-181.818181818182,4,1,0,100,0,0
96217,-133.333333333333,4,1,0,100,0,0
96244,-100,4,1,0,100,0,0
96271,-57.1428571428571,4,1,0,100,0,0
96297,-40,4,1,0,100,0,0
96324,-40,4,1,0,100,0,0
96351,-200,4,1,0,100,0,0
96378,-100,4,1,0,100,0,0
97182,-50,4,1,0,100,0,0
97236,-83.3333333333333,4,1,0,100,0,0
97289,-125,4,1,0,100,0,0
97343,-200,4,1,0,100,0,0
97397,-166.666666666667,4,1,0,100,0,0
97450,-142.857142857143,4,1,0,100,0,0
97504,-125,4,1,0,100,0,0
97557,-111.111111111111,4,1,0,100,0,0
97610,-1000,4,1,0,100,0,0
97637,-500,4,1,0,100,0,0
97663,-285.714285714286,4,1,0,100,0,0
97690,-181.818181818182,4,1,0,100,0,0
97717,-133.333333333333,4,1,0,100,0,0
97744,-100,4,1,0,100,0,0
97771,-57.1428571428571,4,1,0,100,0,0
97797,-40,4,1,0,100,0,0
97824,-40,4,1,0,100,0,0
97851,-133.333333333333,4,1,0,100,0,0
98146,-100,4,1,0,100,0,0
98253,-50,4,1,0,100,0,0
98306,-166.666666666667,4,1,0,100,0,0
98467,-100,4,1,0,100,0,0
98574,-50,4,1,0,100,0,0
98627,-166.666666666667,4,1,0,100,0,0
98789,-100,4,1,0,100,0,0
98896,-50,4,1,0,100,0,0
98950,-83.3333333333333,4,1,0,100,0,0
99003,-125,4,1,0,100,0,0
99057,-200,4,1,0,100,0,0
99110,-125,4,1,0,100,0,0
99539,-117.647058823529,4,1,0,100,0,0
99592,-111.111111111111,4,1,0,100,0,0
99646,-100,4,1,0,100,0,0
99699,-71.4285714285714,4,1,0,100,0,0
99753,-40,4,1,0,100,0,0
99780,-200,4,1,0,100,0,0
99807,-100,4,1,0,100,0,0
100610,-50,4,1,0,100,0,0
100664,-83.3333333333333,4,1,0,100,0,0
100717,-125,4,1,0,100,0,0
100771,-200,4,1,0,100,0,0
100825,-166.666666666667,4,1,0,100,0,0
100878,-142.857142857143,4,1,0,100,0,0
100932,-125,4,1,0,100,0,0
100985,-111.111111111111,4,1,0,100,0,0
101039,-100,4,1,0,100,0,0
101253,-50,4,1,0,100,0,0
101307,-83.3333333333333,4,1,0,100,0,0
101360,-125,4,1,0,100,0,0
101414,-200,4,1,0,100,0,0
101468,-100,4,1,0,100,0,0
101896,-55.5555555555556,4,1,0,100,0,0
101950,-83.3333333333333,4,1,0,100,0,0
102003,-125,4,1,0,100,0,0
102057,-333.333333333333,4,1,0,100,0,0
102110,-100,4,1,0,100,0,0
102217,-50,4,1,0,100,0,0
102271,-83.3333333333333,4,1,0,100,0,0
102324,-125,4,1,0,100,0,0
102378,-200,4,1,0,100,0,0
102432,-100,4,1,0,100,0,0
102539,-33.3333333333333,4,1,0,100,0,0
102592,-333.333333333333,4,1,0,100,0,0
102753,-100,4,1,0,100,0,0
103181,-40,4,1,0,100,0,0
103208,-200,4,1,0,100,0,0
103235,-100,4,1,0,100,0,0
104039,-50,4,1,0,100,0,0
104093,-83.3333333333333,4,1,0,100,0,0
104146,-125,4,1,0,100,0,0
104200,-200,4,1,0,100,0,0
104467,-1000,4,1,0,100,0,0
104494,-500,4,1,0,100,0,0
104520,-285.714285714286,4,1,0,100,0,0
104547,-181.818181818182,4,1,0,100,0,0
104574,-133.333333333333,4,1,0,100,0,0
104601,-100,4,1,0,100,0,0
104628,-57.1428571428571,4,1,0,100,0,0
104654,-40,4,1,0,100,0,0
104681,-40,4,1,0,100,0,0
104708,-133.333333333333,4,1,0,100,0,0
105003,-100,4,1,0,100,0,0
105110,-50,4,1,0,100,0,0
105163,-166.666666666667,4,1,0,100,0,0
105324,-55.5555555555556,4,1,0,100,0,0
105378,-83.3333333333333,4,1,0,100,0,0
105431,-125,4,1,0,100,0,0
105485,-333.333333333333,4,1,0,100,0,0
105539,-100,4,1,0,100,0,0
105753,-50,4,1,0,100,0,0
105807,-83.3333333333333,4,1,0,100,0,0
105860,-125,4,1,0,100,0,0
105914,-200,4,1,0,100,0,0
105968,-166.666666666667,4,1,0,100,0,0
106021,-142.857142857143,4,1,0,100,0,0
106075,-125,4,1,0,100,0,0
106128,-111.111111111111,4,1,0,100,0,0
106182,-100,4,1,0,100,0,0
106289,-55.5555555555556,4,1,0,100,0,0
106315,-250,4,1,0,100,0,0
106342,-55.5555555555556,4,1,0,100,0,0
106368,-250,4,1,0,100,0,0
106396,-55.5555555555556,4,1,0,100,0,0
106422,-250,4,1,0,100,0,0
106449,-55.5555555555556,4,1,0,100,0,0
106475,-250,4,1,0,100,0,0
106503,-55.5555555555556,4,1,0,100,0,0
106529,-250,4,1,0,100,0,0
106556,-55.5555555555556,4,1,0,100,0,0
106582,-250,4,1,0,100,0,0
106610,-40,4,1,0,100,0,0
106637,-200,4,1,0,100,0,0
106664,-100,4,1,0,100,0,0
107467,-50,4,1,0,100,0,0
107521,-83.3333333333333,4,1,0,100,0,0
107574,-125,4,1,0,100,0,0
107628,-200,4,1,0,100,0,0
107682,-166.666666666667,4,1,0,100,0,0
107735,-142.857142857143,4,1,0,100,0,0
107789,-125,4,1,0,100,0,0
107842,-111.111111111111,4,1,0,100,0,0
107896,-100,4,1,0,100,0,0
108110,-40,4,1,0,100,0,0
108137,-200,4,1,0,100,0,0
108164,-100,4,1,0,100,0,0
108217,-111.111111111111,4,1,0,100,0,0
108271,-90.9090909090909,4,1,0,100,0,0
108324,-76.9230769230769,4,1,0,100,0,0
108378,-66.6666666666667,4,1,0,100,0,0
108431,-100,4,1,0,100,0,0
108539,-50,4,1,0,100,0,0
108592,-166.666666666667,4,1,0,100,0,0
108753,-58.8235294117647,4,1,0,100,0,0
108806,-166.666666666667,4,1,0,100,0,0
108860,-58.8235294117647,4,1,0,100,0,0
108913,-166.666666666667,4,1,0,100,0,0
108967,-100,4,1,0,100,0,0
109074,-16.6666666666667,4,1,0,100,0,0
109101,-1000,4,1,0,100,0,0
109181,-100,4,1,0,100,0,0
109235,-103.092783505155,4,1,0,100,0,0
109289,-105.263157894737,4,1,0,100,0,0
109342,-107.52688172043,4,1,0,100,0,0
109396,-111.111111111111,4,1,0,100,0,0
109449,-114.942528735632,4,1,0,100,0,0
109503,-117.647058823529,4,1,0,100,0,0
109556,-120.481927710843,4,1,0,100,0,0
109610,-125,4,1,0,100,0,0
109664,-129.87012987013,4,1,0,100,0,0
109718,-133.333333333333,4,1,0,100,0,0
109771,-136.986301369863,4,1,0,100,0,0
109825,-142.857142857143,4,1,0,100,0,0
109878,-149.253731343284,4,1,0,100,0,0
109932,-153.846153846154,4,1,0,100,0,0
109985,-158.730158730159,4,1,0,100,0,0
110039,-166.666666666667,4,1,0,100,0,0

[HitObjects]
448,192,325,5,0,0:0:0:0:
320,192,539,1,0,0:0:0:0:
192,192,753,1,0,0:0:0:0:
448,192,967,5,0,0:0:0:0:
320,192,1182,1,0,0:0:0:0:
192,192,1396,1,0,0:0:0:0:
448,192,1610,1,0,0:0:0:0:
320,192,1825,1,0,0:0:0:0:
64,192,2039,1,0,0:0:0:0:
448,192,2253,1,0,0:0:0:0:
320,192,2467,1,0,0:0:0:0:
64,192,2682,1,0,0:0:0:0:
448,192,2896,1,0,0:0:0:0:
192,192,3110,1,0,0:0:0:0:
64,192,3325,1,0,0:0:0:0:
448,192,3539,1,0,0:0:0:0:
320,192,3753,1,0,0:0:0:0:
192,192,3967,1,0,0:0:0:0:
448,192,4182,1,0,0:0:0:0:
320,192,4396,1,0,0:0:0:0:
192,192,4610,1,0,0:0:0:0:
448,192,4825,1,0,0:0:0:0:
320,192,5039,1,0,0:0:0:0:
192,192,5253,1,0,0:0:0:0:
448,192,5467,1,0,0:0:0:0:
320,192,5682,1,0,0:0:0:0:
192,192,5896,1,0,0:0:0:0:
448,192,6110,1,0,0:0:0:0:
320,192,6325,1,0,0:0:0:0:
192,192,6539,1,0,0:0:0:0:
448,192,6753,1,0,0:0:0:0:
320,192,6967,1,0,0:0:0:0:
64,192,7182,1,0,0:0:0:0:
192,192,7396,1,0,0:0:0:0:
320,192,7610,1,0,0:0:0:0:
64,192,7825,1,0,0:0:0:0:
192,192,8039,1,0,0:0:0:0:
320,192,8253,1,0,0:0:0:0:
64,192,8467,1,0,0:0:0:0:
192,192,8682,1,0,0:0:0:0:
448,192,8896,1,0,0:0:0:0:
64,192,9110,1,0,0:0:0:0:
192,192,9325,1,0,0:0:0:0:
448,192,9539,1,0,0:0:0:0:
64,192,9753,1,0,0:0:0:0:
320,192,9967,1,0,0:0:0:0:
448,192,10182,1,0,0:0:0:0:
64,192,10396,1,0,0:0:0:0:
192,192,10610,1,0,0:0:0:0:
320,192,10825,1,0,0:0:0:0:
448,192,11039,1,0,0:0:0:0:
192,192,11253,1,0,0:0:0:0:
320,192,11467,1,0,0:0:0:0:
448,192,11682,1,0,0:0:0:0:
192,192,11896,1,0,0:0:0:0:
320,192,12110,1,0,0:0:0:0:
448,192,12325,1,0,0:0:0:0:
192,192,12539,1,0,0:0:0:0:
320,192,12753,1,0,0:0:0:0:
448,192,12967,1,0,0:0:0:0:
192,192,13182,1,0,0:0:0:0:
320,192,13396,1,0,0:0:0:0:
448,192,13610,1,0,0:0:0:0:
448,192,14039,1,0,0:0:0:0:
320,192,14253,1,0,0:0:0:0:
192,192,14467,1,0,0:0:0:0:
448,192,14682,1,0,0:0:0:0:
320,192,14896,1,0,0:0:0:0:
192,192,15110,1,0,0:0:0:0:
448,192,15325,1,0,0:0:0:0:
320,192,15539,1,0,0:0:0:0:
64,192,15753,1,0,0:0:0:0:
448,192,15967,1,0,0:0:0:0:
320,192,16182,1,0,0:0:0:0:
64,192,16396,1,0,0:0:0:0:
448,192,16610,1,0,0:0:0:0:
192,192,16825,1,0,0:0:0:0:
64,192,17039,1,0,0:0:0:0:
448,192,17253,1,0,0:0:0:0:
320,192,17467,1,0,0:0:0:0:
192,192,17682,1,0,0:0:0:0:
448,192,17896,1,0,0:0:0:0:
320,192,18110,1,0,0:0:0:0:
192,192,18325,1,0,0:0:0:0:
448,192,18539,1,0,0:0:0:0:
320,192,18753,1,0,0:0:0:0:
192,192,18967,1,0,0:0:0:0:
448,192,19182,1,0,0:0:0:0:
320,192,19396,1,0,0:0:0:0:
192,192,19610,1,0,0:0:0:0:
448,192,19825,1,0,0:0:0:0:
320,192,20039,1,0,0:0:0:0:
192,192,20253,1,0,0:0:0:0:
448,192,20467,1,0,0:0:0:0:
320,192,20682,1,0,0:0:0:0:
64,192,20896,1,0,0:0:0:0:
192,192,21110,1,0,0:0:0:0:
320,192,21325,1,0,0:0:0:0:
64,192,21539,1,0,0:0:0:0:
192,192,21753,1,0,0:0:0:0:
320,192,21967,1,0,0:0:0:0:
64,192,22182,1,0,0:0:0:0:
192,192,22396,1,0,0:0:0:0:
448,192,22610,1,0,0:0:0:0:
64,192,22825,1,0,0:0:0:0:
192,192,23039,1,0,0:0:0:0:
448,192,23253,1,0,0:0:0:0:
64,192,23467,1,0,0:0:0:0:
320,192,23682,1,0,0:0:0:0:
448,192,23896,1,0,0:0:0:0:
64,192,24110,1,0,0:0:0:0:
192,192,24325,1,0,0:0:0:0:
320,192,24539,1,0,0:0:0:0:
448,192,24753,1,0,0:0:0:0:
192,192,24967,1,0,0:0:0:0:
320,192,25182,1,0,0:0:0:0:
448,192,25396,1,0,0:0:0:0:
192,192,25610,1,0,0:0:0:0:
320,192,25825,1,0,0:0:0:0:
448,192,26039,1,0,0:0:0:0:
64,192,26253,1,0,0:0:0:0:
320,192,26467,1,0,0:0:0:0:
448,192,26682,1,0,0:0:0:0:
64,192,26896,1,0,0:0:0:0:
192,192,27110,1,0,0:0:0:0:
320,192,27325,1,0,0:0:0:0:
192,192,27753,5,0,0:0:0:0:
64,192,27753,1,0,0:0:0:0:
448,192,27807,1,0,0:0:0:0:
320,192,27860,1,0,0:0:0:0:
192,192,27967,1,0,0:0:0:0:
320,192,28075,1,0,0:0:0:0:
192,192,28289,1,0,0:0:0:0:
192,192,28503,1,0,0:0:0:0:
448,192,28610,1,0,0:0:0:0:
64,192,28610,1,0,0:0:0:0:
192,192,28825,1,0,0:0:0:0:
192,192,28932,1,0,0:0:0:0:
448,192,29039,128,0,29253:0:0:0:0:
64,192,29253,1,0,0:0:0:0:
192,192,29253,1,0,0:0:0:0:
320,192,29575,1,0,0:0:0:0:
320,192,29682,1,0,0:0:0:0:
64,192,29896,1,0,0:0:0:0:
448,192,30110,1,0,0:0:0:0:
192,192,30217,1,0,0:0:0:0:
448,192,30325,1,0,0:0:0:0:
64,192,30325,1,0,0:0:0:0:
64,192,30539,128,0,31182:0:0:0:0:
320,192,31182,1,0,0:0:0:0:
448,192,31182,1,0,0:0:0:0:
192,192,31253,1,0,0:0:0:0:
64,192,31325,1,0,0:0:0:0:
448,192,31396,1,0,0:0:0:0:
320,192,31503,1,0,0:0:0:0:
192,192,31610,128,0,32039:0:0:0:0:
64,192,32039,1,0,0:0:0:0:
448,192,32039,1,0,0:0:0:0:
320,192,32360,1,0,0:0:0:0:
192,192,32467,1,0,0:0:0:0:
192,192,32575,1,0,0:0:0:0:
448,192,32682,128,0,33003:0:0:0:0:
320,192,32682,1,0,0:0:0:0:
192,192,33003,1,0,0:0:0:0:
320,192,33110,1,0,0:0:0:0:
64,192,33325,1,0,0:0:0:0:
64,192,33539,1,0,0:0:0:0:
320,192,33646,1,0,0:0:0:0:
64,192,33753,1,0,0:0:0:0:
448,192,33753,1,0,0:0:0:0:
320,192,33967,128,0,34182:0:0:0:0:
192,192,34182,128,0,34235:0:0:0:0:
320,192,34235,128,0,34289:0:0:0:0:
192,192,34289,128,0,34342:0:0:0:0:
320,192,34342,128,0,34610:0:0:0:0:
64,192,34610,1,0,0:0:0:0:
192,192,34610,1,0,0:0:0:0:
448,192,34664,1,0,0:0:0:0:
320,192,34717,1,0,0:0:0:0:
192,192,34825,1,0,0:0:0:0:
320,192,34932,1,0,0:0:0:0:
448,192,35146,1,0,0:0:0:0:
192,192,35253,1,0,0:0:0:0:
192,192,35360,1,0,0:0:0:0:
448,192,35467,1,0,0:0:0:0:
64,192,35467,1,0,0:0:0:0:
192,192,35682,1,0,0:0:0:0:
448,192,35896,128,0,36110:0:0:0:0:
64,192,36110,1,0,0:0:0:0:
192,192,36110,1,0,0:0:0:0:
192,192,36432,1,0,0:0:0:0:
320,192,36539,1,0,0:0:0:0:
64,192,36753,1,0,0:0:0:0:
64,192,36967,1,0,0:0:0:0:
320,192,37075,1,0,0:0:0:0:
64,192,37182,1,0,0:0:0:0:
448,192,37182,1,0,0:0:0:0:
192,192,37396,128,0,38039:0:0:0:0:
64,192,37396,128,0,37825:0:0:0:0:
320,192,38039,1,0,0:0:0:0:
448,192,38039,1,0,0:0:0:0:
192,192,38092,1,0,0:0:0:0:
64,192,38146,1,0,0:0:0:0:
320,192,38253,1,0,0:0:0:0:
192,192,38467,128,0,38575:0:0:0:0:
320,192,38575,128,0,38682:0:0:0:0:
64,192,38682,128,0,38789:0:0:0:0:
448,192,38789,128,0,38896:0:0:0:0:
320,192,38896,1,0,0:0:0:0:
192,192,38896,1,0,0:0:0:0:
320,192,39110,1,0,0:0:0:0:
320,192,39217,1,0,0:0:0:0:
320,192,39432,1,0,0:0:0:0:
192,192,39539,1,0,0:0:0:0:
64,192,39539,128,0,39860:0:0:0:0:
192,192,39860,1,0,0:0:0:0:
320,192,39967,1,0,0:0:0:0:
64,192,40182,1,0,0:0:0:0:
64,192,40396,1,0,0:0:0:0:
192,192,40396,128,0,40557:0:0:0:0:
192,192,40610,128,0,40771:0:0:0:0:
192,192,40825,1,0,0:0:0:0:
64,192,40825,128,0,41253:0:0:0:0:
448,192,41253,128,0,41467:0:0:0:0:
192,192,41467,1,0,0:0:0:0:
64,192,41467,1,0,0:0:0:0:
448,192,41521,1,0,0:0:0:0:
320,192,41575,1,0,0:0:0:0:
192,192,41682,1,0,0:0:0:0:
320,192,41789,1,0,0:0:0:0:
192,192,42003,1,0,0:0:0:0:
192,192,42217,1,0,0:0:0:0:
448,192,42325,1,0,0:0:0:0:
64,192,42325,1,0,0:0:0:0:
192,192,42539,1,0,0:0:0:0:
192,192,42646,1,0,0:0:0:0:
448,192,42753,128,0,42967:0:0:0:0:
192,192,42967,1,0,0:0:0:0:
64,192,42967,1,0,0:0:0:0:
192,192,43289,1,0,0:0:0:0:
320,192,43396,1,0,0:0:0:0:
448,192,43610,1,0,0:0:0:0:
448,192,43717,1,0,0:0:0:0:
192,192,43825,1,0,0:0:0:0:
320,192,43932,1,0,0:0:0:0:
448,192,44039,1,0,0:0:0:0:
64,192,44039,1,0,0:0:0:0:
448,192,44253,1,0,0:0:0:0:
64,192,44360,1,0,0:0:0:0:
448,192,44467,128,0,44575:0:0:0:0:
320,192,44575,1,0,0:0:0:0:
448,192,44682,128,0,44789:0:0:0:0:
320,192,44789,128,0,44842:0:0:0:0:
192,192,44842,128,0,44896:0:0:0:0:
64,192,44896,128,0,44950:0:0:0:0:
448,192,44950,128,0,45003:0:0:0:0:
320,192,45003,128,0,45325:0:0:0:0:
64,192,45325,1,0,0:0:0:0:
448,192,45378,1,0,0:0:0:0:
64,192,45432,1,0,0:0:0:0:
448,192,45485,1,0,0:0:0:0:
64,192,45539,1,0,0:0:0:0:
192,192,45646,1,0,0:0:0:0:
320,192,45700,1,0,0:0:0:0:
448,192,45753,1,0,0:0:0:0:
64,192,45753,1,0,0:0:0:0:
192,192,46075,1,0,0:0:0:0:
192,192,46182,1,0,0:0:0:0:
320,192,46289,1,0,0:0:0:0:
192,192,46396,1,0,0:0:0:0:
64,192,46396,128,0,46717:0:0:0:0:
192,192,46717,1,0,0:0:0:0:
320,192,46825,1,0,0:0:0:0:
64,192,47039,1,0,0:0:0:0:
320,192,47253,1,0,0:0:0:0:
320,192,47360,1,0,0:0:0:0:
64,192,47467,1,0,0:0:0:0:
320,192,47467,1,0,0:0:0:0:
192,192,47575,128,0,47789:0:0:0:0:
320,192,47789,1,0,0:0:0:0:
448,192,47842,1,0,0:0:0:0:
192,192,47896,128,0,48110:0:0:0:0:
320,192,48110,1,0,0:0:0:0:
448,192,48164,1,0,0:0:0:0:
192,192,48217,128,0,48325:0:0:0:0:
448,192,48325,1,0,0:0:0:0:
320,192,48325,1,0,0:0:0:0:
64,192,48378,1,0,0:0:0:0:
192,192,48432,1,0,0:0:0:0:
320,192,48539,1,0,0:0:0:0:
64,192,48646,1,0,0:0:0:0:
192,192,48860,1,0,0:0:0:0:
320,192,48967,1,0,0:0:0:0:
192,192,49075,1,0,0:0:0:0:
64,192,49182,1,0,0:0:0:0:
448,192,49182,1,0,0:0:0:0:
192,192,49396,1,0,0:0:0:0:
448,192,49610,128,0,49825:0:0:0:0:
192,192,49825,1,0,0:0:0:0:
64,192,49825,1,0,0:0:0:0:
192,192,50146,5,0,0:0:0:0:
320,192,50253,1,0,0:0:0:0:
448,192,50467,1,0,0:0:0:0:
448,192,50682,1,0,0:0:0:0:
192,192,50789,1,0,0:0:0:0:
448,192,50896,1,0,0:0:0:0:
64,192,50896,1,0,0:0:0:0:
192,192,51110,128,0,51271:0:0:0:0:
192,192,51325,128,0,51378:0:0:0:0:
192,192,51432,128,0,51485:0:0:0:0:
192,192,51539,128,0,51753:0:0:0:0:
448,192,51753,1,0,0:0:0:0:
320,192,51753,1,0,0:0:0:0:
64,192,51807,1,0,0:0:0:0:
192,192,51860,1,0,0:0:0:0:
192,192,52182,1,0,0:0:0:0:
448,192,52289,1,0,0:0:0:0:
192,192,52396,1,0,0:0:0:0:
320,192,52503,1,0,0:0:0:0:
448,192,52610,1,0,0:0:0:0:
64,192,52610,1,0,0:0:0:0:
192,192,52825,1,0,0:0:0:0:
448,192,52932,1,0,0:0:0:0:
192,192,53039,1,0,0:0:0:0:
192,192,53146,1,0,0:0:0:0:
320,192,53253,1,0,0:0:0:0:
448,192,53253,128,0,53575:0:0:0:0:
192,192,53682,1,0,0:0:0:0:
448,192,53789,1,0,0:0:0:0:
192,192,53896,1,0,0:0:0:0:
192,192,54003,1,0,0:0:0:0:
64,192,54110,128,0,54539:0:0:0:0:
320,192,54539,128,0,54753:0:0:0:0:
192,192,54753,1,0,0:0:0:0:
448,192,54967,128,0,55039:0:0:0:0:
320,192,55039,128,0,55110:0:0:0:0:
448,192,55110,128,0,55182:0:0:0:0:
64,192,55182,1,0,0:0:0:0:
192,192,55182,1,0,0:0:0:0:
448,192,55396,128,0,55539:0:0:0:0:
320,192,55503,1,0,0:0:0:0:
448,192,55610,128,0,55753:0:0:0:0:
64,192,55717,1,0,0:0:0:0:
320,192,55825,1,0,0:0:0:0:
192,192,55932,1,0,0:0:0:0:
64,192,56039,128,0,56182:0:0:0:0:
448,192,56039,1,0,0:0:0:0:
64,192,56253,128,0,56396:0:0:0:0:
320,192,56253,1,0,0:0:0:0:
320,192,56360,1,0,0:0:0:0:
192,192,56467,128,0,56682:0:0:0:0:
448,192,56682,128,0,56825:0:0:0:0:
320,192,56682,1,0,0:0:0:0:
448,192,56896,128,0,57039:0:0:0:0:
320,192,57003,1,0,0:0:0:0:
192,192,57110,1,0,0:0:0:0:
448,192,57325,1,0,0:0:0:0:
64,192,57539,1,0,0:0:0:0:
448,192,57539,1,0,0:0:0:0:
448,192,57753,128,0,57967:0:0:0:0:
320,192,57967,128,0,58039:0:0:0:0:
192,192,58039,128,0,58110:0:0:0:0:
64,192,58110,128,0,58182:0:0:0:0:
448,192,58182,128,0,58289:0:0:0:0:
192,192,58289,128,0,58396:0:0:0:0:
320,192,58396,128,0,58503:0:0:0:0:
448,192,58503,128,0,58610:0:0:0:0:
64,192,58610,1,0,0:0:0:0:
192,192,58610,1,0,0:0:0:0:
320,192,58664,1,0,0:0:0:0:
448,192,58717,1,0,0:0:0:0:
64,192,58825,1,0,0:0:0:0:
320,192,59039,1,0,0:0:0:0:
320,192,59253,1,0,0:0:0:0:
320,192,59360,1,0,0:0:0:0:
448,192,59467,1,0,0:0:0:0:
64,192,59467,1,0,0:0:0:0:
320,192,59682,1,0,0:0:0:0:
192,192,59789,1,0,0:0:0:0:
320,192,59896,1,0,0:0:0:0:
448,192,60110,128,0,60325:0:0:0:0:
64,192,60325,128,0,60539:0:0:0:0:
320,192,60753,1,0,0:0:0:0:
192,192,60825,1,0,0:0:0:0:
320,192,60896,1,0,0:0:0:0:
192,192,60967,128,0,61182:0:0:0:0:
64,192,61182,1,0,0:0:0:0:
448,192,61182,1,0,0:0:0:0:
320,192,61396,128,0,61825:0:0:0:0:
448,192,61825,1,0,0:0:0:0:
64,192,61932,1,0,0:0:0:0:
448,192,62039,1,0,0:0:0:0:
320,192,62039,1,0,0:0:0:0:
192,192,62092,1,0,0:0:0:0:
320,192,62146,1,0,0:0:0:0:
448,192,62253,1,0,0:0:0:0:
64,192,62360,1,0,0:0:0:0:
320,192,62575,1,0,0:0:0:0:
192,192,62682,1,0,0:0:0:0:
192,192,62789,1,0,0:0:0:0:
448,192,62896,1,0,0:0:0:0:
64,192,62896,1,0,0:0:0:0:
192,192,63110,1,0,0:0:0:0:
64,192,63325,128,0,63539:0:0:0:0:
320,192,63539,1,0,0:0:0:0:
448,192,63539,1,0,0:0:0:0:
64,192,63753,128,0,63860:0:0:0:0:
320,192,63896,128,0,63967:0:0:0:0:
320,192,64039,128,0,64110:0:0:0:0:
320,192,64182,128,0,64253:0:0:0:0:
192,192,64396,1,0,0:0:0:0:
320,192,64503,128,0,64610:0:0:0:0:
448,192,64610,1,0,0:0:0:0:
64,192,64610,1,0,0:0:0:0:
192,192,64825,128,0,65467:0:0:0:0:
320,192,65467,1,0,0:0:0:0:
448,192,65467,1,0,0:0:0:0:
64,192,65521,1,0,0:0:0:0:
192,192,65575,1,0,0:0:0:0:
320,192,65682,1,0,0:0:0:0:
192,192,65896,1,0,0:0:0:0:
192,192,66110,1,0,0:0:0:0:
192,192,66217,1,0,0:0:0:0:
448,192,66325,1,0,0:0:0:0:
64,192,66325,1,0,0:0:0:0:
192,192,66539,1,0,0:0:0:0:
192,192,66646,1,0,0:0:0:0:
192,192,66860,1,0,0:0:0:0:
320,192,66967,128,0,67289:0:0:0:0:
192,192,67289,128,0,67396:0:0:0:0:
320,192,67396,1,0,0:0:0:0:
448,192,67610,1,0,0:0:0:0:
64,192,67825,1,0,0:0:0:0:
320,192,67932,1,0,0:0:0:0:
448,192,68039,1,0,0:0:0:0:
64,192,68039,1,0,0:0:0:0:
448,192,68253,128,0,68682:0:0:0:0:
64,192,68682,1,0,0:0:0:0:
192,192,68789,1,0,0:0:0:0:
320,192,68896,1,0,0:0:0:0:
448,192,68896,1,0,0:0:0:0:
64,192,68950,1,0,0:0:0:0:
192,192,69003,1,0,0:0:0:0:
320,192,69110,1,0,0:0:0:0:
192,192,69217,1,0,0:0:0:0:
320,192,69432,1,0,0:0:0:0:
320,192,69646,1,0,0:0:0:0:
448,192,69753,1,0,0:0:0:0:
64,192,69753,1,0,0:0:0:0:
320,192,69967,1,0,0:0:0:0:
320,192,70075,1,0,0:0:0:0:
448,192,70182,128,0,70396:0:0:0:0:
192,192,70396,1,0,0:0:0:0:
64,192,70396,128,0,70771:0:0:0:0:
448,192,70771,1,0,0:0:0:0:
320,192,70771,128,0,71360:0:0:0:0:
192,192,71360,1,0,0:0:0:0:
448,192,71467,1,0,0:0:0:0:
64,192,71467,1,0,0:0:0:0:
64,192,71682,128,0,72325:0:0:0:0:
320,192,72325,1,0,0:0:0:0:
448,192,72378,1,0,0:0:0:0:
64,192,72432,1,0,0:0:0:0:
192,192,72539,1,0,0:0:0:0:
320,192,72651,1,0,0:0:0:0:
448,192,72699,1,0,0:0:0:0:
64,192,72753,1,0,0:0:0:0:
192,192,72860,128,0,73181:0:0:0:0:
448,192,73181,1,0,0:0:0:0:
64,192,73181,1,0,0:0:0:0:
192,192,73474,1,0,0:0:0:0:
320,192,73581,1,0,0:0:0:0:
320,192,73688,1,0,0:0:0:0:
192,192,73796,1,0,0:0:0:0:
64,192,73796,128,0,74146:0:0:0:0:
448,192,74146,1,0,0:0:0:0:
192,192,74253,1,0,0:0:0:0:
192,192,74360,1,0,0:0:0:0:
448,192,74467,1,0,0:0:0:0:
192,192,74681,1,0,0:0:0:0:
320,192,74789,1,0,0:0:0:0:
448,192,74896,1,0,0:0:0:0:
64,192,74896,1,0,0:0:0:0:
192,192,75003,1,0,0:0:0:0:
448,192,75110,128,0,75324:0:0:0:0:
64,192,75324,128,0,75539:0:0:0:0:
448,192,75539,1,0,0:0:0:0:
320,192,75646,1,0,0:0:0:0:
192,192,75753,1,0,0:0:0:0:
64,192,75753,1,0,0:0:0:0:
448,192,75806,1,0,0:0:0:0:
320,192,75860,1,0,0:0:0:0:
192,192,75967,1,0,0:0:0:0:
320,192,76074,1,0,0:0:0:0:
192,192,76289,1,0,0:0:0:0:
320,192,76396,1,0,0:0:0:0:
320,192,76503,1,0,0:0:0:0:
448,192,76610,1,0,0:0:0:0:
64,192,76610,1,0,0:0:0:0:
320,192,76824,1,0,0:0:0:0:
64,192,77039,128,0,77253:0:0:0:0:
320,192,77253,1,0,0:0:0:0:
448,192,77253,1,0,0:0:0:0:
320,192,77574,1,0,0:0:0:0:
448,192,77896,1,0,0:0:0:0:
320,192,78110,1,0,0:0:0:0:
320,192,78217,1,0,0:0:0:0:
448,192,78324,1,0,0:0:0:0:
64,192,78324,1,0,0:0:0:0:
320,192,78539,1,0,0:0:0:0:
192,192,78753,1,0,0:0:0:0:
192,192,78860,1,0,0:0:0:0:
64,192,78967,128,0,79181:0:0:0:0:
448,192,79181,1,0,0:0:0:0:
320,192,79181,1,0,0:0:0:0:
192,192,79235,1,0,0:0:0:0:
64,192,79289,1,0,0:0:0:0:
192,192,79610,1,0,0:0:0:0:
192,192,79824,1,0,0:0:0:0:
192,192,79931,1,0,0:0:0:0:
448,192,80039,1,0,0:0:0:0:
64,192,80039,1,0,0:0:0:0:
192,192,80253,1,0,0:0:0:0:
192,192,80360,1,0,0:0:0:0:
192,192,80574,128,0,80735:0:0:0:0:
448,192,80735,128,0,81003:0:0:0:0:
64,192,81003,128,0,81110:0:0:0:0:
192,192,81271,1,0,0:0:0:0:
320,192,81378,128,0,81753:0:0:0:0:
448,192,81753,1,0,0:0:0:0:
64,192,81753,1,0,0:0:0:0:
192,192,81967,128,0,82128:0:0:0:0:
192,192,82181,128,0,82235:0:0:0:0:
192,192,82289,128,0,82342:0:0:0:0:
192,192,82396,1,0,0:0:0:0:
64,192,82503,1,0,0:0:0:0:
448,192,82610,1,0,0:0:0:0:
320,192,82610,1,0,0:0:0:0:
192,192,82664,1,0,0:0:0:0:
64,192,82717,1,0,0:0:0:0:
320,192,82824,1,0,0:0:0:0:
192,192,83039,1,0,0:0:0:0:
320,192,83146,1,0,0:0:0:0:
320,192,83360,1,0,0:0:0:0:
448,192,83467,1,0,0:0:0:0:
64,192,83467,1,0,0:0:0:0:
320,192,83681,1,0,0:0:0:0:
320,192,83789,1,0,0:0:0:0:
64,192,83896,128,0,84110:0:0:0:0:
320,192,84110,1,0,0:0:0:0:
448,192,84110,1,0,0:0:0:0:
192,192,84431,1,0,0:0:0:0:
320,192,84539,1,0,0:0:0:0:
448,192,84539,1,0,0:0:0:0:
448,192,84753,128,0,84967:0:0:0:0:
320,192,84967,1,0,0:0:0:0:
192,192,85021,1,0,0:0:0:0:
320,192,85101,1,0,0:0:0:0:
448,192,85181,1,0,0:0:0:0:
64,192,85181,1,0,0:0:0:0:
64,192,85396,128,0,86039:0:0:0:0:
448,192,85396,1,0,0:0:0:0:
448,192,85503,1,0,0:0:0:0:
448,192,85610,1,0,0:0:0:0:
448,192,86039,128,0,86146:0:0:0:0:
320,192,86092,128,0,86199:0:0:0:0:
192,192,86146,128,0,86253:0:0:0:0:
64,192,86199,128,0,86306:0:0:0:0:
448,192,86253,128,0,86467:0:0:0:0:
64,192,86467,128,0,86789:0:0:0:0:
320,192,86467,1,0,0:0:0:0:
192,192,86574,1,0,0:0:0:0:
448,192,86681,1,0,0:0:0:0:
192,192,86789,1,0,0:0:0:0:
64,192,86896,1,0,0:0:0:0:
448,192,86896,1,0,0:0:0:0:
192,192,87217,1,0,0:0:0:0:
320,192,87324,1,0,0:0:0:0:
320,192,87431,1,0,0:0:0:0:
192,192,87539,1,0,0:0:0:0:
64,192,87539,128,0,87860:0:0:0:0:
192,192,87860,1,0,0:0:0:0:
448,192,87967,1,0,0:0:0:0:
64,192,88181,1,0,0:0:0:0:
448,192,88396,1,0,0:0:0:0:
64,192,88503,1,0,0:0:0:0:
448,192,88717,1,0,0:0:0:0:
64,192,88824,128,0,88931:0:0:0:0:
64,192,89039,1,0,0:0:0:0:
64,192,89146,1,0,0:0:0:0:
64,192,89253,128,0,89467:0:0:0:0:
448,192,89467,1,0,0:0:0:0:
320,192,89467,1,0,0:0:0:0:
192,192,89521,1,0,0:0:0:0:
448,192,89574,1,0,0:0:0:0:
64,192,89681,128,0,89815:0:0:0:0:
64,192,89896,128,0,90030:0:0:0:0:
192,192,90003,1,0,0:0:0:0:
320,192,90110,1,0,0:0:0:0:
320,192,90217,1,0,0:0:0:0:
448,192,90324,128,0,90458:0:0:0:0:
64,192,90324,1,0,0:0:0:0:
448,192,90539,128,0,90672:0:0:0:0:
64,192,90753,128,0,90967:0:0:0:0:
448,192,90967,128,0,91101:0:0:0:0:
320,192,90967,1,0,0:0:0:0:
448,192,91181,128,0,91315:0:0:0:0:
320,192,91289,1,0,0:0:0:0:
64,192,91396,1,0,0:0:0:0:
320,192,91610,1,0,0:0:0:0:
64,192,91717,1,0,0:0:0:0:
320,192,91931,1,0,0:0:0:0:
448,192,92039,1,0,0:0:0:0:
64,192,92039,1,0,0:0:0:0:
320,192,92253,128,0,92467:0:0:0:0:
192,192,92467,128,0,92521:0:0:0:0:
320,192,92521,128,0,92574:0:0:0:0:
192,192,92574,128,0,92628:0:0:0:0:
320,192,92628,128,0,92681:0:0:0:0:
192,192,92681,128,0,92789:0:0:0:0:
320,192,92789,1,0,0:0:0:0:
448,192,92896,1,0,0:0:0:0:
192,192,93003,1,0,0:0:0:0:
320,192,93110,1,0,0:0:0:0:
320,192,93324,1,0,0:0:0:0:
320,192,93646,1,0,0:0:0:0:
192,192,93699,1,0,0:0:0:0:
64,192,93753,1,0,0:0:0:0:
448,192,93753,1,0,0:0:0:0:
320,192,93967,1,0,0:0:0:0:
320,192,94074,1,0,0:0:0:0:
320,192,94289,1,0,0:0:0:0:
192,192,94396,1,0,0:0:0:0:
64,192,94396,128,0,94610:0:0:0:0:
64,192,94717,128,0,94824:0:0:0:0:
192,192,94717,1,0,0:0:0:0:
320,192,94824,1,0,0:0:0:0:
448,192,95039,1,0,0:0:0:0:
320,192,95253,1,0,0:0:0:0:
192,192,95360,1,0,0:0:0:0:
64,192,95360,1,0,0:0:0:0:
448,192,95467,1,0,0:0:0:0:
64,192,95467,1,0,0:0:0:0:
192,192,95574,1,0,0:0:0:0:
320,192,95681,128,0,96324:0:0:0:0:
448,192,95896,128,0,96324:0:0:0:0:
64,192,96324,1,0,0:0:0:0:
192,192,96324,1,0,0:0:0:0:
448,192,96378,1,0,0:0:0:0:
320,192,96431,1,0,0:0:0:0:
192,192,96539,1,0,0:0:0:0:
448,192,96646,1,0,0:0:0:0:
320,192,96860,1,0,0:0:0:0:
192,192,96967,1,0,0:0:0:0:
192,192,97074,1,0,0:0:0:0:
448,192,97181,1,0,0:0:0:0:
64,192,97181,1,0,0:0:0:0:
192,192,97396,1,0,0:0:0:0:
192,192,97503,1,0,0:0:0:0:
64,192,97610,128,0,97824:0:0:0:0:
448,192,97824,1,0,0:0:0:0:
320,192,97824,1,0,0:0:0:0:
320,192,98146,1,0,0:0:0:0:
64,192,98253,1,0,0:0:0:0:
448,192,98467,1,0,0:0:0:0:
64,192,98574,1,0,0:0:0:0:
448,192,98789,1,0,0:0:0:0:
448,192,98896,1,0,0:0:0:0:
64,192,98896,1,0,0:0:0:0:
64,192,99110,128,0,99753:0:0:0:0:
448,192,99110,1,0,0:0:0:0:
448,192,99217,1,0,0:0:0:0:
448,192,99324,1,0,0:0:0:0:
192,192,99539,1,0,0:0:0:0:
192,192,99646,1,0,0:0:0:0:
320,192,99753,1,0,0:0:0:0:
448,192,99753,1,0,0:0:0:0:
192,192,99806,1,0,0:0:0:0:
64,192,99860,1,0,0:0:0:0:
448,192,99967,1,0,0:0:0:0:
320,192,100181,1,0,0:0:0:0:
320,192,100396,1,0,0:0:0:0:
320,192,100503,1,0,0:0:0:0:
448,192,100610,1,0,0:0:0:0:
64,192,100610,1,0,0:0:0:0:
192,192,100931,1,0,0:0:0:0:
320,192,101039,1,0,0:0:0:0:
320,192,101146,1,0,0:0:0:0:
448,192,101253,1,0,0:0:0:0:
64,192,101253,1,0,0:0:0:0:
320,192,101467,128,0,101574:0:0:0:0:
192,192,101574,128,0,101681:0:0:0:0:
64,192,101681,1,0,0:0:0:0:
448,192,101896,1,0,0:0:0:0:
448,192,102110,1,0,0:0:0:0:
448,192,102217,1,0,0:0:0:0:
64,192,102217,1,0,0:0:0:0:
64,192,102431,1,0,0:0:0:0:
64,192,102539,1,0,0:0:0:0:
320,192,102539,1,0,0:0:0:0:
448,192,102753,1,0,0:0:0:0:
448,192,102860,1,0,0:0:0:0:
192,192,102967,1,0,0:0:0:0:
192,192,103074,1,0,0:0:0:0:
320,192,103181,1,0,0:0:0:0:
448,192,103181,1,0,0:0:0:0:
192,192,103235,1,0,0:0:0:0:
64,192,103289,1,0,0:0:0:0:
320,192,103396,1,0,0:0:0:0:
192,192,103503,1,0,0:0:0:0:
192,192,103717,1,0,0:0:0:0:
320,192,103824,1,0,0:0:0:0:
320,192,103931,1,0,0:0:0:0:
448,192,104039,1,0,0:0:0:0:
64,192,104039,1,0,0:0:0:0:
320,192,104253,1,0,0:0:0:0:
64,192,104467,128,0,104681:0:0:0:0:
320,192,104681,1,0,0:0:0:0:
448,192,104681,1,0,0:0:0:0:
192,192,105003,1,0,0:0:0:0:
448,192,105110,1,0,0:0:0:0:
192,192,105324,1,0,0:0:0:0:
448,192,105539,1,0,0:0:0:0:
192,192,105646,1,0,0:0:0:0:
64,192,105753,1,0,0:0:0:0:
448,192,105753,1,0,0:0:0:0:
320,192,105967,1,0,0:0:0:0:
448,192,106074,1,0,0:0:0:0:
192,192,106181,1,0,0:0:0:0:
320,192,106289,128,0,106610:0:0:0:0:
192,192,106610,1,0,0:0:0:0:
64,192,106610,1,0,0:0:0:0:
448,192,106664,1,0,0:0:0:0:
320,192,106717,1,0,0:0:0:0:
192,192,107039,1,0,0:0:0:0:
192,192,107253,1,0,0:0:0:0:
192,192,107360,1,0,0:0:0:0:
448,192,107467,1,0,0:0:0:0:
64,192,107467,1,0,0:0:0:0:
192,192,107681,1,0,0:0:0:0:
192,192,107789,1,0,0:0:0:0:
192,192,108003,1,0,0:0:0:0:
320,192,108110,1,0,0:0:0:0:
448,192,108110,128,0,108431:0:0:0:0:
320,192,108431,1,0,0:0:0:0:
64,192,108539,1,0,0:0:0:0:
448,192,108753,1,0,0:0:0:0:
448,192,108860,1,0,0:0:0:0:
64,192,108967,1,0,0:0:0:0:
448,192,109074,1,0,0:0:0:0:
192,192,109181,128,0,109289:0:0:0:0:
448,192,109289,128,0,109396:0:0:0:0:
192,192,109396,128,0,109503:0:0:0:0:
320,192,109503,128,0,109610:0:0:0:0:
64,192,109610,128,0,109717:0:0:0:0:
320,192,109717,128,0,109824:0:0:0:0:
192,192,109824,128,0,109931:0:0:0:0:
64,192,109931,128,0,110039:0:0:0:0:
448,192,110039,1,0,0:0:0:0:
320,192,110253,1,0,0:0:0:0:
192,192,110467,1,0,0:0:0:0:
448,192,110681,1,0,0:0:0:0:
320,192,110896,1,0,0:0:0:0:
64,192,111110,1,0,0:0:0:0:
448,192,111324,1,0,0:0:0:0:
192,192,111539,1,0,0:0:0:0:
64,192,111753,1,0,0:0:0:0:
320,192,111967,1,0,0:0:0:0:
192,192,112181,1,0,0:0:0:0:
64,192,112396,1,0,0:0:0:0:
192,192,112610,1,0,0:0:0:0:
320,192,112824,1,0,0:0:0:0:
64,192,113039,1,0,0:0:0:0:
448,192,113253,1,0,0:0:0:0:
320,192,113467,1,0,0:0:0:0:
192,192,113681,1,0,0:0:0:0:
448,192,113896,1,0,0:0:0:0:
320,192,114110,1,0,0:0:0:0:
192,192,114324,1,0,0:0:0:0:
448,192,114539,1,0,0:0:0:0:
320,192,114753,1,0,0:0:0:0:
192,192,114967,1,0,0:0:0:0:
448,192,115181,1,0,0:0:0:0:
320,192,115396,1,0,0:0:0:0:
192,192,115610,1,0,0:0:0:0:
448,192,115824,1,0,0:0:0:0:
320,192,116039,1,0,0:0:0:0:
192,192,116253,1,0,0:0:0:0:
448,192,116467,1,0,0:0:0:0:
320,192,116681,1,0,0:0:0:0:
64,192,116896,1,0,0:0:0:0:
192,192,117110,1,0,0:0:0:0:
320,192,117324,1,0,0:0:0:0:
64,192,117539,1,0,0:0:0:0:
192,192,117753,1,0,0:0:0:0:
448,192,117967,1,0,0:0:0:0:
64,192,118181,1,0,0:0:0:0:
320,192,118396,1,0,0:0:0:0:
448,192,118610,1,0,0:0:0:0:
192,192,118824,1,0,0:0:0:0:
320,192,119039,1,0,0:0:0:0:
448,192,119253,1,0,0:0:0:0:
320,192,119467,1,0,0:0:0:0:
192,192,119681,1,0,0:0:0:0:
448,192,119896,1,0,0:0:0:0:
192,192,120110,1,0,0:0:0:0:
64,192,120324,1,0,0:0:0:0:
192,192,120539,1,0,0:0:0:0:
448,192,120753,1,0,0:0:0:0:
64,192,120967,1,0,0:0:0:0:
192,192,121181,1,0,0:0:0:0:
448,192,121396,1,0,0:0:0:0:
64,192,121610,1,0,0:0:0:0:
192,192,121824,1,0,0:0:0:0:
448,192,122039,1,0,0:0:0:0:
64,192,122253,1,0,0:0:0:0:
192,192,122467,1,0,0:0:0:0:
448,192,122681,1,0,0:0:0:0:
64,192,122896,1,0,0:0:0:0:
192,192,123110,1,0,0:0:0:0:
448,192,123324,1,0,0:0:0:0:
448,192,123753,1,0,0:0:0:0:
320,192,123967,1,0,0:0:0:0:
192,192,124181,1,0,0:0:0:0:
448,192,124396,1,0,0:0:0:0:
320,192,124610,1,0,0:0:0:0:
64,192,124824,1,0,0:0:0:0:
448,192,125039,1,0,0:0:0:0:
192,192,125253,1,0,0:0:0:0:
64,192,125467,1,0,0:0:0:0:
320,192,125681,1,0,0:0:0:0:
192,192,125896,1,0,0:0:0:0:
64,192,126110,1,0,0:0:0:0:
192,192,126324,1,0,0:0:0:0:
320,192,126539,1,0,0:0:0:0:
64,192,126753,1,0,0:0:0:0:
448,192,126967,1,0,0:0:0:0:
320,192,127181,1,0,0:0:0:0:
192,192,127396,1,0,0:0:0:0:
448,192,127610,1,0,0:0:0:0:
320,192,127824,1,0,0:0:0:0:
192,192,128039,1,0,0:0:0:0:
448,192,128253,1,0,0:0:0:0:
320,192,128467,1,0,0:0:0:0:
192,192,128681,1,0,0:0:0:0:
448,192,128896,1,0,0:0:0:0:
320,192,129110,1,0,0:0:0:0:
192,192,129324,1,0,0:0:0:0:
448,192,129539,1,0,0:0:0:0:
320,192,129753,1,0,0:0:0:0:
192,192,129967,1,0,0:0:0:0:
448,192,130181,1,0,0:0:0:0:
320,192,130396,1,0,0:0:0:0:
64,192,130610,1,0,0:0:0:0:
192,192,130824,1,0,0:0:0:0:
320,192,131039,1,0,0:0:0:0:
64,192,131253,1,0,0:0:0:0:
192,192,131467,1,0,0:0:0:0:
448,192,131681,1,0,0:0:0:0:
64,192,131896,1,0,0:0:0:0:
320,192,132110,1,0,0:0:0:0:
448,192,132324,1,0,0:0:0:0:
192,192,132539,1,0,0:0:0:0:
320,192,132753,1,0,0:0:0:0:
448,192,132967,1,0,0:0:0:0:
320,192,133181,1,0,0:0:0:0:
192,192,133396,1,0,0:0:0:0:
448,192,133610,1,0,0:0:0:0:
192,192,133824,1,0,0:0:0:0:
64,192,134039,1,0,0:0:0:0:
192,192,134253,1,0,0:0:0:0:
448,192,134467,1,0,0:0:0:0:
64,192,134681,1,0,0:0:0:0:
192,192,134896,1,0,0:0:0:0:
448,192,135110,1,0,0:0:0:0:
64,192,135324,1,0,0:0:0:0:
320,192,135539,1,0,0:0:0:0:
448,192,135753,1,0,0:0:0:0:
192,192,135967,1,0,0:0:0:0:
320,192,136181,1,0,0:0:0:0:
448,192,136396,1,0,0:0:0:0:
192,192,136610,1,0,0:0:0:0:
448,192,136824,1,0,0:0:0:0:
320,192,137039,1,0,0:0:0:0:
192,192,137253,128,0,141753:0:0:0:0:
