osu file format v14

[General]
AudioFilename: audio.mp3
AudioLeadIn: 0
PreviewTime: 69896
Countdown: 0
SampleSet: Soft
StackLeniency: 0.3
Mode: 0
LetterboxInBreaks: 0
WidescreenStoryboard: 0

[Editor]
Bookmarks: 66146,71198,91409,111619,121725
DistanceSpacing: 0.7
BeatDivisor: 8
GridSize: 4
TimelineZoom: 2.2

[Metadata]
Title:GOODTEK
TitleUnicode:GOODTEK
Artist:ebimayo
ArtistUnicode:ebimayo
Creator:pecegiant
Version:GOD_tek
Source:Arcaea
Tags:
BeatmapID:1352008
BeatmapSetID:637255

[Difficulty]
HPDrainRate:8
CircleSize:3.8
OverallDifficulty:8
ApproachRate:9.9
SliderMultiplier:3.34999990463257
SliderTickRate:1

[Events]
//Background and Video events
0,0,"GoodTek Background.png",0,0
//Break Periods
//Storyboard Layer 0 (Background)
//Storyboard Layer 1 (Fail)
//Storyboard Layer 2 (Pass)
//Storyboard Layer 3 (Foreground)
//Storyboard Sound Samples

[TimingPoints]
462,315.789473684211,4,2,0,31,1,0
71198,-200,4,2,0,31,0,0
71356,-76.9230769230769,4,2,0,31,0,0
71830,-100,4,2,0,31,0,0
72462,-200,4,2,0,31,0,0
72619,-100,4,2,0,31,0,0
73093,-153.846153846153,4,2,0,31,0,0
73409,-76.9230769230769,4,2,0,31,0,0
73725,-200,4,2,0,31,0,0
73882,-76.9230769230769,4,2,0,31,0,0
74356,-100,4,2,0,31,0,0
74987,-200,4,2,0,31,0,0
75145,-153.846153846153,4,2,0,31,0,0
75619,-125,4,2,0,31,0,0
75935,-200,4,2,0,31,0,0
76251,-200,4,2,0,31,0,0
76408,-76.9230769230769,4,2,0,31,0,0
76882,-100,4,2,0,31,0,0
77514,-200,4,2,0,31,0,0
77672,-76.9230769230769,4,2,0,31,0,0
78145,-153.846153846153,4,2,0,31,0,0
78461,-76.9230769230769,4,2,0,31,0,0
78777,-200,4,2,0,31,0,0
78935,-76.9230769230769,4,2,0,31,0,0
79408,-100,4,2,0,31,0,0
80040,-200,4,2,0,31,0,0
80988,-100,4,2,0,31,0,0
81304,-100,4,2,0,31,0,1
83198,-153.846153846153,4,2,0,31,0,1
83514,-100,4,2,0,31,0,1
86040,-153.846153846153,4,2,0,31,0,0
86356,-90.9090909090909,4,2,0,31,0,1
88251,-153.846153846153,4,2,0,31,0,1
88567,-100,4,2,0,31,0,1
88883,-90.9090909090909,4,2,0,31,0,1
89040,-153.846153846153,4,2,0,31,0,1
89119,-90.9090909090909,4,2,0,31,0,1
89356,-153.846153846154,4,2,0,31,0,1
89435,-90.9090909090909,4,2,0,31,0,1
89672,-153.846153846154,4,2,0,31,0,1
89751,-90.9090909090909,4,2,0,31,0,1
89988,-153.846153846154,4,2,0,31,0,1
90067,-90.9090909090909,4,2,0,31,0,1
90146,-90.9090909090909,4,2,0,31,0,1
90225,-90.9090909090909,4,2,0,31,0,1
90304,-90.9090909090909,4,2,0,31,0,1
90383,-90.9090909090909,4,2,0,31,0,1
90462,-90.9090909090909,4,2,0,31,0,1
90540,-90.9090909090909,4,2,0,31,0,1
90619,-90.9090909090909,4,2,0,31,0,1
90698,-90.9090909090909,4,2,0,31,0,1
90777,-90.9090909090909,4,2,0,31,0,1
90856,-90.9090909090909,4,2,0,31,0,1
90935,-90.9090909090909,4,2,0,31,0,1
91014,-90.9090909090909,4,2,0,31,0,1
91093,-90.9090909090909,4,2,0,31,0,1
91172,-90.9090909090909,4,2,0,31,0,1
91251,-90.9090909090909,4,2,0,31,0,1
91330,-90.9090909090909,4,2,0,31,0,1
91409,-100,4,2,0,31,0,0

[Colours]
Combo1 : 174,102,198
Combo2 : 210,4,190
Combo3 : 199,73,120
Combo4 : 240,200,239

[HitObjects]
256,192,66146,12,0,69935,0:0:0:0:
368,131,71198,6,0,P|407:123|454:138,1,83.7499976158143
315,200,71514,6,0,L|329:78,1,108.874991916657
168,50,71672,2,0,B|144:57|144:57|105:56,1,54.4374959583285
212,75,71751,2,0,B|187:74|187:74|150:86,1,54.4374959583285
134,87,71830,6,0,P|58:133|74:210,1,167.499995231629
165,255,72146,2,0,P|241:209|225:132,1,167.499995231629
232,140,72383,1,0,0:0:0:0:
315,200,72462,6,0,L|421:194,1,83.7499976158143
447,364,72777,6,0,L|413:283,1,83.7499976158143
317,83,72935,2,0,L|351:164,1,83.7499976158143
469,215,73093,6,0,B|414:180|362:213|362:213|279:190,1,163.312487874985,8|0,0:0|0:0,0:0:0:0:
232,140,73408,5,0,0:0:0:0:
154,99,73487,1,0,0:0:0:0:
72,133,73566,1,0,0:0:0:0:
45,217,73645,1,0,0:0:0:0:
92,291,73725,6,0,B|178:283,1,83.7499976158143
314,199,74040,6,0,P|352:260|345:312,1,108.874991916657
446,213,74198,2,0,B|422:228|422:228|379:227,1,54.4374959583285
468,203,74277,2,0,B|450:225|450:225|445:267,1,54.4374959583285
403,185,74356,6,0,L|227:156,1,167.499995231629
47,97,74672,2,0,L|223:126,1,167.499995231629
212,124,74908,1,0,0:0:0:0:
350,61,74988,6,0,P|376:89|424:104,1,83.7499976158143
457,25,75304,6,0,L|452:87,1,54.4374959583285
479,155,75462,2,0,L|482:98,1,54.4374959583285
428,233,75619,6,0,P|381:211|360:191,1,66.9999980926514
477,307,75777,2,0,P|511:298|541:275,1,66.9999980926514
381,334,75935,6,0,B|343:323|319:339|295:362|252:339,1,125.624996423721,4|0,0:0|0:0,0:0:0:0:
201,244,76251,6,0,L|295:266,1,83.7499976158143
162,304,76567,6,0,L|134:167,1,108.874991916657
175,114,76725,2,0,P|140:109|111:115,1,54.4374959583285
178,98,76804,2,0,P|160:67|137:49,1,54.4374959583285
215,142,76883,6,0,P|267:160|315:68,1,167.499995231629
512,72,77198,2,0,P|460:54|412:146,1,167.499995231629
407,135,77435,1,0,0:0:0:0:
478,250,77514,6,0,B|485:280|485:280|497:302|497:302|506:342,1,83.7499976158143
412,349,77830,6,0,P|355:352|298:332,1,108.874991916657
106,169,77988,2,0,P|130:220|174:261,1,108.874991916657
320,223,78146,6,0,B|371:226|371:226|424:250|424:250|484:249,1,163.312487874985,8|0,0:0|0:0,0:0:0:0:
452,74,78461,5,0,0:0:0:0:
375,31,78540,1,0,0:0:0:0:
288,47,78619,1,0,0:0:0:0:
231,115,78698,1,0,0:0:0:0:
231,204,78777,6,0,P|234:245|228:304,1,83.7499976158143
170,183,79093,6,0,P|211:195|312:194,1,108.874991916657
288,47,79251,2,0,L|350:26,1,54.4374959583285
263,59,79329,2,0,B|288:74|288:74|332:85,1,54.4374959583285
192,15,79409,6,0,P|136:8|108:107,1,167.499995231629
276,199,79725,2,0,B|359:179|359:179|444:207,1,167.499995231629
436,205,79962,1,0,0:0:0:0:
508,340,80040,6,0,B|465:333|465:333|424:333|424:333|379:325|379:325|341:326|341:326|295:308|295:308|260:311|260:311|218:305|218:305|179:320|179:320|136:313|136:313|100:317|100:317|57:304|57:304|5:312,1,502.499985694885,8|12,0:0|0:0,0:0:0:0:
16,310,81304,6,0,P|29:240|122:213,1,167.499995231629
251,123,81619,2,0,L|238:219,1,83.7499976158143
379,139,81777,2,0,B|394:134|394:134|429:144,1,41.8749988079071
330,136,81856,2,0,B|305:132|305:132|281:142,1,41.8749988079071
