osu file format v14

[General]
AudioFilename: audio.ogg
AudioLeadIn: 0
PreviewTime: 41730
Countdown: 0
SampleSet: Normal
StackLeniency: 0.7
Mode: 1
LetterboxInBreaks: 0
WidescreenStoryboard: 1

[Editor]
Bookmarks: 347,6747,13147,19547,25947,38747,41947,54747,67547,79547,80347,86747,93147,101947
DistanceSpacing: 1.3
BeatDivisor: 4
GridSize: 32
TimelineZoom: 3.099999

[Metadata]
Title:silly 300bpm thing
TitleUnicode:silly 300bpm thing
Artist:easynam
ArtistUnicode:easynam
Creator:KyeX
Version:silly hell thing
Source:
Tags:electronic speedcore english breakcore easyname Veela Siren
BeatmapID:3617501
BeatmapSetID:1767251

[Difficulty]
HPDrainRate:5.5
CircleSize:3
OverallDifficulty:7.5
ApproachRate:10
SliderMultiplier:1.4
SliderTickRate:1

[Events]
//Background and Video events
0,0,"6.jpg",0,50
//Break Periods
2,13357,19107
//Storyboard Layer 0 (Background)
//Storyboard Layer 1 (Fail)
//Storyboard Layer 2 (Pass)
//Storyboard Layer 3 (Foreground)
//Storyboard Layer 4 (Overlay)
//Storyboard Sound Samples

[TimingPoints]
347,200,4,1,0,70,1,0
347,-125,4,1,0,70,0,0
6147,-125,4,1,0,70,0,0
6247,-123.711340206186,4,1,0,70,0,0
6347,-122.448979591837,4,1,0,70,0,0
6447,-121.212121212121,4,1,0,70,0,0
6547,-120,4,1,0,70,0,0
6647,-118.811881188119,4,1,0,70,0,0
6697,-118.226600985222,4,1,0,70,0,0
6747,-117.647058823529,4,1,0,70,0,0
12757,200,4,1,0,70,1,8
12757,-117.647058823529,4,1,0,70,0,8
13157,200,4,1,0,70,1,0
13157,-111.111111111111,32,1,0,70,0,0
19557,-105.263157894737,4,1,0,85,0,0
25657,-105.263157894737,4,1,0,85,0,0
25757,-103.448275862069,4,1,0,85,0,0
25807,-102.564102564103,4,1,0,85,0,0
25857,-101.694915254237,4,1,0,85,0,0
25907,-100.840336134454,4,1,0,85,0,0
25957,-100,4,1,0,90,0,0
31557,-100,4,1,0,90,0,0
31757,-103.896103896104,4,1,0,85,0,0
31857,-105.960264900662,4,1,0,85,0,0
31957,-108.108108108108,4,1,0,85,0,0
32157,-112.676056338028,4,1,0,85,0,0
32357,-100,4,1,0,90,0,0
35157,-100,4,1,0,75,0,0
35557,-100,4,1,0,90,0,0
37957,-100,4,1,0,90,0,0
38057,-98.765432098765,4,1,0,90,0,0
38157,-97.560975609756,4,1,0,90,0,0
38257,-96.385542168675,4,1,0,90,0,0
38357,-95.238095238095,4,1,0,90,0,0
38457,-94.117647058824,4,1,0,90,0,0
38557,-93.023255813953,4,1,0,90,0,0
38607,-92.485549132948,4,1,0,90,0,0
38657,-91.954022988506,4,1,0,90,0,0
38707,-91.428571428571,4,1,0,90,0,0
38757,-90.909090909091,4,1,0,90,0,0
39157,-142.857142857143,4,1,0,60,0,0
41957,-100,4,1,0,90,0,1
53957,-100,4,1,0,90,0,1
54157,-105.263157894737,4,1,0,85,0,1
54257,-108.108108108108,4,1,0,85,0,1
54357,-111.111111111111,4,1,0,85,0,1
54557,-117.647058823529,4,1,0,85,0,1
54757,-125,4,1,0,80,0,0
67157,-133.333333333333,4,1,0,80,0,0
67557,-100,4,1,0,90,0,1
79557,-100,4,1,0,90,0,0
80357,-100,4,1,0,85,0,0
80407,-100.313479623824,4,1,0,85,0,0
80457,-100.62893081761,4,1,0,85,0,0
80557,-101.26582278481,4,1,0,85,0,0
80657,-101.910828025478,4,1,0,85,0,0
80757,-102.564102564103,4,1,0,85,0,0
80857,-103.225806451613,4,1,0,85,0,0
80957,-103.896103896104,4,1,0,85,0,0
81057,-104.575163398693,4,1,0,85,0,0
81157,-105.263157894737,4,1,0,85,0,0
81257,-105.960264900662,4,1,0,85,0,0
81357,-106.666666666667,4,1,0,85,0,0
81407,-107.023411371237,4,1,0,85,0,0
81457,-107.38255033557,4,1,0,85,0,0
81557,-108.108108108108,4,1,0,85,0,0
81657,-108.843537414966,4,1,0,85,0,0
81757,-109.58904109589,4,1,0,85,0,0
81857,-110.344827586207,4,1,0,85,0,0
81957,-111.111111111111,4,1,0,85,0,0
82007,-111.498257839721,4,1,0,85,0,0
82057,-111.888111888112,4,1,0,85,0,0
82157,-112.676056338028,4,1,0,85,0,0
82257,-113.475177304965,4,1,0,85,0,0
82357,-114.285714285714,4,1,0,85,0,0
82457,-115.107913669065,4,1,0,85,0,0
82557,-115.942028985507,4,1,0,85,0,0
82657,-116.788321167883,4,1,0,85,0,0
82757,-117.647058823529,4,1,0,85,0,0
82857,-118.518518518519,4,1,0,85,0,0
82957,-119.402985074627,4,1,0,85,0,0
83007,-119.850187265918,4,1,0,85,0,0
83057,-120.300751879699,4,1,0,85,0,0
83157,-121.212121212121,4,1,0,85,0,0
83257,-122.137404580153,4,1,0,85,0,0
83357,-123.076923076923,4,1,0,85,0,0
83557,-100,4,1,0,85,0,0
83607,-100.313479623824,4,1,0,85,0,0
83657,-100.62893081761,4,1,0,85,0,0
83757,-101.26582278481,4,1,0,85,0,0
83857,-101.910828025478,4,1,0,85,0,0
83957,-102.564102564103,4,1,0,85,0,0
84057,-103.225806451613,4,1,0,85,0,0
84157,-103.896103896104,4,1,0,85,0,0
84257,-104.575163398693,4,1,0,85,0,0
84357,-105.263157894737,4,1,0,85,0,0
84457,-105.960264900662,4,1,0,85,0,0
84557,-106.666666666667,4,1,0,85,0,0
84607,-107.023411371237,4,1,0,85,0,0
84657,-107.38255033557,4,1,0,85,0,0
84757,-108.108108108108,4,1,0,85,0,0
84857,-108.843537414966,4,1,0,85,0,0
84957,-109.58904109589,4,1,0,85,0,0
85057,-110.344827586207,4,1,0,85,0,0
85157,-111.111111111111,4,1,0,85,0,0
85207,-111.498257839721,4,1,0,85,0,0
85257,-111.888111888112,4,1,0,85,0,0
85357,-112.676056338028,4,1,0,85,0,0
85457,-113.475177304965,4,1,0,85,0,0
85557,-114.285714285714,4,1,0,85,0,0
85657,-115.107913669065,4,1,0,85,0,0
85757,-115.942028985507,4,1,0,85,0,0
85857,-116.788321167883,4,1,0,85,0,0
85957,-117.647058823529,4,1,0,85,0,0
86157,-119.402985074627,4,1,0,85,0,0
86207,-119.850187265918,4,1,0,85,0,0
86257,-120.300751879699,4,1,0,85,0,0
86357,-121.212121212121,4,1,0,85,0,0
86557,-123.076923076923,4,1,0,85,0,0
86607,-123.552123552124,4,1,0,85,0,0
86657,-124.031007751938,4,1,0,85,0,0
86757,-100,4,1,0,85,0,0
86807,-100.313479623824,4,1,0,85,0,0
86857,-100.62893081761,4,1,0,85,0,0
86957,-101.26582278481,4,1,0,85,0,0
87057,-101.910828025478,4,1,0,85,0,0
87157,-102.564102564103,4,1,0,85,0,0
87257,-103.225806451613,4,1,0,85,0,0
87357,-103.896103896104,4,1,0,85,0,0
87457,-104.575163398693,4,1,0,85,0,0
87557,-105.263157894737,4,1,0,85,0,0
87657,-105.960264900662,4,1,0,85,0,0
87757,-106.666666666667,4,1,0,85,0,0
87807,-107.023411371237,4,1,0,85,0,0
87857,-107.38255033557,4,1,0,85,0,0
87957,-108.108108108108,4,1,0,85,0,0
88057,-108.843537414966,4,1,0,85,0,0
88157,-109.58904109589,4,1,0,85,0,0
88257,-110.344827586207,4,1,0,85,0,0
88357,-111.111111111111,4,1,0,85,0,0
88407,-111.498257839721,4,1,0,85,0,0
88457,-111.888111888112,4,1,0,85,0,0
88557,-112.676056338028,4,1,0,85,0,0
88657,-113.475177304965,4,1,0,85,0,0
88757,-114.285714285714,4,1,0,85,0,0
88857,-115.107913669065,4,1,0,85,0,0
88957,-115.942028985507,4,1,0,85,0,0
89057,-116.788321167883,4,1,0,85,0,0
89157,-117.647058823529,4,1,0,85,0,0
89257,-118.518518518519,4,1,0,85,0,0
89357,-119.402985074627,4,1,0,85,0,0
89407,-119.850187265918,4,1,0,85,0,0
89457,-120.300751879699,4,1,0,85,0,0
89557,-121.212121212121,4,1,0,85,0,0
89657,-122.137404580153,4,1,0,85,0,0
89757,-123.076923076923,4,1,0,85,0,0
89957,-100,4,1,0,85,0,0
90007,-100.313479623824,4,1,0,85,0,0
90057,-100.62893081761,4,1,0,85,0,0
90157,-101.26582278481,4,1,0,85,0,0
90257,-101.910828025478,4,1,0,85,0,0
90357,-102.564102564103,4,1,0,85,0,0
90457,-103.225806451613,4,1,0,85,0,0
90557,-103.896103896104,4,1,0,85,0,0
90657,-104.575163398693,4,1,0,85,0,0
90757,-105.263157894737,4,1,0,85,0,0
90857,-105.960264900662,4,1,0,85,0,0
90957,-106.666666666667,4,1,0,85,0,0
91007,-107.023411371237,4,1,0,85,0,0
91057,-107.38255033557,4,1,0,85,0,0
91157,-108.108108108108,4,1,0,85,0,0
91257,-108.843537414966,4,1,0,85,0,0
91357,-109.58904109589,4,1,0,85,0,0
91457,-110.344827586207,4,1,0,85,0,0
91557,-111.111111111111,4,1,0,85,0,0
91607,-111.498257839721,4,1,0,85,0,0
91657,-111.888111888112,4,1,0,85,0,0
91757,-112.676056338028,4,1,0,85,0,0
91857,-113.475177304965,4,1,0,85,0,0
91957,-114.285714285714,4,1,0,85,0,0
92057,-115.107913669065,4,1,0,85,0,0
92157,-115.942028985507,4,1,0,85,0,0
92257,-116.788321167883,4,1,0,85,0,0
92357,-117.647058823529,4,1,0,85,0,0
92457,-118.518518518519,4,1,0,85,0,0
92557,-119.402985074627,4,1,0,85,0,0
92607,-119.850187265918,4,1,0,85,0,0
92657,-120.300751879699,4,1,0,85,0,0
92757,-121.212121212121,4,1,0,85,0,0
92857,-122.137404580153,4,1,0,85,0,0
92957,-123.076923076923,4,1,0,85,0,0
93007,-123.552123552124,4,1,0,85,0,0
93057,-124.031007751938,4,1,0,85,0,0
93157,210.526315789474,4,1,0,85,1,0
93157,-117.647058823529,4,1,0,85,0,0
93257,-117.647058823529,4,1,0,70,0,0
93307,-142.857142857143,4,1,0,70,0,0
93357,-142.857142857143,4,1,0,70,0,0
93407,-142.857142857143,4,1,0,69,0,0
93457,-142.857142857143,4,1,0,69,0,0
93507,-142.857142857143,4,1,0,69,0,0
93557,-142.857142857143,4,1,0,69,0,0
93566,214.285714285714,4,1,0,69,1,8
93566,-142.857142857143,4,1,0,68,0,0
93657,-142.857142857143,4,1,0,68,0,0
93707,-142.857142857143,4,1,0,68,0,0
93757,-142.857142857143,4,1,0,68,0,0
93807,-142.857142857143,4,1,0,67,0,0
93857,-142.857142857143,4,1,0,67,0,0
93907,-142.857142857143,4,1,0,67,0,0
93957,-142.857142857143,4,1,0,67,0,0
93994,226.415094339622,4,1,0,67,1,0
93994,-142.857142857143,4,1,0,67,0,0
94057,-142.857142857143,4,1,0,66,0,0
94107,-142.857142857143,4,1,0,66,0,0
94157,-142.857142857143,4,1,0,66,0,0
94207,-142.857142857143,4,1,0,66,0,0
94257,-142.857142857143,4,1,0,65,0,0
94307,-142.857142857143,4,1,0,65,0,0
94357,-142.857142857143,4,1,0,65,0,0
94407,-142.857142857143,4,1,0,65,0,0
94455,230.76923076923,4,1,0,64,1,8
94455,-142.857142857143,4,1,0,64,0,0
94507,-142.857142857143,4,1,0,64,0,0
94557,-142.857142857143,4,1,0,64,0,0
94607,-142.857142857143,4,1,0,64,0,0
94657,-142.857142857143,4,1,0,64,0,0
94707,-142.857142857143,4,1,0,63,0,0
94757,-142.857142857143,4,1,0,63,0,0
94807,-142.857142857143,4,1,0,63,0,0
94857,-142.857142857143,4,1,0,63,0,0
94907,-142.857142857143,4,1,0,62,0,0
94925,255.319148936169,4,1,0,62,1,0
94925,-142.857142857143,4,1,0,62,0,0
95007,-142.857142857143,4,1,0,62,0,0
95057,-142.857142857143,4,1,0,62,0,0
95107,-142.857142857143,4,1,0,61,0,0
95157,-142.857142857143,4,1,0,61,0,0
95207,-142.857142857143,4,1,0,61,0,0
95257,-142.857142857143,4,1,0,61,0,0
95307,-142.857142857143,4,1,0,61,0,0
95357,-142.857142857143,4,1,0,60,0,0
95407,-142.857142857143,4,1,0,60,0,0
95435,285.714285714284,4,1,0,60,1,8
95435,-142.857142857143,4,1,0,60,0,0
95507,-142.857142857143,4,1,0,60,0,0
95557,-142.857142857143,4,1,0,59,0,0
95607,-142.857142857143,4,1,0,59,0,0
95657,-142.857142857143,4,1,0,59,0,0
95707,-142.857142857143,4,1,0,59,0,0
95757,-142.857142857143,4,1,0,59,0,0
95807,-142.857142857143,4,1,0,58,0,0
95857,-142.857142857143,4,1,0,58,0,0
95907,-142.857142857143,4,1,0,58,0,0
95957,-142.857142857143,4,1,0,58,0,0
96006,299.999999999998,4,1,0,57,1,0
96006,-142.857142857143,4,1,0,57,0,0
96057,-142.857142857143,4,1,0,57,0,0
96107,-142.857142857143,4,1,0,57,0,0
96157,-142.857142857143,4,1,0,57,0,0
96207,-142.857142857143,4,1,0,56,0,0
96257,-142.857142857143,4,1,0,56,0,0
96307,-142.857142857143,4,1,0,56,0,0
96357,-142.857142857143,4,1,0,56,0,0
96407,-142.857142857143,4,1,0,56,0,0
96457,-142.857142857143,4,1,0,55,0,0
96507,-142.857142857143,4,1,0,55,0,0
96557,-142.857142857143,4,1,0,55,0,0
96607,-142.857142857143,4,1,0,55,0,0
96615,333.333333333332,4,1,0,55,1,8
96615,-142.857142857143,4,1,0,54,0,0
96707,-142.857142857143,4,1,0,54,0,0
96757,-142.857142857143,4,1,0,54,0,0
96807,-142.857142857143,4,1,0,54,0,0
96857,-142.857142857143,4,1,0,53,0,0
96907,-142.857142857143,4,1,0,53,0,0
96957,-142.857142857143,4,1,0,53,0,0
97007,-142.857142857143,4,1,0,53,0,0
97057,-142.857142857143,4,1,0,53,0,0
97107,-142.857142857143,4,1,0,52,0,0
97157,-142.857142857143,4,1,0,52,0,0
97207,-142.857142857143,4,1,0,52,0,0
97257,-142.857142857143,4,1,0,52,0,0
97300,387.096774193546,4,1,0,51,1,0
97300,-111.111111111111,4,1,0,51,0,0
97357,-142.857142857143,4,1,0,51,0,0
97407,-142.857142857143,4,1,0,51,0,0
97457,-142.857142857143,4,1,0,51,0,0
97507,-142.857142857143,4,1,0,50,0,0
97557,-142.857142857143,4,1,0,50,0,0
97607,-142.857142857143,4,1,0,50,0,0
97657,-142.857142857143,4,1,0,50,0,0
97707,-142.857142857143,4,1,0,50,0,0
97757,-142.857142857143,4,1,0,49,0,0
97807,-142.857142857143,4,1,0,49,0,0
97857,-142.857142857143,4,1,0,49,0,0
97907,-142.857142857143,4,1,0,49,0,0
97957,-142.857142857143,4,1,0,48,0,0
98007,-142.857142857143,4,1,0,48,0,0
98057,-142.857142857143,4,1,0,48,0,0
98105,465.116279069765,4,1,0,48,1,8
98107,-142.857142857143,4,1,0,48,0,0
98157,-142.857142857143,4,1,0,47,0,0
98207,-142.857142857143,4,1,0,47,0,0
98257,-142.857142857143,4,1,0,47,0,0
98307,-142.857142857143,4,1,0,47,0,0
98357,-142.857142857143,4,1,0,47,0,0
98407,-142.857142857143,4,1,0,46,0,0
98457,-142.857142857143,4,1,0,46,0,0
98507,-142.857142857143,4,1,0,46,0,0
98557,-142.857142857143,4,1,0,46,0,0
98607,-142.857142857143,4,1,0,45,0,0
98657,-142.857142857143,4,1,0,45,0,0
98707,-142.857142857143,4,1,0,45,0,0
98757,-142.857142857143,4,1,0,45,0,0
98807,-142.857142857143,4,1,0,44,0,0
98857,-142.857142857143,4,1,0,44,0,0
98907,-142.857142857143,4,1,0,44,0,0
98957,-142.857142857143,4,1,0,44,0,0
99007,-142.857142857143,4,1,0,44,0,0
99057,-142.857142857143,4,1,0,43,0,0
99105,645.161290322575,4,1,0,43,1,0
99105,-83.3333333333333,4,1,0,43,0,0
99157,-142.857142857143,4,1,0,43,0,0
99207,-142.857142857143,4,1,0,43,0,0
99257,-142.857142857143,4,1,0,42,0,0
99307,-142.857142857143,4,1,0,42,0,0
99357,-142.857142857143,4,1,0,42,0,0
99407,-142.857142857143,4,1,0,42,0,0
99457,-142.857142857143,4,1,0,41,0,0
99507,-142.857142857143,4,1,0,41,0,0
99557,-142.857142857143,4,1,0,41,0,0
99607,-142.857142857143,4,1,0,41,0,0
99657,-142.857142857143,4,1,0,41,0,0
99707,-142.857142857143,4,1,0,40,0,0
99750,810.810810810811,4,1,0,40,1,8
99757,-142.857142857143,4,1,0,40,0,0
99807,-142.857142857143,4,1,0,40,0,0
99857,-142.857142857143,4,1,0,40,0,0
99907,-142.857142857143,4,1,0,39,0,0
99957,-142.857142857143,4,1,0,39,0,0
100007,-142.857142857143,4,1,0,39,0,0
100057,-142.857142857143,4,1,0,39,0,0
100107,-142.857142857143,4,1,0,39,0,0
100157,-142.857142857143,4,1,0,38,0,0
100207,-142.857142857143,4,1,0,38,0,0
100257,-142.857142857143,4,1,0,38,0,0
100307,-142.857142857143,4,1,0,38,0,0
100357,-142.857142857143,4,1,0,37,0,0
100407,-142.857142857143,4,1,0,37,0,0
100457,-142.857142857143,4,1,0,37,0,0
100507,-142.857142857143,4,1,0,37,0,0
100557,-142.857142857143,4,1,0,36,0,0
100607,-142.857142857143,4,1,0,36,0,0
100657,-142.857142857143,4,1,0,36,0,0
100663,1282.05128205128,4,1,0,36,1,8
100707,-142.857142857143,4,1,0,36,0,0
100757,-142.857142857143,4,1,0,36,0,0
100807,-142.857142857143,4,1,0,35,0,0
100857,-142.857142857143,4,1,0,35,0,0
100907,-142.857142857143,4,1,0,35,0,0
100957,-142.857142857143,4,1,0,35,0,0
101007,-142.857142857143,4,1,0,34,0,0
101057,-142.857142857143,4,1,0,34,0,0
101107,-142.857142857143,4,1,0,34,0,0
101157,-142.857142857143,4,1,0,34,0,0
101207,-142.857142857143,4,1,0,33,0,0
101257,-142.857142857143,4,1,0,33,0,0
101307,-142.857142857143,4,1,0,33,0,0
101357,-142.857142857143,4,1,0,33,0,0
101407,-142.857142857143,4,1,0,33,0,0
101457,-142.857142857143,4,1,0,32,0,0
101507,-142.857142857143,4,1,0,32,0,0
101557,-142.857142857143,4,1,0,32,0,0
101607,-142.857142857143,4,1,0,32,0,0
101657,-142.857142857143,4,1,0,31,0,0
101707,-142.857142857143,4,1,0,31,0,0
101757,-142.857142857143,4,1,0,31,0,0
101807,-142.857142857143,4,1,0,31,0,0
101857,-142.857142857143,4,1,0,30,0,0
101907,-142.857142857143,4,1,0,30,0,0
101957,-142.857142857143,4,1,0,30,0,0

[HitObjects]
256,192,347,5,0,0:0:0:0:
256,192,547,1,8,0:0:0:0:
256,192,747,1,0,0:0:0:0:
256,192,847,1,0,0:0:0:0:
256,192,947,1,8,0:0:0:0:
256,192,1047,1,0,0:0:0:0:
256,192,1147,1,0,0:0:0:0:
256,192,1247,1,0,0:0:0:0:
256,192,1347,1,8,0:0:0:0:
256,192,1547,1,0,0:0:0:0:
256,192,1647,1,8,0:0:0:0:
256,192,1747,1,8,0:0:0:0:
256,192,1947,1,0,0:0:0:0:
256,192,2147,1,8,0:0:0:0:
256,192,2347,1,0,0:0:0:0:
256,192,2447,1,0,0:0:0:0:
256,192,2547,1,8,0:0:0:0:
256,192,2647,1,8,0:0:0:0:
256,192,2747,1,0,0:0:0:0:
256,192,2847,1,0,0:0:0:0:
256,192,2947,1,8,0:0:0:0:
256,192,3147,1,0,0:0:0:0:
256,192,3247,1,8,0:0:0:0:
256,192,3347,1,8,0:0:0:0:
256,192,3447,1,8,0:0:0:0:
256,192,3497,1,8,0:0:0:0:
256,192,3547,1,0,0:0:0:0:
256,192,3747,1,8,0:0:0:0:
256,192,3947,1,0,0:0:0:0:
256,192,4047,1,0,0:0:0:0:
256,192,4147,1,8,0:0:0:0:
256,192,4247,1,0,0:0:0:0:
256,192,4347,1,0,0:0:0:0:
256,192,4447,1,0,0:0:0:0:
256,192,4547,1,8,0:0:0:0:
256,192,4747,1,0,0:0:0:0:
256,192,4847,1,8,0:0:0:0:
256,192,4947,1,8,0:0:0:0:
256,192,5147,1,0,0:0:0:0:
256,192,5347,1,8,0:0:0:0:
256,192,5547,1,0,0:0:0:0:
256,192,5647,1,0,0:0:0:0:
256,192,5747,1,8,0:0:0:0:
256,192,5847,1,8,0:0:0:0:
256,192,5947,1,0,0:0:0:0:
256,192,6147,1,0,0:0:0:0:
256,192,6247,1,8,0:0:0:0:
256,192,6347,1,0,0:0:0:0:
256,192,6447,1,0,0:0:0:0:
256,192,6547,1,8,0:0:0:0:
256,192,6647,1,8,0:0:0:0:
256,192,6697,1,8,0:0:0:0:
256,192,6747,1,0,0:0:0:0:
256,192,6947,1,8,0:0:0:0:
256,192,7147,1,0,0:0:0:0:
256,192,7247,1,0,0:0:0:0:
256,192,7347,1,8,0:0:0:0:
256,192,7397,1,0,0:0:0:0:
256,192,7447,1,8,0:0:0:0:
256,192,7547,1,0,0:0:0:0:
256,192,7747,1,8,0:0:0:0:
256,192,7947,1,0,0:0:0:0:
256,192,8047,1,8,0:0:0:0:
256,192,8147,1,8,0:0:0:0:
256,192,8247,1,8,0:0:0:0:
256,192,8297,1,8,0:0:0:0:
256,192,8347,1,0,0:0:0:0:
256,192,8547,1,8,0:0:0:0:
256,192,8747,1,0,0:0:0:0:
256,192,8847,1,8,0:0:0:0:
256,192,8897,1,0,0:0:0:0:
256,192,8947,1,8,0:0:0:0:
256,192,9047,1,0,0:0:0:0:
256,192,9147,1,0,0:0:0:0:
256,192,9247,1,0,0:0:0:0:
256,192,9347,1,8,0:0:0:0:
256,192,9547,1,0,0:0:0:0:
256,192,9597,1,0,0:0:0:0:
256,192,9647,1,0,0:0:0:0:
256,192,9747,1,8,0:0:0:0:
256,192,9847,1,8,0:0:0:0:
256,192,9897,1,8,0:0:0:0:
256,192,9947,1,0,0:0:0:0:
256,192,10047,1,0,0:0:0:0:
256,192,10147,1,8,0:0:0:0:
256,192,10347,1,0,0:0:0:0:
256,192,10447,1,0,0:0:0:0:
256,192,10547,1,8,0:0:0:0:
256,192,10647,1,0,0:0:0:0:
256,192,10747,1,0,0:0:0:0:
256,192,10847,1,0,0:0:0:0:
256,192,10897,1,0,0:0:0:0:
256,192,10947,1,8,0:0:0:0:
256,192,11047,1,8,0:0:0:0:
256,192,11147,1,0,0:0:0:0:
256,192,11247,1,8,0:0:0:0:
256,192,11347,1,8,0:0:0:0:
256,192,11547,1,0,0:0:0:0:
256,192,11747,1,8,0:0:0:0:
256,192,11847,1,8,0:0:0:0:
256,192,11947,1,0,0:0:0:0:
256,192,12047,1,0,0:0:0:0:
256,192,12147,1,8,0:0:0:0:
256,192,12247,1,8,0:0:0:0:
256,192,12347,1,0,0:0:0:0:
256,192,12757,1,8,0:0:0:0:
256,192,12857,1,8,0:0:0:0:
256,192,12957,1,8,0:0:0:0:
256,192,13057,1,8,0:0:0:0:
256,192,13157,1,4,0:0:0:0:
256,192,19557,5,8,0:0:0:0:
256,192,19657,1,0,0:0:0:0:
256,192,19707,1,0,0:0:0:0:
256,192,19757,1,8,0:0:0:0:
256,192,19857,1,0,0:0:0:0:
256,192,19957,1,8,0:0:0:0:
256,192,20057,1,8,0:0:0:0:
256,192,20157,1,0,0:0:0:0:
256,192,20257,1,0,0:0:0:0:
256,192,20357,1,8,0:0:0:0:
256,192,20457,1,0,0:0:0:0:
256,192,20507,1,8,0:0:0:0:
256,192,20557,1,8,0:0:0:0:
256,192,20657,1,0,0:0:0:0:
256,192,20757,1,8,0:0:0:0:
256,192,20857,1,8,0:0:0:0:
256,192,20957,1,0,0:0:0:0:
256,192,21057,1,0,0:0:0:0:
256,192,21157,1,8,0:0:0:0:
256,192,21257,1,0,0:0:0:0:
256,192,21307,1,0,0:0:0:0:
256,192,21357,1,8,0:0:0:0:
256,192,21457,1,8,0:0:0:0:
256,192,21557,1,0,0:0:0:0:
256,192,21657,1,0,0:0:0:0:
256,192,21757,1,8,0:0:0:0:
256,192,21957,1,0,0:0:0:0:
256,192,22157,1,0,0:0:0:0:
256,192,22257,1,8,0:0:0:0:
256,192,22457,1,0,0:0:0:0:
256,192,22557,1,8,0:0:0:0:
256,192,22657,1,8,0:0:0:0:
256,192,22757,1,0,0:0:0:0:
256,192,22857,1,0,0:0:0:0:
256,192,22907,1,0,0:0:0:0:
256,192,22957,1,8,0:0:0:0:
256,192,23057,1,0,0:0:0:0:
256,192,23157,1,8,0:0:0:0:
256,192,23207,1,8,0:0:0:0:
256,192,23257,1,8,0:0:0:0:
256,192,23357,1,0,0:0:0:0:
256,192,23457,1,8,0:0:0:0:
256,192,23557,1,0,0:0:0:0:
256,192,23657,1,0,0:0:0:0:
256,192,23707,1,0,0:0:0:0:
256,192,23757,1,8,0:0:0:0:
256,192,23857,1,8,0:0:0:0:
256,192,23957,1,0,0:0:0:0:
256,192,24057,1,0,0:0:0:0:
256,192,24157,1,8,0:0:0:0:
256,192,24357,1,0,0:0:0:0:
256,192,24457,1,0,0:0:0:0:
256,192,24507,1,0,0:0:0:0:
256,192,24557,1,8,0:0:0:0:
256,192,24657,1,0,0:0:0:0:
256,192,24757,1,8,0:0:0:0:
256,192,24857,1,8,0:0:0:0:
256,192,24957,1,0,0:0:0:0:
256,192,25057,1,0,0:0:0:0:
256,192,25157,1,8,0:0:0:0:
256,192,25257,1,0,0:0:0:0:
256,192,25307,1,0,0:0:0:0:
256,192,25357,1,8,0:0:0:0:
256,192,25457,1,8,0:0:0:0:
256,192,25557,1,0,0:0:0:0:
256,192,25657,1,0,0:0:0:0:
256,192,25757,1,8,0:0:0:0:
256,192,25807,1,8,0:0:0:0:
256,192,25857,1,8,0:0:0:0:
256,192,25907,1,8,0:0:0:0:
256,192,25957,1,0,0:0:0:0:
256,192,26057,1,0,0:0:0:0:
256,192,26157,1,8,0:0:0:0:
256,192,26257,1,0,0:0:0:0:
256,192,26357,1,8,0:0:0:0:
256,192,26407,1,8,0:0:0:0:
256,192,26457,1,8,0:0:0:0:
256,192,26557,1,0,0:0:0:0:
256,192,26657,1,0,0:0:0:0:
256,192,26757,1,8,0:0:0:0:
256,192,26807,1,8,0:0:0:0:
256,192,26857,1,0,0:0:0:0:
256,192,26957,1,0,0:0:0:0:
256,192,27057,1,8,0:0:0:0:
256,192,27107,1,8,0:0:0:0:
256,192,27157,1,0,0:0:0:0:
256,192,27257,1,0,0:0:0:0:
256,192,27357,1,8,0:0:0:0:
256,192,27407,1,8,0:0:0:0:
256,192,27457,1,0,0:0:0:0:
256,192,27557,1,8,0:0:0:0:
256,192,27607,1,8,0:0:0:0:
256,192,27657,1,8,0:0:0:0:
256,192,27707,1,8,0:0:0:0:
256,192,27757,1,0,0:0:0:0:
256,192,27857,1,0,0:0:0:0:
256,192,27907,1,0,0:0:0:0:
256,192,27957,1,8,0:0:0:0:
256,192,28057,1,0,0:0:0:0:
256,192,28157,1,8,0:0:0:0:
256,192,28207,1,8,0:0:0:0:
256,192,28257,1,8,0:0:0:0:
256,192,28357,1,0,0:0:0:0:
256,192,28407,1,8,0:0:0:0:
256,192,28457,1,0,0:0:0:0:
256,192,28557,1,8,0:0:0:0:
256,192,28657,1,0,0:0:0:0:
256,192,28707,1,8,0:0:0:0:
256,192,28757,1,0,0:0:0:0:
256,192,28857,1,8,0:0:0:0:
256,192,28957,1,0,0:0:0:0:
256,192,29007,1,8,0:0:0:0:
256,192,29057,1,0,0:0:0:0:
256,192,29157,1,8,0:0:0:0:
256,192,29257,1,8,0:0:0:0:
256,192,29357,1,0,0:0:0:0:
256,192,29457,1,0,0:0:0:0:
256,192,29557,1,8,0:0:0:0:
256,192,29607,1,8,0:0:0:0:
256,192,29657,1,0,0:0:0:0:
256,192,29707,1,0,0:0:0:0:
256,192,29757,1,0,0:0:0:0:
256,192,29857,1,8,0:0:0:0:
256,192,29957,1,8,0:0:0:0:
256,192,30057,1,0,0:0:0:0:
256,192,30157,1,8,0:0:0:0:
256,192,30207,1,8,0:0:0:0:
256,192,30257,1,8,0:0:0:0:
256,192,30357,1,0,0:0:0:0:
256,192,30457,1,0,0:0:0:0:
256,192,30507,1,0,0:0:0:0:
256,192,30557,1,8,0:0:0:0:
256,192,30657,1,0,0:0:0:0:
256,192,30757,1,8,0:0:0:0:
256,192,30807,1,8,0:0:0:0:
256,192,30857,1,0,0:0:0:0:
256,192,30957,1,8,0:0:0:0:
256,192,31057,1,0,0:0:0:0:
256,192,31107,1,0,0:0:0:0:
256,192,31157,1,8,0:0:0:0:
256,192,31257,1,0,0:0:0:0:
256,192,31357,1,8,0:0:0:0:
256,192,31457,1,0,0:0:0:0:
256,192,31507,1,0,0:0:0:0:
256,192,31557,1,8,0:0:0:0:
256,192,31757,1,0,0:0:0:0:
256,192,31857,1,8,0:0:0:0:
256,192,31957,1,0,0:0:0:0:
256,192,32157,1,8,0:0:0:0:
256,192,32357,1,0,0:0:0:0:
256,192,32457,1,0,0:0:0:0:
256,192,32557,1,8,0:0:0:0:
256,192,32657,1,0,0:0:0:0:
256,192,32757,1,8,0:0:0:0:
256,192,32807,1,8,0:0:0:0:
256,192,32857,1,8,0:0:0:0:
256,192,32957,1,0,0:0:0:0:
256,192,33057,1,0,0:0:0:0:
256,192,33157,1,8,0:0:0:0:
256,192,33207,1,8,0:0:0:0:
256,192,33257,1,0,0:0:0:0:
256,192,33357,1,0,0:0:0:0:
256,192,33457,1,8,0:0:0:0:
256,192,33507,1,8,0:0:0:0:
256,192,33557,1,0,0:0:0:0:
256,192,33657,1,0,0:0:0:0:
256,192,33757,1,8,0:0:0:0:
256,192,33807,1,8,0:0:0:0:
256,192,33857,1,0,0:0:0:0:
256,192,33957,1,8,0:0:0:0:
256,192,34007,1,8,0:0:0:0:
256,192,34057,1,8,0:0:0:0:
256,192,34107,1,8,0:0:0:0:
256,192,34157,1,0,0:0:0:0:
256,192,34257,1,0,0:0:0:0:
256,192,34307,1,0,0:0:0:0:
256,192,34357,1,8,0:0:0:0:
256,192,34457,1,0,0:0:0:0:
256,192,34557,1,8,0:0:0:0:
256,192,34607,1,8,0:0:0:0:
256,192,34657,1,8,0:0:0:0:
256,192,34757,1,0,0:0:0:0:
256,192,34807,1,8,0:0:0:0:
256,192,34857,1,0,0:0:0:0:
256,192,34957,1,8,0:0:0:0:
256,192,35057,1,8,0:0:0:0:
256,192,35157,1,0,0:0:0:0:
256,192,35557,1,8,0:0:0:0:
256,192,35657,1,8,0:0:0:0:
256,192,35757,1,0,0:0:0:0:
256,192,35857,1,0,0:0:0:0:
256,192,35957,1,8,0:0:0:0:
256,192,36007,1,8,0:0:0:0:
256,192,36057,1,0,0:0:0:0:
256,192,36107,1,0,0:0:0:0:
256,192,36157,1,0,0:0:0:0:
256,192,36257,1,8,0:0:0:0:
256,192,36357,1,8,0:0:0:0:
256,192,36457,1,0,0:0:0:0:
256,192,36557,1,8,0:0:0:0:
256,192,36607,1,8,0:0:0:0:
256,192,36657,1,0,0:0:0:0:
256,192,36757,1,8,0:0:0:0:
256,192,36807,1,8,0:0:0:0:
256,192,36857,1,0,0:0:0:0:
256,192,36907,1,0,0:0:0:0:
256,192,36957,1,8,0:0:0:0:
256,192,37057,1,0,0:0:0:0:
256,192,37157,1,8,0:0:0:0:
256,192,37207,1,8,0:0:0:0:
256,192,37257,1,0,0:0:0:0:
256,192,37357,1,8,0:0:0:0:
256,192,37457,1,0,0:0:0:0:
256,192,37507,1,0,0:0:0:0:
256,192,37557,1,8,0:0:0:0:
256,192,37757,1,0,0:0:0:0:
256,192,37957,1,8,0:0:0:0:
256,192,38057,1,8,0:0:0:0:
256,192,38157,1,8,0:0:0:0:
256,192,38257,1,8,0:0:0:0:
256,192,38357,1,8,0:0:0:0:
256,192,38457,1,8,0:0:0:0:
256,192,38557,1,8,0:0:0:0:
256,192,38607,1,8,0:0:0:0:
256,192,38657,1,8,0:0:0:0:
256,192,38707,1,8,0:0:0:0:
256,192,38757,1,0,0:0:0:0:
256,192,39157,1,8,0:0:0:0:
256,192,39457,1,0,0:0:0:0:
256,192,39757,1,0,0:0:0:0:
256,192,39957,1,8,0:0:0:0:
256,192,40357,1,0,0:0:0:0:
256,192,40757,1,8,0:0:0:0:
256,192,41057,1,0,0:0:0:0:
256,192,41257,1,8,0:0:0:0:
256,192,41357,1,0,0:0:0:0:
256,192,41557,1,8,0:0:0:0:
256,192,41957,1,12,0:0:0:0:
256,192,42057,1,0,0:0:0:0:
256,192,42157,1,8,0:0:0:0:
256,192,42257,1,0,0:0:0:0:
256,192,42357,1,8,0:0:0:0:
256,192,42407,1,8,0:0:0:0:
256,192,42457,1,8,0:0:0:0:
256,192,42557,1,0,0:0:0:0:
256,192,42657,1,0,0:0:0:0:
256,192,42757,1,8,0:0:0:0:
256,192,42807,1,8,0:0:0:0:
256,192,42857,1,0,0:0:0:0:
256,192,42957,1,8,0:0:0:0:
256,192,43007,1,0,0:0:0:0:
256,192,43057,1,8,0:0:0:0:
256,192,43107,1,0,0:0:0:0:
256,192,43157,1,8,0:0:0:0:
256,192,43257,1,0,0:0:0:0:
256,192,43357,1,0,0:0:0:0:
256,192,43407,1,0,0:0:0:0:
256,192,43457,1,8,0:0:0:0:
256,192,43557,1,8,0:0:0:0:
256,192,43607,1,8,0:0:0:0:
256,192,43657,1,0,0:0:0:0:
256,192,43757,1,8,0:0:0:0:
256,192,43857,1,8,0:0:0:0:
256,192,43957,1,0,0:0:0:0:
256,192,44007,1,0,0:0:0:0:
256,192,44057,1,0,0:0:0:0:
256,192,44157,1,8,0:0:0:0:
256,192,44207,1,8,0:0:0:0:
256,192,44257,1,8,0:0:0:0:
256,192,44357,1,0,0:0:0:0:
256,192,44457,1,0,0:0:0:0:
256,192,44557,1,8,0:0:0:0:
256,192,44607,1,0,0:0:0:0:
256,192,44657,1,8,0:0:0:0:
256,192,44707,1,0,0:0:0:0:
256,192,44757,1,8,0:0:0:0:
256,192,44857,1,0,0:0:0:0:
256,192,44957,1,8,0:0:0:0:
256,192,45007,1,8,0:0:0:0:
256,192,45057,1,0,0:0:0:0:
256,192,45157,1,8,0:0:0:0:
256,192,45257,1,0,0:0:0:0:
256,192,45357,1,8,0:0:0:0:
256,192,45407,1,8,0:0:0:0:
256,192,45457,1,8,0:0:0:0:
256,192,45557,1,0,0:0:0:0:
256,192,45657,1,0,0:0:0:0:
256,192,45757,1,8,0:0:0:0:
256,192,45857,1,0,0:0:0:0:
256,192,45907,1,0,0:0:0:0:
256,192,45957,1,8,0:0:0:0:
256,192,46057,1,0,0:0:0:0:
256,192,46157,1,8,0:0:0:0:
256,192,46207,1,0,0:0:0:0:
256,192,46257,1,8,0:0:0:0:
256,192,46307,1,0,0:0:0:0:
256,192,46357,1,8,0:0:0:0:
256,192,46457,1,0,0:0:0:0:
256,192,46557,1,8,0:0:0:0:
256,192,46607,1,8,0:0:0:0:
256,192,46657,1,0,0:0:0:0:
256,192,46757,1,8,0:0:0:0:
256,192,46857,1,0,0:0:0:0:
256,192,46957,1,8,0:0:0:0:
256,192,47007,1,8,0:0:0:0:
256,192,47057,1,8,0:0:0:0:
256,192,47157,1,0,0:0:0:0:
256,192,47257,1,0,0:0:0:0:
256,192,47357,1,8,0:0:0:0:
256,192,47457,1,0,0:0:0:0:
256,192,47507,1,0,0:0:0:0:
256,192,47557,1,8,0:0:0:0:
256,192,47657,1,0,0:0:0:0:
256,192,47757,1,8,0:0:0:0:
256,192,47807,1,0,0:0:0:0:
256,192,47857,1,8,0:0:0:0:
256,192,47907,1,0,0:0:0:0:
256,192,47957,1,8,0:0:0:0:
256,192,48057,1,0,0:0:0:0:
256,192,48157,1,8,0:0:0:0:
256,192,48357,1,8,0:0:0:0:
256,192,48457,1,0,0:0:0:0:
256,192,48507,1,0,0:0:0:0:
256,192,48557,1,8,0:0:0:0:
256,192,48657,1,0,0:0:0:0:
256,192,48757,1,8,0:0:0:0:
256,192,48807,1,8,0:0:0:0:
256,192,48857,1,8,0:0:0:0:
256,192,48957,1,0,0:0:0:0:
256,192,49057,1,0,0:0:0:0:
256,192,49157,1,8,0:0:0:0:
256,192,49207,1,8,0:0:0:0:
256,192,49257,1,0,0:0:0:0:
256,192,49357,1,0,0:0:0:0:
256,192,49457,1,8,0:0:0:0:
256,192,49507,1,8,0:0:0:0:
256,192,49557,1,0,0:0:0:0:
256,192,49657,1,0,0:0:0:0:
256,192,49757,1,8,0:0:0:0:
256,192,49807,1,8,0:0:0:0:
256,192,49857,1,0,0:0:0:0:
256,192,49957,1,8,0:0:0:0:
256,192,50007,1,8,0:0:0:0:
256,192,50057,1,8,0:0:0:0:
256,192,50107,1,8,0:0:0:0:
256,192,50157,1,0,0:0:0:0:
256,192,50257,1,0,0:0:0:0:
256,192,50307,1,0,0:0:0:0:
256,192,50357,1,8,0:0:0:0:
256,192,50457,1,0,0:0:0:0:
256,192,50557,1,8,0:0:0:0:
256,192,50607,1,8,0:0:0:0:
256,192,50657,1,8,0:0:0:0:
256,192,50757,1,0,0:0:0:0:
256,192,50807,1,8,0:0:0:0:
256,192,50857,1,0,0:0:0:0:
256,192,50957,1,8,0:0:0:0:
256,192,51057,1,0,0:0:0:0:
256,192,51107,1,8,0:0:0:0:
256,192,51157,1,0,0:0:0:0:
256,192,51257,1,8,0:0:0:0:
256,192,51357,1,0,0:0:0:0:
256,192,51457,1,0,0:0:0:0:
256,192,51507,1,0,0:0:0:0:
256,192,51557,1,8,0:0:0:0:
256,192,51657,1,8,0:0:0:0:
256,192,51757,1,0,0:0:0:0:
256,192,51857,1,0,0:0:0:0:
256,192,51957,1,8,0:0:0:0:
256,192,52007,1,8,0:0:0:0:
256,192,52057,1,0,0:0:0:0:
256,192,52107,1,0,0:0:0:0:
256,192,52157,1,0,0:0:0:0:
256,192,52257,1,8,0:0:0:0:
256,192,52357,1,8,0:0:0:0:
256,192,52457,1,0,0:0:0:0:
256,192,52557,1,8,0:0:0:0:
256,192,52607,1,8,0:0:0:0:
256,192,52657,1,0,0:0:0:0:
256,192,52707,1,0,0:0:0:0:
256,192,52757,1,8,0:0:0:0:
256,192,52857,1,0,0:0:0:0:
256,192,52957,1,8,0:0:0:0:
256,192,53007,1,8,0:0:0:0:
256,192,53057,1,0,0:0:0:0:
256,192,53107,1,0,0:0:0:0:
256,192,53157,1,8,0:0:0:0:
256,192,53257,1,0,0:0:0:0:
256,192,53357,1,8,0:0:0:0:
256,192,53407,1,8,0:0:0:0:
256,192,53457,1,0,0:0:0:0:
256,192,53557,1,8,0:0:0:0:
256,192,53657,1,0,0:0:0:0:
256,192,53757,1,8,0:0:0:0:
256,192,53857,1,0,0:0:0:0:
256,192,53907,1,0,0:0:0:0:
256,192,53957,1,8,0:0:0:0:
256,192,54157,1,0,0:0:0:0:
256,192,54257,1,8,0:0:0:0:
256,192,54357,1,0,0:0:0:0:
256,192,54557,1,8,0:0:0:0:
256,192,54757,1,0,0:0:0:0:
256,192,54957,1,8,0:0:0:0:
256,192,55057,1,8,0:0:0:0:
256,192,55157,1,0,0:0:0:0:
256,192,55357,1,8,0:0:0:0:
256,192,55557,1,0,0:0:0:0:
256,192,55657,1,0,0:0:0:0:
256,192,55757,1,8,0:0:0:0:
256,192,55857,1,0,0:0:0:0:
256,192,55957,1,0,0:0:0:0:
256,192,56057,1,0,0:0:0:0:
256,192,56157,1,8,0:0:0:0:
256,192,56357,1,8,0:0:0:0:
256,192,56457,1,0,0:0:0:0:
256,192,56557,1,8,0:0:0:0:
256,192,56757,1,0,0:0:0:0:
256,192,56857,1,0,0:0:0:0:
256,192,56957,1,8,0:0:0:0:
256,192,57057,1,0,0:0:0:0:
256,192,57157,1,8,0:0:0:0:
256,192,57357,1,8,0:0:0:0:
256,192,57457,1,0,0:0:0:0:
256,192,57657,1,0,0:0:0:0:
256,192,57757,1,8,0:0:0:0:
256,192,57957,1,0,0:0:0:0:
256,192,58157,1,0,0:0:0:0:
256,192,58357,1,8,0:0:0:0:
256,192,58557,1,8,0:0:0:0:
256,192,58657,1,8,0:0:0:0:
256,192,58757,1,0,0:0:0:0:
256,192,58957,1,8,0:0:0:0:
256,192,59057,1,8,0:0:0:0:
256,192,59157,1,0,0:0:0:0:
256,192,59257,1,0,0:0:0:0:
256,192,59357,1,8,0:0:0:0:
256,192,59557,1,0,0:0:0:0:
256,192,59757,1,8,0:0:0:0:
256,192,59957,1,0,0:0:0:0:
256,192,60057,1,0,0:0:0:0:
256,192,60157,1,8,0:0:0:0:
256,192,60257,1,0,0:0:0:0:
256,192,60357,1,0,0:0:0:0:
256,192,60457,1,0,0:0:0:0:
256,192,60557,1,8,0:0:0:0:
256,192,60757,1,0,0:0:0:0:
256,192,60857,1,0,0:0:0:0:
256,192,60957,1,8,0:0:0:0:
256,192,61157,1,8,0:0:0:0:
256,192,61357,1,8,0:0:0:0:
256,192,61457,1,8,0:0:0:0:
256,192,61557,1,0,0:0:0:0:
256,192,61757,1,8,0:0:0:0:
256,192,61957,1,0,0:0:0:0:
256,192,62057,1,0,0:0:0:0:
256,192,62157,1,8,0:0:0:0:
256,192,62257,1,0,0:0:0:0:
256,192,62357,1,0,0:0:0:0:
256,192,62457,1,0,0:0:0:0:
256,192,62557,1,8,0:0:0:0:
256,192,62757,1,8,0:0:0:0:
256,192,62857,1,0,0:0:0:0:
256,192,62957,1,8,0:0:0:0:
256,192,63157,1,0,0:0:0:0:
256,192,63257,1,0,0:0:0:0:
256,192,63357,1,8,0:0:0:0:
256,192,63457,1,0,0:0:0:0:
256,192,63557,1,8,0:0:0:0:
256,192,63757,1,8,0:0:0:0:
256,192,63857,1,0,0:0:0:0:
256,192,64057,1,0,0:0:0:0:
256,192,64157,1,8,0:0:0:0:
256,192,64357,1,0,0:0:0:0:
256,192,64557,1,0,0:0:0:0:
256,192,64757,1,8,0:0:0:0:
256,192,64957,1,8,0:0:0:0:
256,192,65057,1,8,0:0:0:0:
256,192,65157,1,0,0:0:0:0:
256,192,65357,1,8,0:0:0:0:
256,192,65457,1,8,0:0:0:0:
256,192,65557,1,0,0:0:0:0:
256,192,65657,1,0,0:0:0:0:
256,192,65757,1,8,0:0:0:0:
256,192,65957,1,0,0:0:0:0:
256,192,66157,1,8,0:0:0:0:
256,192,66357,1,0,0:0:0:0:
256,192,66457,1,0,0:0:0:0:
256,192,66557,1,8,0:0:0:0:
256,192,66657,1,0,0:0:0:0:
256,192,66757,1,8,0:0:0:0:
256,192,67157,1,8,0:0:0:0:
256,192,67557,1,12,0:0:0:0:
256,192,67657,1,0,0:0:0:0:
256,192,67757,1,8,0:0:0:0:
256,192,67857,1,0,0:0:0:0:
256,192,67957,1,8,0:0:0:0:
256,192,68007,1,8,0:0:0:0:
256,192,68057,1,8,0:0:0:0:
256,192,68157,1,0,0:0:0:0:
256,192,68257,1,0,0:0:0:0:
256,192,68357,1,8,0:0:0:0:
256,192,68407,1,8,0:0:0:0:
256,192,68457,1,8,0:0:0:0:
256,192,68507,1,8,0:0:0:0:
256,192,68557,1,0,0:0:0:0:
256,192,68657,1,0,0:0:0:0:
256,192,68707,1,0,0:0:0:0:
256,192,68757,1,8,0:0:0:0:
256,192,68857,1,0,0:0:0:0:
256,192,68957,1,8,0:0:0:0:
256,192,69007,1,8,0:0:0:0:
256,192,69057,1,8,0:0:0:0:
256,192,69157,1,0,0:0:0:0:
256,192,69207,1,8,0:0:0:0:
256,192,69257,1,0,0:0:0:0:
256,192,69357,1,8,0:0:0:0:
256,192,69457,1,0,0:0:0:0:
256,192,69507,1,8,0:0:0:0:
256,192,69557,1,0,0:0:0:0:
256,192,69657,1,8,0:0:0:0:
256,192,69757,1,0,0:0:0:0:
256,192,69807,1,8,0:0:0:0:
256,192,69857,1,0,0:0:0:0:
256,192,69957,1,8,0:0:0:0:
256,192,70057,1,8,0:0:0:0:
256,192,70157,1,0,0:0:0:0:
256,192,70257,1,0,0:0:0:0:
256,192,70357,1,8,0:0:0:0:
256,192,70407,1,8,0:0:0:0:
256,192,70457,1,0,0:0:0:0:
256,192,70507,1,0,0:0:0:0:
256,192,70557,1,0,0:0:0:0:
256,192,70657,1,0,0:0:0:0:
256,192,70757,1,8,0:0:0:0:
256,192,70857,1,0,0:0:0:0:
256,192,70957,1,8,0:0:0:0:
256,192,71007,1,8,0:0:0:0:
256,192,71057,1,0,0:0:0:0:
256,192,71157,1,8,0:0:0:0:
256,192,71257,1,0,0:0:0:0:
256,192,71357,1,8,0:0:0:0:
256,192,71407,1,8,0:0:0:0:
256,192,71457,1,0,0:0:0:0:
256,192,71557,1,8,0:0:0:0:
256,192,71657,1,0,0:0:0:0:
256,192,71757,1,8,0:0:0:0:
256,192,71807,1,0,0:0:0:0:
256,192,71857,1,8,0:0:0:0:
256,192,71907,1,0,0:0:0:0:
256,192,71957,1,8,0:0:0:0:
256,192,72057,1,0,0:0:0:0:
256,192,72107,1,0,0:0:0:0:
256,192,72157,1,8,0:0:0:0:
256,192,72207,1,8,0:0:0:0:
256,192,72257,1,0,0:0:0:0:
256,192,72357,1,8,0:0:0:0:
256,192,72457,1,0,0:0:0:0:
256,192,72557,1,8,0:0:0:0:
256,192,72607,1,8,0:0:0:0:
256,192,72657,1,0,0:0:0:0:
256,192,72757,1,0,0:0:0:0:
256,192,72857,1,8,0:0:0:0:
256,192,72957,1,8,0:0:0:0:
256,192,73057,1,0,0:0:0:0:
256,192,73107,1,0,0:0:0:0:
256,192,73157,1,8,0:0:0:0:
256,192,73257,1,0,0:0:0:0:
256,192,73357,1,8,0:0:0:0:
256,192,73407,1,0,0:0:0:0:
256,192,73457,1,8,0:0:0:0:
256,192,73507,1,0,0:0:0:0:
256,192,73557,1,8,0:0:0:0:
256,192,73657,1,0,0:0:0:0:
256,192,73707,1,0,0:0:0:0:
256,192,73757,1,8,0:0:0:0:
256,192,73807,1,8,0:0:0:0:
256,192,73857,1,0,0:0:0:0:
256,192,73957,1,8,0:0:0:0:
256,192,74057,1,0,0:0:0:0:
256,192,74107,1,0,0:0:0:0:
256,192,74157,1,8,0:0:0:0:
256,192,74257,1,0,0:0:0:0:
256,192,74357,1,8,0:0:0:0:
256,192,74407,1,8,0:0:0:0:
256,192,74457,1,8,0:0:0:0:
256,192,74557,1,0,0:0:0:0:
256,192,74657,1,0,0:0:0:0:
256,192,74757,1,8,0:0:0:0:
256,192,74807,1,8,0:0:0:0:
256,192,74857,1,0,0:0:0:0:
256,192,74907,1,0,0:0:0:0:
256,192,74957,1,8,0:0:0:0:
256,192,75057,1,0,0:0:0:0:
256,192,75107,1,0,0:0:0:0:
256,192,75157,1,8,0:0:0:0:
256,192,75257,1,0,0:0:0:0:
256,192,75357,1,8,0:0:0:0:
256,192,75407,1,8,0:0:0:0:
256,192,75457,1,8,0:0:0:0:
256,192,75557,1,0,0:0:0:0:
256,192,75607,1,8,0:0:0:0:
256,192,75657,1,0,0:0:0:0:
256,192,75757,1,8,0:0:0:0:
256,192,75857,1,0,0:0:0:0:
256,192,75907,1,8,0:0:0:0:
256,192,75957,1,0,0:0:0:0:
256,192,76057,1,8,0:0:0:0:
256,192,76157,1,0,0:0:0:0:
256,192,76257,1,0,0:0:0:0:
256,192,76307,1,0,0:0:0:0:
256,192,76357,1,8,0:0:0:0:
256,192,76457,1,8,0:0:0:0:
256,192,76557,1,0,0:0:0:0:
256,192,76657,1,0,0:0:0:0:
256,192,76757,1,8,0:0:0:0:
256,192,76807,1,8,0:0:0:0:
256,192,76857,1,0,0:0:0:0:
256,192,76907,1,0,0:0:0:0:
256,192,76957,1,0,0:0:0:0:
256,192,77057,1,8,0:0:0:0:
256,192,77157,1,8,0:0:0:0:
256,192,77257,1,0,0:0:0:0:
256,192,77357,1,8,0:0:0:0:
256,192,77407,1,8,0:0:0:0:
256,192,77457,1,0,0:0:0:0:
256,192,77557,1,8,0:0:0:0:
256,192,77607,1,8,0:0:0:0:
256,192,77657,1,0,0:0:0:0:
256,192,77707,1,0,0:0:0:0:
256,192,77757,1,8,0:0:0:0:
256,192,77857,1,0,0:0:0:0:
256,192,77907,1,0,0:0:0:0:
256,192,77957,1,8,0:0:0:0:
256,192,78057,1,0,0:0:0:0:
256,192,78157,1,8,0:0:0:0:
256,192,78207,1,0,0:0:0:0:
256,192,78257,1,8,0:0:0:0:
256,192,78307,1,0,0:0:0:0:
256,192,78357,1,8,0:0:0:0:
256,192,78457,1,0,0:0:0:0:
256,192,78507,1,0,0:0:0:0:
256,192,78557,1,8,0:0:0:0:
256,192,78607,1,8,0:0:0:0:
256,192,78657,1,0,0:0:0:0:
256,192,78757,1,8,0:0:0:0:
256,192,78857,1,0,0:0:0:0:
256,192,78957,1,8,0:0:0:0:
256,192,79007,1,8,0:0:0:0:
256,192,79057,1,0,0:0:0:0:
256,192,79107,1,0,0:0:0:0:
256,192,79157,1,8,0:0:0:0:
256,192,79207,1,8,0:0:0:0:
256,192,79257,1,0,0:0:0:0:
256,192,79357,1,8,0:0:0:0:
256,192,79407,1,8,0:0:0:0:
256,192,79457,1,0,0:0:0:0:
256,192,79507,1,0,0:0:0:0:
256,192,79557,1,8,0:0:0:0:
256,192,80357,1,0,0:0:0:0:
256,192,80407,1,0,0:0:0:0:
256,192,80457,1,0,0:0:0:0:
256,192,80557,1,8,0:0:0:0:
256,192,80657,1,0,0:0:0:0:
256,192,80757,1,8,0:0:0:0:
256,192,80857,1,8,0:0:0:0:
256,192,80957,1,0,0:0:0:0:
256,192,81057,1,0,0:0:0:0:
256,192,81157,1,8,0:0:0:0:
256,192,81257,1,0,0:0:0:0:
256,192,81357,1,8,0:0:0:0:
256,192,81407,1,8,0:0:0:0:
256,192,81457,1,8,0:0:0:0:
256,192,81557,1,0,0:0:0:0:
256,192,81657,1,8,0:0:0:0:
256,192,81757,1,8,0:0:0:0:
256,192,81957,1,0,0:0:0:0:
256,192,82007,1,0,0:0:0:0:
256,192,82057,1,0,0:0:0:0:
256,192,82157,1,8,0:0:0:0:
256,192,82257,1,0,0:0:0:0:
256,192,82357,1,8,0:0:0:0:
256,192,82457,1,0,0:0:0:0:
256,192,82557,1,8,0:0:0:0:
256,192,82657,1,8,0:0:0:0:
256,192,82757,1,8,0:0:0:0:
256,192,82857,1,0,0:0:0:0:
256,192,82957,1,8,0:0:0:0:
256,192,83007,1,8,0:0:0:0:
256,192,83057,1,8,0:0:0:0:
256,192,83157,1,0,0:0:0:0:
256,192,83257,1,0,0:0:0:0:
256,192,83357,1,8,0:0:0:0:
256,192,83557,1,0,0:0:0:0:
256,192,83607,1,0,0:0:0:0:
256,192,83657,1,0,0:0:0:0:
256,192,83757,1,8,0:0:0:0:
256,192,83857,1,8,0:0:0:0:
256,192,83957,1,0,0:0:0:0:
256,192,84057,1,8,0:0:0:0:
256,192,84157,1,0,0:0:0:0:
256,192,84257,1,8,0:0:0:0:
256,192,84357,1,8,0:0:0:0:
256,192,84457,1,8,0:0:0:0:
256,192,84557,1,0,0:0:0:0:
256,192,84607,1,0,0:0:0:0:
256,192,84657,1,0,0:0:0:0:
256,192,84757,1,8,0:0:0:0:
256,192,84857,1,8,0:0:0:0:
256,192,84957,1,0,0:0:0:0:
256,192,85157,1,8,0:0:0:0:
256,192,85207,1,8,0:0:0:0:
256,192,85257,1,8,0:0:0:0:
256,192,85357,1,0,0:0:0:0:
256,192,85457,1,0,0:0:0:0:
256,192,85557,1,8,0:0:0:0:
256,192,85657,1,0,0:0:0:0:
256,192,85757,1,0,0:0:0:0:
256,192,85857,1,0,0:0:0:0:
256,192,85957,1,8,0:0:0:0:
256,192,86157,1,0,0:0:0:0:
256,192,86357,1,8,0:0:0:0:
256,192,86557,1,0,0:0:0:0:
256,192,86757,1,0,0:0:0:0:
256,192,86807,1,0,0:0:0:0:
256,192,86857,1,0,0:0:0:0:
256,192,86957,1,8,0:0:0:0:
256,192,87057,1,0,0:0:0:0:
256,192,87157,1,8,0:0:0:0:
256,192,87257,1,8,0:0:0:0:
256,192,87357,1,0,0:0:0:0:
256,192,87457,1,0,0:0:0:0:
256,192,87557,1,8,0:0:0:0:
256,192,87657,1,0,0:0:0:0:
256,192,87757,1,8,0:0:0:0:
256,192,87807,1,8,0:0:0:0:
256,192,87857,1,8,0:0:0:0:
256,192,87957,1,0,0:0:0:0:
256,192,88057,1,8,0:0:0:0:
256,192,88157,1,8,0:0:0:0:
256,192,88357,1,0,0:0:0:0:
256,192,88407,1,0,0:0:0:0:
256,192,88457,1,0,0:0:0:0:
256,192,88557,1,8,0:0:0:0:
256,192,88657,1,0,0:0:0:0:
256,192,88757,1,8,0:0:0:0:
256,192,88857,1,0,0:0:0:0:
256,192,88957,1,8,0:0:0:0:
256,192,89057,1,8,0:0:0:0:
256,192,89157,1,8,0:0:0:0:
256,192,89257,1,0,0:0:0:0:
256,192,89357,1,8,0:0:0:0:
256,192,89407,1,8,0:0:0:0:
256,192,89457,1,8,0:0:0:0:
256,192,89557,1,8,0:0:0:0:
256,192,89657,1,0,0:0:0:0:
256,192,89757,1,8,0:0:0:0:
256,192,89957,1,0,0:0:0:0:
256,192,90007,1,0,0:0:0:0:
256,192,90057,1,0,0:0:0:0:
256,192,90157,1,8,0:0:0:0:
256,192,90257,1,8,0:0:0:0:
256,192,90357,1,0,0:0:0:0:
256,192,90457,1,8,0:0:0:0:
256,192,90557,1,0,0:0:0:0:
256,192,90657,1,8,0:0:0:0:
256,192,90757,1,8,0:0:0:0:
256,192,90857,1,8,0:0:0:0:
256,192,90957,1,0,0:0:0:0:
256,192,91007,1,0,0:0:0:0:
256,192,91057,1,0,0:0:0:0:
256,192,91157,1,8,0:0:0:0:
256,192,91257,1,8,0:0:0:0:
256,192,91357,1,0,0:0:0:0:
256,192,91557,1,8,0:0:0:0:
256,192,91607,1,8,0:0:0:0:
256,192,91657,1,8,0:0:0:0:
256,192,91757,1,0,0:0:0:0:
256,192,91857,1,0,0:0:0:0:
256,192,91957,1,8,0:0:0:0:
256,192,92057,1,0,0:0:0:0:
256,192,92157,1,0,0:0:0:0:
256,192,92257,1,0,0:0:0:0:
256,192,92357,1,8,0:0:0:0:
256,192,92457,1,8,0:0:0:0:
256,192,92557,1,0,0:0:0:0:
256,192,92607,1,0,0:0:0:0:
256,192,92657,1,0,0:0:0:0:
256,192,92757,1,8,0:0:0:0:
256,192,92857,1,8,0:0:0:0:
256,192,92957,1,0,0:0:0:0:
256,192,93007,1,0,0:0:0:0:
256,192,93057,1,0,0:0:0:0:
256,192,93157,1,8,0:0:0:0:
256,192,93262,12,0,101945,0:0:0:0:
