osu file format v14

[General]
AudioFilename: audio.ogg
AudioLeadIn: 0
PreviewTime: 41730
Countdown: 0
SampleSet: Normal
StackLeniency: 0.7
Mode: 1
LetterboxInBreaks: 0
WidescreenStoryboard: 1

[Editor]
Bookmarks: 347,6747,13147,19547,25947,38747,41947,54747,67547,79547,80347,86747,93147,101947
DistanceSpacing: 1.5
BeatDivisor: 4
GridSize: 32
TimelineZoom: 3.099999

[Metadata]
Title:silly 300bpm thing
TitleUnicode:silly 300bpm thing
Artist:easynam
ArtistUnicode:easynam
Creator:KyeX
Version:silly futsuu thing
Source:
Tags:electronic speedcore english breakcore easyname Veela Siren
BeatmapID:3617500
BeatmapSetID:1767251

[Difficulty]
HPDrainRate:7
CircleSize:3
OverallDifficulty:4
ApproachRate:10
SliderMultiplier:1.4
SliderTickRate:1

[Events]
//Background and Video events
0,0,"6.jpg",0,50
//Break Periods
2,13357,19107
//Storyboard Layer 0 (Background)
//Storyboard Layer 1 (Fail)
//Storyboard Layer 2 (Pass)
//Storyboard Layer 3 (Foreground)
//Storyboard Layer 4 (Overlay)
//Storyboard Sound Samples

[TimingPoints]
347,200,4,1,0,70,1,0
347,-125,4,1,0,70,0,0
12757,200,4,1,0,70,1,8
12757,-125,4,1,0,70,0,8
13157,200,4,1,0,70,1,0
13157,-117.647058823529,4,1,0,70,0,0
19557,-117.64705882353,4,1,0,85,0,0
25757,-115.384615384615,4,1,0,85,0,0
25857,-113.207547169811,4,1,0,85,0,0
25957,-111.111111111111,4,1,0,90,0,0
39157,-125,4,1,0,60,0,0
41957,-111.111111111111,4,1,0,90,0,1
54757,-111.111111111111,4,1,0,80,0,0
55157,-125,4,1,0,80,0,0
67557,-111.111111111111,4,1,0,90,0,1
79557,-111.111111111111,4,1,0,90,0,0
80357,-125,4,1,0,85,0,0
93157,210.526315789474,4,1,0,85,1,0
93157,-117.647058823529,4,1,0,85,0,0
93257,-117.647058823529,4,1,0,70,0,0
93307,-142.857142857143,4,1,0,70,0,0
93357,-142.857142857143,4,1,0,70,0,0
93407,-142.857142857143,4,1,0,69,0,0
93457,-142.857142857143,4,1,0,69,0,0
93507,-142.857142857143,4,1,0,69,0,0
93557,-142.857142857143,4,1,0,69,0,0
93566,214.285714285714,4,1,0,69,1,8
93566,-142.857142857143,4,1,0,68,0,0
93657,-142.857142857143,4,1,0,68,0,0
93707,-142.857142857143,4,1,0,68,0,0
93757,-142.857142857143,4,1,0,68,0,0
93807,-142.857142857143,4,1,0,67,0,0
93857,-142.857142857143,4,1,0,67,0,0
93907,-142.857142857143,4,1,0,67,0,0
93957,-142.857142857143,4,1,0,67,0,0
93994,226.415094339622,4,1,0,67,1,0
93994,-142.857142857143,4,1,0,67,0,0
94057,-142.857142857143,4,1,0,66,0,0
94107,-142.857142857143,4,1,0,66,0,0
94157,-142.857142857143,4,1,0,66,0,0
94207,-142.857142857143,4,1,0,66,0,0
94257,-142.857142857143,4,1,0,65,0,0
94307,-142.857142857143,4,1,0,65,0,0
94357,-142.857142857143,4,1,0,65,0,0
94407,-142.857142857143,4,1,0,65,0,0
94455,230.76923076923,4,1,0,64,1,8
94455,-142.857142857143,4,1,0,64,0,0
94507,-142.857142857143,4,1,0,64,0,0
94557,-142.857142857143,4,1,0,64,0,0
94607,-142.857142857143,4,1,0,64,0,0
94657,-142.857142857143,4,1,0,64,0,0
94707,-142.857142857143,4,1,0,63,0,0
94757,-142.857142857143,4,1,0,63,0,0
94807,-142.857142857143,4,1,0,63,0,0
94857,-142.857142857143,4,1,0,63,0,0
94907,-142.857142857143,4,1,0,62,0,0
94925,255.319148936169,4,1,0,62,1,0
94925,-142.857142857143,4,1,0,62,0,0
95007,-142.857142857143,4,1,0,62,0,0
95057,-142.857142857143,4,1,0,62,0,0
95107,-142.857142857143,4,1,0,61,0,0
95157,-142.857142857143,4,1,0,61,0,0
95207,-142.857142857143,4,1,0,61,0,0
95257,-142.857142857143,4,1,0,61,0,0
95307,-142.857142857143,4,1,0,61,0,0
95357,-142.857142857143,4,1,0,60,0,0
95407,-142.857142857143,4,1,0,60,0,0
95435,285.714285714284,4,1,0,60,1,8
95435,-142.857142857143,4,1,0,60,0,0
95507,-142.857142857143,4,1,0,60,0,0
95557,-142.857142857143,4,1,0,59,0,0
95607,-142.857142857143,4,1,0,59,0,0
95657,-142.857142857143,4,1,0,59,0,0
95707,-142.857142857143,4,1,0,59,0,0
95757,-142.857142857143,4,1,0,59,0,0
95807,-142.857142857143,4,1,0,58,0,0
95857,-142.857142857143,4,1,0,58,0,0
95907,-142.857142857143,4,1,0,58,0,0
95957,-142.857142857143,4,1,0,58,0,0
96006,299.999999999998,4,1,0,57,1,0
96006,-142.857142857143,4,1,0,57,0,0
96057,-142.857142857143,4,1,0,57,0,0
96107,-142.857142857143,4,1,0,57,0,0
96157,-142.857142857143,4,1,0,57,0,0
96207,-142.857142857143,4,1,0,56,0,0
96257,-142.857142857143,4,1,0,56,0,0
96307,-142.857142857143,4,1,0,56,0,0
96357,-142.857142857143,4,1,0,56,0,0
96407,-142.857142857143,4,1,0,56,0,0
96457,-142.857142857143,4,1,0,55,0,0
96507,-142.857142857143,4,1,0,55,0,0
96557,-142.857142857143,4,1,0,55,0,0
96607,-142.857142857143,4,1,0,55,0,0
96615,333.333333333332,4,1,0,55,1,8
96615,-142.857142857143,4,1,0,54,0,0
96707,-142.857142857143,4,1,0,54,0,0
96757,-142.857142857143,4,1,0,54,0,0
96807,-142.857142857143,4,1,0,54,0,0
96857,-142.857142857143,4,1,0,53,0,0
96907,-142.857142857143,4,1,0,53,0,0
96957,-142.857142857143,4,1,0,53,0,0
97007,-142.857142857143,4,1,0,53,0,0
97057,-142.857142857143,4,1,0,53,0,0
97107,-142.857142857143,4,1,0,52,0,0
97157,-142.857142857143,4,1,0,52,0,0
97207,-142.857142857143,4,1,0,52,0,0
97257,-142.857142857143,4,1,0,52,0,0
97300,387.096774193546,4,1,0,51,1,0
97300,-111.111111111111,4,1,0,51,0,0
97357,-142.857142857143,4,1,0,51,0,0
97407,-142.857142857143,4,1,0,51,0,0
97457,-142.857142857143,4,1,0,51,0,0
97507,-142.857142857143,4,1,0,50,0,0
97557,-142.857142857143,4,1,0,50,0,0
97607,-142.857142857143,4,1,0,50,0,0
97657,-142.857142857143,4,1,0,50,0,0
97707,-142.857142857143,4,1,0,50,0,0
97757,-142.857142857143,4,1,0,49,0,0
97807,-142.857142857143,4,1,0,49,0,0
97857,-142.857142857143,4,1,0,49,0,0
97907,-142.857142857143,4,1,0,49,0,0
97957,-142.857142857143,4,1,0,48,0,0
98007,-142.857142857143,4,1,0,48,0,0
98057,-142.857142857143,4,1,0,48,0,0
98105,465.116279069765,4,1,0,48,1,8
98107,-142.857142857143,4,1,0,48,0,0
98157,-142.857142857143,4,1,0,47,0,0
98207,-142.857142857143,4,1,0,47,0,0
98257,-142.857142857143,4,1,0,47,0,0
98307,-142.857142857143,4,1,0,47,0,0
98357,-142.857142857143,4,1,0,47,0,0
98407,-142.857142857143,4,1,0,46,0,0
98457,-142.857142857143,4,1,0,46,0,0
98507,-142.857142857143,4,1,0,46,0,0
98557,-142.857142857143,4,1,0,46,0,0
98607,-142.857142857143,4,1,0,45,0,0
98657,-142.857142857143,4,1,0,45,0,0
98707,-142.857142857143,4,1,0,45,0,0
98757,-142.857142857143,4,1,0,45,0,0
98807,-142.857142857143,4,1,0,44,0,0
98857,-142.857142857143,4,1,0,44,0,0
98907,-142.857142857143,4,1,0,44,0,0
98957,-142.857142857143,4,1,0,44,0,0
99007,-142.857142857143,4,1,0,44,0,0
99057,-142.857142857143,4,1,0,43,0,0
99105,645.161290322575,4,1,0,43,1,0
99105,-83.3333333333333,4,1,0,43,0,0
99157,-142.857142857143,4,1,0,43,0,0
99207,-142.857142857143,4,1,0,43,0,0
99257,-142.857142857143,4,1,0,42,0,0
99307,-142.857142857143,4,1,0,42,0,0
99357,-142.857142857143,4,1,0,42,0,0
99407,-142.857142857143,4,1,0,42,0,0
99457,-142.857142857143,4,1,0,41,0,0
99507,-142.857142857143,4,1,0,41,0,0
99557,-142.857142857143,4,1,0,41,0,0
99607,-142.857142857143,4,1,0,41,0,0
99657,-142.857142857143,4,1,0,41,0,0
99707,-142.857142857143,4,1,0,40,0,0
99750,810.810810810811,4,1,0,40,1,8
99757,-142.857142857143,4,1,0,40,0,0
99807,-142.857142857143,4,1,0,40,0,0
99857,-142.857142857143,4,1,0,40,0,0
99907,-142.857142857143,4,1,0,39,0,0
99957,-142.857142857143,4,1,0,39,0,0
100007,-142.857142857143,4,1,0,39,0,0
100057,-142.857142857143,4,1,0,39,0,0
100107,-142.857142857143,4,1,0,39,0,0
100157,-142.857142857143,4,1,0,38,0,0
100207,-142.857142857143,4,1,0,38,0,0
100257,-142.857142857143,4,1,0,38,0,0
100307,-142.857142857143,4,1,0,38,0,0
100357,-142.857142857143,4,1,0,37,0,0
100407,-142.857142857143,4,1,0,37,0,0
100457,-142.857142857143,4,1,0,37,0,0
100507,-142.857142857143,4,1,0,37,0,0
100557,-142.857142857143,4,1,0,36,0,0
100607,-142.857142857143,4,1,0,36,0,0
100657,-142.857142857143,4,1,0,36,0,0
100663,1282.05128205128,4,1,0,36,1,8
100707,-142.857142857143,4,1,0,36,0,0
100757,-142.857142857143,4,1,0,36,0,0
100807,-142.857142857143,4,1,0,35,0,0
100857,-142.857142857143,4,1,0,35,0,0
100907,-142.857142857143,4,1,0,35,0,0
100957,-142.857142857143,4,1,0,35,0,0
101007,-142.857142857143,4,1,0,34,0,0
101057,-142.857142857143,4,1,0,34,0,0
101107,-142.857142857143,4,1,0,34,0,0
101157,-142.857142857143,4,1,0,34,0,0
101207,-142.857142857143,4,1,0,33,0,0
101257,-142.857142857143,4,1,0,33,0,0
101307,-142.857142857143,4,1,0,33,0,0
101357,-142.857142857143,4,1,0,33,0,0
101407,-142.857142857143,4,1,0,33,0,0
101457,-142.857142857143,4,1,0,32,0,0
101507,-142.857142857143,4,1,0,32,0,0
101557,-142.857142857143,4,1,0,32,0,0
101607,-142.857142857143,4,1,0,32,0,0
101657,-142.857142857143,4,1,0,31,0,0
101707,-142.857142857143,4,1,0,31,0,0
101757,-142.857142857143,4,1,0,31,0,0
101807,-142.857142857143,4,1,0,31,0,0
101857,-142.857142857143,4,1,0,30,0,0
101907,-142.857142857143,4,1,0,30,0,0
101957,-142.857142857143,4,1,0,30,0,0

[HitObjects]
256,192,347,5,0,0:0:0:0:
256,192,547,1,8,0:0:0:0:
256,192,947,1,8,0:0:0:0:
256,192,1147,1,0,0:0:0:0:
256,192,1347,1,8,0:0:0:0:
256,192,1947,1,0,0:0:0:0:
256,192,2147,1,8,0:0:0:0:
256,192,2547,1,8,0:0:0:0:
256,192,2747,1,0,0:0:0:0:
256,192,2947,1,8,0:0:0:0:
256,192,3347,1,8,0:0:0:0:
256,192,3447,1,8,0:0:0:0:
256,192,3547,1,0,0:0:0:0:
256,192,3747,1,8,0:0:0:0:
256,192,4147,1,8,0:0:0:0:
256,192,4347,1,0,0:0:0:0:
256,192,4547,1,8,0:0:0:0:
256,192,5147,1,0,0:0:0:0:
256,192,5347,1,8,0:0:0:0:
256,192,5747,1,8,0:0:0:0:
256,192,5947,1,0,0:0:0:0:
256,192,6147,1,0,0:0:0:0:
256,192,6247,1,8,0:0:0:0:
256,192,6347,1,0,0:0:0:0:
256,192,6547,1,8,0:0:0:0:
256,192,6747,1,0,0:0:0:0:
256,192,6947,1,8,0:0:0:0:
256,192,7347,1,8,0:0:0:0:
256,192,7547,1,0,0:0:0:0:
256,192,7747,1,8,0:0:0:0:
256,192,8347,1,0,0:0:0:0:
256,192,8547,1,8,0:0:0:0:
256,192,8947,1,8,0:0:0:0:
256,192,9147,1,0,0:0:0:0:
256,192,9347,1,8,0:0:0:0:
256,192,9747,1,8,0:0:0:0:
256,192,9847,1,8,0:0:0:0:
256,192,9947,1,0,0:0:0:0:
256,192,10147,1,8,0:0:0:0:
256,192,10547,1,8,0:0:0:0:
256,192,10747,1,0,0:0:0:0:
256,192,10947,1,8,0:0:0:0:
256,192,11547,1,0,0:0:0:0:
256,192,11747,1,8,0:0:0:0:
256,192,11947,1,0,0:0:0:0:
256,192,12047,1,0,0:0:0:0:
256,192,12147,1,8,0:0:0:0:
256,192,12347,1,0,0:0:0:0:
256,192,12757,1,8,0:0:0:0:
256,192,12857,1,8,0:0:0:0:
256,192,12957,1,8,0:0:0:0:
256,192,13157,1,4,0:0:0:0:
256,192,19557,5,8,0:0:0:0:
256,192,19757,1,0,0:0:0:0:
256,192,19957,1,8,0:0:0:0:
256,192,20357,1,8,0:0:0:0:
256,192,20557,1,8,0:0:0:0:
256,192,20757,1,8,0:0:0:0:
256,192,20857,1,8,0:0:0:0:
256,192,20957,1,0,0:0:0:0:
256,192,21157,1,8,0:0:0:0:
256,192,21357,1,0,0:0:0:0:
256,192,21557,1,8,0:0:0:0:
256,192,21957,1,0,0:0:0:0:
256,192,22257,1,8,0:0:0:0:
256,192,22557,1,8,0:0:0:0:
256,192,22757,1,0,0:0:0:0:
256,192,22957,1,8,0:0:0:0:
256,192,23557,1,8,0:0:0:0:
256,192,23757,1,8,0:0:0:0:
256,192,24357,1,0,0:0:0:0:
256,192,24557,1,8,0:0:0:0:
256,192,24657,1,0,0:0:0:0:
256,192,24757,1,8,0:0:0:0:
256,192,24957,1,0,0:0:0:0:
256,192,25157,1,8,0:0:0:0:
256,192,25557,1,0,0:0:0:0:
256,192,25757,1,8,0:0:0:0:
256,192,25857,1,8,0:0:0:0:
256,192,25957,1,0,0:0:0:0:
256,192,26357,1,8,0:0:0:0:
256,192,26757,1,8,0:0:0:0:
256,192,27057,1,8,0:0:0:0:
256,192,27357,1,0,0:0:0:0:
256,192,27557,1,8,0:0:0:0:
256,192,27957,1,8,0:0:0:0:
256,192,28157,1,8,0:0:0:0:
256,192,28357,1,0,0:0:0:0:
256,192,28657,1,0,0:0:0:0:
256,192,28857,1,8,0:0:0:0:
256,192,28957,1,0,0:0:0:0:
256,192,29157,1,8,0:0:0:0:
256,192,29557,1,8,0:0:0:0:
256,192,29657,1,8,0:0:0:0:
256,192,29757,1,0,0:0:0:0:
256,192,29957,1,8,0:0:0:0:
256,192,30157,1,8,0:0:0:0:
256,192,30357,1,0,0:0:0:0:
256,192,30557,1,8,0:0:0:0:
256,192,30757,1,0,0:0:0:0:
256,192,31057,1,0,0:0:0:0:
256,192,31357,1,8,0:0:0:0:
256,192,31557,1,0,0:0:0:0:
256,192,31757,1,0,0:0:0:0:
256,192,31857,1,8,0:0:0:0:
256,192,31957,1,0,0:0:0:0:
256,192,32157,1,8,0:0:0:0:
256,192,32357,1,0,0:0:0:0:
256,192,32757,1,8,0:0:0:0:
256,192,33157,1,8,0:0:0:0:
256,192,33457,1,8,0:0:0:0:
256,192,33757,1,0,0:0:0:0:
256,192,33957,1,8,0:0:0:0:
256,192,34357,1,8,0:0:0:0:
256,192,34557,1,8,0:0:0:0:
256,192,34757,1,0,0:0:0:0:
256,192,35057,1,8,0:0:0:0:
256,192,35557,1,8,0:0:0:0:
256,192,35957,1,8,0:0:0:0:
256,192,36057,1,8,0:0:0:0:
256,192,36157,1,0,0:0:0:0:
256,192,36357,1,8,0:0:0:0:
256,192,36557,1,8,0:0:0:0:
256,192,36757,1,0,0:0:0:0:
256,192,36957,1,8,0:0:0:0:
256,192,37157,1,0,0:0:0:0:
256,192,37457,1,8,0:0:0:0:
256,192,37757,1,0,0:0:0:0:
256,192,37957,1,8,0:0:0:0:
256,192,38057,1,8,0:0:0:0:
256,192,38157,1,0,0:0:0:0:
256,192,38357,1,8,0:0:0:0:
256,192,38557,1,0,0:0:0:0:
256,192,38657,1,0,0:0:0:0:
256,192,38757,1,8,0:0:0:0:
256,192,39157,1,8,0:0:0:0:
256,192,39757,1,0,0:0:0:0:
256,192,39957,1,8,0:0:0:0:
256,192,40357,1,0,0:0:0:0:
256,192,40757,1,8,0:0:0:0:
256,192,41357,1,0,0:0:0:0:
256,192,41557,1,8,0:0:0:0:
256,192,41957,1,12,0:0:0:0:
256,192,42357,1,8,0:0:0:0:
256,192,42757,1,8,0:0:0:0:
256,192,42957,1,8,0:0:0:0:
256,192,43057,1,8,0:0:0:0:
256,192,43157,1,8,0:0:0:0:
256,192,43557,1,8,0:0:0:0:
256,192,43757,1,8,0:0:0:0:
256,192,43957,1,0,0:0:0:0:
256,192,44357,1,0,0:0:0:0:
256,192,44557,1,8,0:0:0:0:
256,192,44657,1,8,0:0:0:0:
256,192,44757,1,8,0:0:0:0:
256,192,44957,1,0,0:0:0:0:
256,192,45357,1,8,0:0:0:0:
256,192,45557,1,0,0:0:0:0:
256,192,45957,1,8,0:0:0:0:
256,192,46157,1,8,0:0:0:0:
256,192,46257,1,8,0:0:0:0:
256,192,46357,1,8,0:0:0:0:
256,192,46557,1,0,0:0:0:0:
256,192,46957,1,8,0:0:0:0:
256,192,47157,1,0,0:0:0:0:
256,192,47557,1,0,0:0:0:0:
256,192,47757,1,8,0:0:0:0:
256,192,47857,1,8,0:0:0:0:
256,192,47957,1,8,0:0:0:0:
256,192,48157,1,0,0:0:0:0:
256,192,48357,1,8,0:0:0:0:
256,192,48757,1,8,0:0:0:0:
256,192,49157,1,8,0:0:0:0:
256,192,49457,1,8,0:0:0:0:
256,192,49757,1,0,0:0:0:0:
256,192,49957,1,8,0:0:0:0:
256,192,50357,1,0,0:0:0:0:
256,192,50557,1,8,0:0:0:0:
256,192,50757,1,0,0:0:0:0:
256,192,51057,1,0,0:0:0:0:
256,192,51357,1,8,0:0:0:0:
256,192,51757,1,0,0:0:0:0:
256,192,51957,1,8,0:0:0:0:
256,192,52057,1,8,0:0:0:0:
256,192,52157,1,0,0:0:0:0:
256,192,52357,1,8,0:0:0:0:
256,192,52557,1,8,0:0:0:0:
256,192,52657,1,0,0:0:0:0:
256,192,52757,1,0,0:0:0:0:
256,192,52957,1,8,0:0:0:0:
256,192,53357,1,8,0:0:0:0:
256,192,53557,1,0,0:0:0:0:
256,192,53957,1,0,0:0:0:0:
256,192,54157,1,0,0:0:0:0:
256,192,54257,1,8,0:0:0:0:
256,192,54357,1,0,0:0:0:0:
256,192,54557,1,8,0:0:0:0:
256,192,54757,1,0,0:0:0:0:
256,192,55157,1,8,0:0:0:0:
256,192,55557,1,0,0:0:0:0:
256,192,55857,1,0,0:0:0:0:
256,192,56157,1,0,0:0:0:0:
256,192,56357,1,8,0:0:0:0:
256,192,56757,1,8,0:0:0:0:
256,192,56957,1,0,0:0:0:0:
256,192,57157,1,8,0:0:0:0:
256,192,57457,1,8,0:0:0:0:
256,192,57757,1,8,0:0:0:0:
256,192,57957,1,0,0:0:0:0:
256,192,58357,1,8,0:0:0:0:
256,192,58757,1,0,0:0:0:0:
256,192,58957,1,8,0:0:0:0:
256,192,59157,1,0,0:0:0:0:
256,192,59357,1,8,0:0:0:0:
256,192,59557,1,0,0:0:0:0:
256,192,59957,1,8,0:0:0:0:
256,192,60357,1,0,0:0:0:0:
256,192,60757,1,0,0:0:0:0:
256,192,60957,1,0,0:0:0:0:
256,192,61157,1,8,0:0:0:0:
256,192,61557,1,8,0:0:0:0:
256,192,61957,1,0,0:0:0:0:
256,192,62257,1,0,0:0:0:0:
256,192,62557,1,0,0:0:0:0:
256,192,62757,1,8,0:0:0:0:
256,192,63157,1,8,0:0:0:0:
256,192,63357,1,0,0:0:0:0:
256,192,63557,1,8,0:0:0:0:
256,192,63857,1,8,0:0:0:0:
256,192,64357,1,0,0:0:0:0:
256,192,64757,1,8,0:0:0:0:
256,192,65157,1,0,0:0:0:0:
256,192,65357,1,8,0:0:0:0:
256,192,65557,1,0,0:0:0:0:
256,192,65757,1,8,0:0:0:0:
256,192,65957,1,0,0:0:0:0:
256,192,66357,1,0,0:0:0:0:
256,192,66757,1,8,0:0:0:0:
256,192,67157,1,8,0:0:0:0:
256,192,67557,1,12,0:0:0:0:
256,192,67957,1,8,0:0:0:0:
256,192,68357,1,8,0:0:0:0:
256,192,68757,1,0,0:0:0:0:
256,192,68957,1,8,0:0:0:0:
256,192,69157,1,0,0:0:0:0:
256,192,69457,1,8,0:0:0:0:
256,192,69757,1,0,0:0:0:0:
256,192,69957,1,8,0:0:0:0:
256,192,70357,1,8,0:0:0:0:
256,192,70457,1,8,0:0:0:0:
256,192,70557,1,0,0:0:0:0:
256,192,70757,1,8,0:0:0:0:
256,192,70957,1,8,0:0:0:0:
256,192,71157,1,0,0:0:0:0:
256,192,71357,1,8,0:0:0:0:
256,192,71557,1,0,0:0:0:0:
256,192,71757,1,8,0:0:0:0:
256,192,71857,1,8,0:0:0:0:
256,192,71957,1,8,0:0:0:0:
256,192,72157,1,0,0:0:0:0:
256,192,72557,1,8,0:0:0:0:
256,192,72757,1,0,0:0:0:0:
256,192,73157,1,0,0:0:0:0:
256,192,73357,1,8,0:0:0:0:
256,192,73457,1,8,0:0:0:0:
256,192,73557,1,8,0:0:0:0:
256,192,73757,1,8,0:0:0:0:
256,192,73957,1,8,0:0:0:0:
256,192,74357,1,8,0:0:0:0:
256,192,74757,1,8,0:0:0:0:
256,192,75157,1,0,0:0:0:0:
256,192,75357,1,8,0:0:0:0:
256,192,75557,1,0,0:0:0:0:
256,192,75857,1,8,0:0:0:0:
256,192,76157,1,8,0:0:0:0:
256,192,76357,1,8,0:0:0:0:
256,192,76757,1,8,0:0:0:0:
256,192,76857,1,8,0:0:0:0:
256,192,76957,1,0,0:0:0:0:
256,192,77157,1,0,0:0:0:0:
256,192,77357,1,8,0:0:0:0:
256,192,77557,1,0,0:0:0:0:
256,192,77757,1,8,0:0:0:0:
256,192,77957,1,0,0:0:0:0:
256,192,78157,1,8,0:0:0:0:
256,192,78257,1,8,0:0:0:0:
256,192,78357,1,8,0:0:0:0:
256,192,78557,1,0,0:0:0:0:
256,192,78957,1,8,0:0:0:0:
256,192,79157,1,8,0:0:0:0:
256,192,79357,1,8,0:0:0:0:
256,192,80357,1,8,0:0:0:0:
256,192,80757,1,8,0:0:0:0:
256,192,80957,1,0,0:0:0:0:
256,192,81357,1,0,0:0:0:0:
256,192,81557,1,8,0:0:0:0:
256,192,81957,1,0,0:0:0:0:
256,192,82357,1,8,0:0:0:0:
256,160,82557,1,0,0:0:0:0:
256,192,82957,1,8,0:0:0:0:
256,192,83157,1,8,0:0:0:0:
256,192,83557,1,0,0:0:0:0:
256,192,83957,1,8,0:0:0:0:
256,192,84157,1,0,0:0:0:0:
256,192,84557,1,0,0:0:0:0:
256,192,84757,1,8,0:0:0:0:
256,192,85157,1,0,0:0:0:0:
256,192,85557,1,8,0:0:0:0:
256,192,85757,1,0,0:0:0:0:
256,192,86157,1,0,0:0:0:0:
256,192,86357,1,8,0:0:0:0:
256,192,86557,1,8,0:0:0:0:
256,192,86757,1,0,0:0:0:0:
256,192,87157,1,8,0:0:0:0:
256,192,87357,1,0,0:0:0:0:
256,192,87757,1,0,0:0:0:0:
256,192,87957,1,8,0:0:0:0:
256,192,88357,1,0,0:0:0:0:
256,192,88757,1,8,0:0:0:0:
256,192,88957,1,0,0:0:0:0:
256,192,89357,1,8,0:0:0:0:
256,192,89557,1,8,0:0:0:0:
256,192,89957,1,0,0:0:0:0:
256,192,90357,1,8,0:0:0:0:
256,192,90557,1,0,0:0:0:0:
256,192,90957,1,0,0:0:0:0:
256,192,91157,1,8,0:0:0:0:
256,192,91557,1,0,0:0:0:0:
256,192,91957,1,8,0:0:0:0:
256,192,92157,1,0,0:0:0:0:
256,192,92557,1,0,0:0:0:0:
256,192,92757,1,8,0:0:0:0:
256,192,92957,1,0,0:0:0:0:
256,192,93157,12,0,101945,0:0:0:0:
