osu file format v14

[General]
AudioFilename: audio.mp3
AudioLeadIn: 0
PreviewTime: -1
Countdown: 0
SampleSet: Normal
StackLeniency: 0.7
Mode: 1
LetterboxInBreaks: 0
WidescreenStoryboard: 0

[Editor]
DistanceSpacing: 2
BeatDivisor: 4
GridSize: 32
TimelineZoom: 3.199999

[Metadata]
Title:Ayayaaaa
TitleUnicode:Ayayaaaa
Artist:eakon
ArtistUnicode:eakon
Creator:Aesa
Version:Yass.
Source:
Tags:Roger
BeatmapID:2052323
BeatmapSetID:980657

[Difficulty]
HPDrainRate:6
CircleSize:5
OverallDifficulty:9
ApproachRate:5
SliderMultiplier:1.4
SliderTickRate:1

[Events]
//Background and Video events
0,0,"tr85xr8rlv201.png",0,0
//Break Periods
//Storyboard Layer 0 (Background)
//Storyboard Layer 1 (Fail)
//Storyboard Layer 2 (Pass)
//Storyboard Layer 3 (Foreground)
//Storyboard Sound Samples

[TimingPoints]
2433,476.190476190476,4,1,0,100,1,0

[HitObjects]
256,192,528,5,6,0:0:0:0:
256,192,766,1,4,0:0:0:0:
256,192,1004,1,6,0:0:0:0:
256,192,1242,1,8,0:0:0:0:
256,192,1361,1,8,0:0:0:0:
256,192,1480,1,0,0:0:0:0:
256,192,1559,1,0,0:0:0:0:
256,192,1639,1,0,0:0:0:0:
256,192,1718,1,8,0:0:0:0:
256,192,1837,1,0,0:0:0:0:
256,192,1956,2,0,L|384:192,1,105
256,192,2433,1,0,0:0:0:0:
256,192,2671,1,0,0:0:0:0:
256,192,2790,1,0,0:0:0:0:
256,192,2909,1,8,0:0:0:0:
256,192,3147,1,0,0:0:0:0:
256,192,3385,1,8,0:0:0:0:
256,192,3504,1,0,0:0:0:0:
256,192,3623,1,8,0:0:0:0:
256,192,3742,1,8,0:0:0:0:
256,192,3861,1,0,0:0:0:0:
256,192,3980,1,8,0:0:0:0:
256,192,4099,1,8,0:0:0:0:
256,192,4337,1,0,0:0:0:0:
256,192,4575,1,8,0:0:0:0:
256,192,4813,1,8,0:0:0:0:
256,192,4932,1,0,0:0:0:0:
256,192,5052,1,0,0:0:0:0:
256,192,5171,1,8,0:0:0:0:
256,192,5290,1,0,0:0:0:0:
256,192,5528,1,8,0:0:0:0:
256,192,5766,1,8,0:0:0:0:
256,192,6004,1,0,0:0:0:0:
256,192,6123,1,0,0:0:0:0:
256,192,6242,1,8,0:0:0:0:
256,192,6480,1,0,0:0:0:0:
256,192,6718,1,8,0:0:0:0:
256,192,6837,1,0,0:0:0:0:
256,192,6956,1,8,0:0:0:0:
256,192,7194,1,0,0:0:0:0:
256,192,7432,1,0,0:0:0:0:
256,192,7671,1,0,0:0:0:0:
256,192,7790,1,0,0:0:0:0:
256,192,7909,1,8,0:0:0:0:
256,192,8147,1,8,0:0:0:0:
256,192,8266,1,0,0:0:0:0:
256,192,8385,1,8,0:0:0:0:
256,192,8504,1,8,0:0:0:0:
256,192,8623,1,0,0:0:0:0:
256,192,8861,1,8,0:0:0:0:
256,192,9099,1,8,0:0:0:0:
256,192,9218,1,0,0:0:0:0:
256,192,9337,1,8,0:0:0:0:
256,192,9575,1,8,0:0:0:0:
256,192,9694,1,8,0:0:0:0:
256,192,9813,1,0,0:0:0:0:
256,192,10052,1,8,0:0:0:0:
256,192,10210,1,8,0:0:0:0:
256,192,10369,1,0,0:0:0:0:
256,192,10528,1,8,0:0:0:0:
256,192,10845,1,0,0:0:0:0:
256,192,11083,1,0,0:0:0:0:
256,192,11242,1,8,0:0:0:0:
256,192,11361,1,0,0:0:0:0:
256,192,11480,1,0,0:0:0:0:
256,192,11599,1,0,0:0:0:0:
256,192,11718,1,8,0:0:0:0:
256,192,11956,1,0,0:0:0:0:
256,192,12194,1,8,0:0:0:0:
256,192,12313,1,0,0:0:0:0:
256,192,12432,1,8,0:0:0:0:
256,192,12671,1,0,0:0:0:0:
256,192,12909,1,4,0:0:0:0:
256,192,13028,1,4,0:0:0:0:
256,192,13147,1,4,0:0:0:0:
256,192,13266,1,4,0:0:0:0:
256,192,13385,1,4,0:0:0:0:
256,192,13861,1,0,0:0:0:0:
256,192,14099,1,8,0:0:0:0:
256,192,14337,1,8,0:0:0:0:
256,192,14456,1,0,0:0:0:0:
256,192,14575,1,8,0:0:0:0:
256,192,14813,5,0,0:0:0:0:
256,192,14932,1,8,0:0:0:0:
256,192,15052,1,0,0:0:0:0:
256,192,15171,1,0,0:0:0:0:
256,192,15290,1,8,0:0:0:0:
256,192,15528,1,8,0:0:0:0:
256,192,15647,1,8,0:0:0:0:
256,192,15766,1,0,0:0:0:0:
256,192,16004,1,0,0:0:0:0:
256,192,16242,1,8,0:0:0:0:
256,192,16361,1,0,0:0:0:0:
256,192,16480,1,0,0:0:0:0:
256,256,16599,1,8,0:0:0:0:
256,192,16718,1,0,0:0:0:0:
256,192,16837,1,8,0:0:0:0:
256,192,16956,1,8,0:0:0:0:
256,192,17075,1,0,0:0:0:0:
256,192,17194,1,8,0:0:0:0:
256,192,17313,1,8,0:0:0:0:
256,192,17432,1,0,0:0:0:0:
256,192,17671,1,4,0:0:0:0:
256,192,17790,1,6,0:0:0:0:
256,192,17909,1,6,0:0:0:0:
256,192,18028,1,4,0:0:0:0:
256,192,18147,1,6,0:0:0:0:
256,192,18266,1,6,0:0:0:0:
256,192,18385,1,4,0:0:0:0:
256,192,18504,1,6,0:0:0:0:
256,192,18623,1,6,0:0:0:0:
256,192,18742,1,4,0:0:0:0:
256,192,18861,1,6,0:0:0:0:
256,192,18980,1,6,0:0:0:0:
256,192,19099,1,4,0:0:0:0:
256,192,19218,1,6,0:0:0:0:
256,192,19337,1,6,0:0:0:0:
256,192,19456,1,4,0:0:0:0:
256,192,19575,1,6,0:0:0:0:
256,192,19694,1,6,0:0:0:0:
256,192,19813,1,4,0:0:0:0:
256,192,19932,1,4,0:0:0:0:
256,192,20052,1,6,0:0:0:0:
256,192,20171,1,4,0:0:0:0:
256,192,20290,1,6,0:0:0:0:
256,192,20409,1,4,0:0:0:0:
256,192,20528,1,6,0:0:0:0:
256,192,20647,1,6,0:0:0:0:
256,192,20766,1,6,0:0:0:0:
256,192,20885,1,6,0:0:0:0:
256,192,21004,1,4,0:0:0:0:
256,192,21242,1,4,0:0:0:0:
256,192,21480,1,6,0:0:0:0:
256,192,21599,1,4,0:0:0:0:
256,192,21718,1,6,0:0:0:0:
256,192,21837,1,6,0:0:0:0:
256,192,21956,1,4,0:0:0:0:
256,192,22075,1,6,0:0:0:0:
256,192,22194,1,4,0:0:0:0:
256,192,22313,1,6,0:0:0:0:
256,192,22432,1,6,0:0:0:0:
256,192,22551,1,4,0:0:0:0:
256,192,22670,1,6,0:0:0:0:
256,192,22789,1,4,0:0:0:0:
256,192,22909,1,6,0:0:0:0:
256,192,23028,1,6,0:0:0:0:
256,192,23147,1,4,0:0:0:0:
256,192,23266,1,6,0:0:0:0:
256,192,23385,1,8,0:0:0:0:
256,192,23444,1,0,0:0:0:0:
256,192,23504,1,8,0:0:0:0:
256,192,23563,1,8,0:0:0:0:
256,192,23623,1,0,0:0:0:0:
256,192,23682,1,8,0:0:0:0:
256,192,23742,1,0,0:0:0:0:
256,192,23802,1,8,0:0:0:0:
256,192,23861,1,8,0:0:0:0:
256,192,23921,1,0,0:0:0:0:
256,192,23980,1,8,0:0:0:0:
256,192,24040,1,0,0:0:0:0:
256,192,24099,1,8,0:0:0:0:
256,192,24159,1,8,0:0:0:0:
256,192,24218,1,0,0:0:0:0:
256,192,24278,1,0,0:0:0:0:
256,192,24337,1,4,0:0:0:0:
256,192,24456,1,4,0:0:0:0:
256,192,24575,1,6,0:0:0:0:
256,192,24813,1,6,0:0:0:0:
256,192,25052,1,4,0:0:0:0:
256,192,25290,1,6,0:0:0:0:
256,192,25409,1,6,0:0:0:0:
256,192,25528,1,4,0:0:0:0:
256,192,25647,1,6,0:0:0:0:
256,192,25766,1,6,0:0:0:0:
256,192,25885,1,4,0:0:0:0:
256,192,26004,1,6,0:0:0:0:
256,192,26123,1,6,0:0:0:0:
256,192,26242,1,4,0:0:0:0:
256,192,26361,1,6,0:0:0:0:
256,192,26480,1,6,0:0:0:0:
256,192,26599,1,4,0:0:0:0:
256,192,26718,1,6,0:0:0:0:
256,192,26837,1,6,0:0:0:0:
256,192,26956,1,4,0:0:0:0:
256,192,27075,1,6,0:0:0:0:
256,192,27194,1,6,0:0:0:0:
256,192,27313,1,4,0:0:0:0:
256,192,27432,1,6,0:0:0:0:
256,192,27551,1,4,0:0:0:0:
256,192,27670,1,6,0:0:0:0:
256,192,27789,1,6,0:0:0:0:
256,192,27908,1,4,0:0:0:0:
256,192,28027,1,6,0:0:0:0:
256,192,28147,1,4,0:0:0:0:
256,192,28266,1,4,0:0:0:0:
256,192,28385,1,6,0:0:0:0:
256,192,28504,1,4,0:0:0:0:
256,192,28623,1,6,0:0:0:0:
256,192,28861,1,4,0:0:0:0:
256,192,29099,1,6,0:0:0:0:
256,192,29218,1,4,0:0:0:0:
256,192,29337,1,6,0:0:0:0:
256,192,29456,1,6,0:0:0:0:
256,192,29575,1,4,0:0:0:0:
256,192,29694,1,6,0:0:0:0:
256,192,29813,1,4,0:0:0:0:
256,192,29932,1,4,0:0:0:0:
256,192,30051,1,6,0:0:0:0:
256,192,30170,1,4,0:0:0:0:
256,192,30289,1,6,0:0:0:0:
256,192,30408,1,4,0:0:0:0:
256,192,30528,1,4,0:0:0:0:
256,192,30647,1,6,0:0:0:0:
256,192,30766,1,6,0:0:0:0:
256,192,30885,1,4,0:0:0:0:
256,192,31004,1,6,0:0:0:0:
256,192,31242,1,4,0:0:0:0:
256,192,31480,1,6,0:0:0:0:
256,192,31718,1,6,0:0:0:0:
256,192,31837,1,4,0:0:0:0:
320,320,32075,1,4,0:0:0:0:
256,192,32194,1,6,0:0:0:0:
256,192,32432,1,4,0:0:0:0:
256,192,32492,1,4,0:0:0:0:
256,192,32552,1,4,0:0:0:0:
256,192,32611,1,4,0:0:0:0:
256,192,32671,1,4,0:0:0:0:
256,192,32730,1,4,0:0:0:0:
256,192,32790,1,4,0:0:0:0:
256,192,32849,1,4,0:0:0:0:
256,192,32909,1,6,0:0:0:0:
