osu file format v14

[General]
AudioFilename: audio.mp3
AudioLeadIn: 0
PreviewTime: 98888
Countdown: 0
SampleSet: Soft
StackLeniency: 0.1
Mode: 0
LetterboxInBreaks: 0
WidescreenStoryboard: 1

[Editor]
DistanceSpacing: 2.2
BeatDivisor: 12
GridSize: 4
TimelineZoom: 1

[Metadata]
Title:Beat Cannon (KHTP Remix)
TitleUnicode:Beat Cannon (KHTP Remix)
Artist:eFeL remixed by KHTP
ArtistUnicode:eFeL remixed by KHTP
Creator:ktgster
Version:Insane
Source:
Tags:Be-Music Source Script BMS konzertsaal THE OF FIGHTERS 2013 BOF2013 Team COLORTRONICS Ruby.G p.o.o. Trance Hop Videogame Video Game Electronic Instrumental
BeatmapID:2779605
BeatmapSetID:1240125

[Difficulty]
HPDrainRate:5
CircleSize:6
OverallDifficulty:6
ApproachRate:1
SliderMultiplier:0.5
SliderTickRate:1

[Events]
//Background and Video events
0,0,"_title.jpg",0,0
//Break Periods
//Storyboard Layer 0 (Background)
//Storyboard Layer 1 (Fail)
//Storyboard Layer 2 (Pass)
//Storyboard Layer 3 (Foreground)
//Storyboard Layer 4 (Overlay)
//Storyboard Sound Samples

[TimingPoints]
95,517.241379310345,4,2,1,50,1,0
15870,-250,4,2,1,60,0,0
16646,-100,4,2,1,60,0,0
17163,-250,4,2,1,60,0,0
17681,-100,4,2,1,60,0,0
19232,-250,4,2,1,60,0,0
20268,-100,4,2,1,60,0,0
21301,-250,4,2,1,60,0,0
21819,-100,4,2,1,60,0,0
23370,-250,4,2,1,60,0,0
24406,-100,4,2,1,60,0,0
25439,-250,4,2,1,60,0,0
25957,-100,4,2,1,60,0,0
27508,-250,4,2,1,60,0,0
28544,-100,4,2,1,60,0,0
29577,-250,4,2,1,60,0,0
30095,-100,4,2,1,60,0,0
30612,-250,4,2,1,60,0,0
31129,-100,4,2,1,60,0,0
31646,-250,4,2,1,60,0,0
32682,-100,4,2,1,60,0,0
33715,-250,4,2,1,60,0,0
34233,-100,4,2,1,60,0,0
35784,-250,4,2,1,60,0,0
36819,-100,4,2,1,60,0,0
37853,-250,4,2,1,60,0,0
38371,-100,4,2,1,60,0,0
39922,-250,4,2,1,60,0,0
40957,-100,4,2,1,60,0,0
41991,-250,4,2,1,60,0,0
42509,-100,4,2,1,60,0,0
44060,-250,4,2,1,60,0,0
45095,-100,4,2,1,60,0,0
46129,-250,4,2,1,60,0,0
46647,-100,4,2,1,60,0,0
49232,-250,4,2,1,60,0,0
49750,-250,4,2,1,50,0,0
65784,-100,4,2,1,60,0,0
66301,-100,4,2,1,70,0,0
91129,-100,4,2,1,60,0,0
97336,-250,4,2,1,50,0,0
98888,-250,4,2,1,70,0,0
99922,-250,4,2,1,80,0,1
102163,-250,4,2,1,5,0,1
102249,-250,4,2,1,80,0,1
108370,-250,4,2,1,5,0,1
108456,-250,4,2,1,80,0,1
110439,-250,4,2,1,5,0,1
110526,-250,4,2,1,80,0,1
115957,-100,4,2,1,60,0,0
132508,-100,4,2,1,70,0,0
140784,-100,4,2,1,60,0,0
148543,-250,4,2,1,70,0,0
149060,-250,4,2,1,50,0,0

[Colours]
Combo1 : 0,215,215
Combo2 : 255,159,207

[HitObjects]
420,326,95,5,4,0:0:0:0:
329,326,526,1,0,0:0:0:0:
256,326,870,1,0,0:0:0:0:
146,326,1388,1,0,0:0:0:0:
55,326,1819,1,0,0:0:0:0:
55,273,2077,5,0,0:0:0:0:
55,273,2163,1,0,0:0:0:0:
146,273,2595,2,0,L|185:273,1,33.3333333333333
270,273,3370,1,0,0:0:0:0:
380,273,3715,1,0,0:0:0:0:
416,273,3888,1,0,0:0:0:0:
452,273,4060,1,0,0:0:0:0:
488,273,4232,6,0,L|488:230,1,41.6666666666667,4|2,0:0|0:0,0:0:0:0:
488,102,5267,1,2,0:0:0:0:
432,102,5526,1,0,0:0:0:0:
432,156,5784,1,0,0:0:0:0:
432,192,5957,1,2,0:0:0:0:
377,192,6215,5,2,0:0:0:0:
377,192,6301,1,0,0:0:0:0:
285,192,6732,1,2,0:0:0:0:
285,265,7077,1,0,0:0:0:0:
229,265,7336,2,0,L|175:265,1,50,2|0,0:0|0:0,0:0:0:0:
69,265,8370,5,2,0:0:0:0:
69,173,8801,1,0,0:0:0:0:
142,173,9146,1,2,0:0:0:0:
252,173,9663,1,2,0:0:0:0:
343,173,10095,1,2,0:0:0:0:
343,118,10353,5,0,0:0:0:0:
343,118,10439,1,2,0:0:0:0:
251,118,10870,2,0,L|211:118,1,33.3333333333333,0|2,0:0|0:0,0:0:0:0:
126,118,11646,1,2,0:0:0:0:
52,118,11991,1,2,0:0:0:0:
52,81,12163,1,0,0:0:0:0:
52,44,12336,1,0,0:0:0:0:
52,7,12508,6,0,L|95:7,1,41.6666666666667,0|2,0:0|0:0,0:0:0:0:
222,7,13543,1,2,0:0:0:0:
222,62,13801,1,0,0:0:0:0:
276,62,14060,1,0,0:0:0:0:
276,98,14232,1,2,0:0:0:0:
276,152,14491,5,2,0:0:0:0:
276,152,14577,1,0,0:0:0:0:
367,152,15008,1,2,0:0:0:0:
367,225,15353,1,2,0:0:0:0:
422,225,15612,1,2,0:0:0:0:
422,280,15870,6,0,L|433:280,1,10,0|2,3:0|0:0,0:0:0:0:
422,335,16388,2,0,L|433:335,1,10,0|4,3:0|3:2,0:0:0:0:
367,335,16819,5,0,0:0:0:0:
367,335,16905,1,2,0:0:0:0:
312,335,17077,1,0,0:0:0:0:
312,335,17163,2,0,L|312:324,2,10,0|0|0,3:0|0:0|3:0,0:0:0:0:
256,335,17939,2,0,L|236:335,1,16.6666666666667,2|0,0:0|0:0,0:0:0:0:
138,335,18586,1,2,0:0:0:0:
138,270,18888,5,0,0:0:0:0:
138,270,18974,1,2,0:0:0:0:
193,270,19146,1,0,0:0:0:0:
193,270,19232,2,0,L|193:259,4,10,0|0|0|0|0,3:0|0:0|3:0|0:0|3:0,0:0:0:0:
248,270,20526,2,0,L|268:270,1,16.6666666666667,2|0,0:0|0:0,0:0:0:0:
319,270,20957,5,0,0:0:0:0:
319,270,21043,1,2,0:0:0:0:
319,215,21215,1,0,0:0:0:0:
319,215,21301,2,0,L|330:215,2,10,0|0|0,3:0|0:0|3:0,0:0:0:0:
263,215,22077,2,0,L|263:195,1,16.6666666666667,2|0,0:0|0:0,0:0:0:0:
263,143,22465,5,2,0:0:0:0:
263,143,22551,2,0,L|263:163,1,20.8333333333333,2|2,0:0|0:0,0:0:0:0:
263,87,23026,5,0,0:0:0:0:
263,87,23112,1,2,0:0:0:0:
208,87,23284,1,0,0:0:0:0:
208,87,23370,2,0,L|208:76,4,10,0|0|0|0|0,3:0|0:0|3:0|0:0|3:0,0:0:0:0:
208,142,24663,2,0,L|188:142,1,16.6666666666667,2|0,0:0|0:0,0:0:0:0:
136,142,25095,5,0,0:0:0:0:
136,142,25181,1,2,0:0:0:0:
136,197,25353,1,0,0:0:0:0:
136,197,25439,2,0,L|125:197,2,10,0|0|0,3:0|0:0|3:0,0:0:0:0:
136,253,26215,2,0,L|136:273,1,16.6666666666667,2|0,0:0|0:0,0:0:0:0:
136,370,26862,1,2,0:0:0:0:
200,370,27163,5,0,0:0:0:0:
200,370,27250,1,2,0:0:0:0:
200,315,27422,1,0,0:0:0:0:
200,315,27508,2,0,L|211:315,4,10,0|0|0|0|0,3:0|0:0|3:0|0:0|3:0,0:0:0:0:
200,260,28801,2,0,L|200:240,1,16.6666666666667,2|0,0:0|0:0,0:0:0:0:
200,188,29232,5,0,0:0:0:0:
200,188,29319,1,2,0:0:0:0:
255,188,29491,1,0,0:0:0:0:
255,188,29577,2,0,L|255:177,2,10,0|0|0,3:0|0:0|3:0,0:0:0:0:
255,244,30267,1,0,0:0:0:0:
255,244,30353,1,2,0:0:0:0:
310,244,30526,1,0,0:0:0:0:
310,244,30612,2,0,L|310:255,2,10,0|0|0,3:0|0:0|0:0,0:0:0:0:
310,188,31301,1,0,0:0:0:0:
310,188,31388,1,2,0:0:0:0:
365,188,31560,1,0,0:0:0:0:
365,188,31646,2,0,L|365:177,1,10,0|0,3:0|0:0,0:0:0:0:
365,244,32163,6,0,L|386:244,1,20,0|2,3:2|3:2,0:0:0:0:
495,244,33198,5,4,3:2:0:0:
495,188,33457,1,2,0:0:0:0:
439,188,33715,2,0,L|439:199,1,10,0|2,3:0|0:0,0:0:0:0:
439,132,34232,1,0,3:0:0:0:
383,132,34491,1,2,0:0:0:0:
327,132,34750,1,0,3:0:0:0:
327,77,34922,1,0,0:0:0:0:
327,77,35008,1,2,0:0:0:0:
271,77,35181,5,0,0:0:0:0:
271,77,35267,1,0,3:0:0:0:
215,77,35526,1,2,0:0:0:0:
215,133,35784,2,0,L|215:144,1,10,0|2,3:0|0:0,0:0:0:0:
159,133,36301,2,0,L|159:144,1,10,0|2,3:0|0:0,0:0:0:0:
103,133,36819,1,0,3:0:0:0:
103,78,36991,1,0,0:0:0:0:
103,78,37077,1,2,0:0:0:0:
47,78,37250,5,0,0:0:0:0:
47,78,37336,1,0,3:0:0:0:
47,133,37595,1,2,0:0:0:0:
47,189,37853,2,0,L|47:200,1,10,0|2,3:0|0:0,0:0:0:0:
103,189,38370,1,0,3:0:0:0:
103,244,38629,1,2,0:0:0:0:
158,244,38888,1,0,3:0:0:0:
158,298,39060,1,0,0:0:0:0:
158,298,39146,1,2,0:0:0:0:
214,298,39319,5,0,0:0:0:0:
214,298,39405,1,0,3:0:0:0:
268,298,39663,1,2,0:0:0:0:
268,242,39922,2,0,L|268:253,1,10,0|2,3:0|0:0,0:0:0:0:
324,242,40439,2,0,L|324:253,1,10,0|2,3:0|0:0,0:0:0:0:
379,242,40957,1,0,3:0:0:0:
379,296,41129,1,0,0:0:0:0:
379,296,41215,1,2,0:0:0:0:
434,296,41388,5,0,0:0:0:0:
434,296,41474,1,0,3:0:0:0:
488,296,41732,1,2,0:0:0:0:
488,240,41991,2,0,L|488:251,1,10,0|2,3:0|0:0,0:0:0:0:
432,240,42508,1,0,3:0:0:0:
432,184,42767,1,2,0:0:0:0:
487,184,43026,1,0,3:0:0:0:
487,129,43198,1,0,0:0:0:0:
487,129,43284,1,2,0:0:0:0:
431,129,43457,5,0,0:0:0:0:
431,129,43543,1,0,3:0:0:0:
432,184,43801,1,2,0:0:0:0:
376,184,44060,2,0,L|376:195,1,10,0|2,3:0|0:0,0:0:0:0:
375,129,44577,2,0,L|375:140,1,10,0|2,3:0|0:0,0:0:0:0:
319,129,45095,1,0,3:0:0:0:
319,183,45267,1,0,0:0:0:0:
319,183,45353,1,2,0:0:0:0:
263,183,45526,5,0,0:0:0:0:
263,183,45612,1,0,3:0:0:0:
263,237,45870,1,2,0:0:0:0:
319,237,46129,2,0,L|319:248,1,10,0|2,3:0|0:0,0:0:0:0:
319,183,46646,1,0,3:0:0:0:
319,129,46905,1,2,0:0:0:0:
264,129,47163,1,0,3:0:0:0:
208,129,47336,1,0,0:0:0:0:
208,129,47422,1,2,0:0:0:0:
208,184,47595,5,0,0:0:0:0:
208,184,47681,1,0,3:0:0:0:
208,238,47939,1,2,0:0:0:0:
152,238,48198,1,0,3:0:0:0:
152,293,48457,1,2,0:0:0:0:
124,293,48586,6,0,L|116:293,2,6.25,0|0|0,3:0|3:0|3:0,0:0:0:0:
124,348,48974,1,2,3:2:0:0:
151,348,49103,1,0,3:0:0:0:
178,348,49232,2,0,L|198:348,1,20,0|0,1:0|0:0,0:0:0:0:
198,348,51043,5,2,0:0:0:0:
198,348,51560,1,2,0:0:0:0:
198,348,51819,1,0,0:0:0:0:
198,348,52336,2,0,L|229:348,1,30,2|2,0:0|0:0,0:0:0:0:
228,348,53629,1,2,0:0:0:0:
228,348,53888,1,0,0:0:0:0:
228,348,54405,2,0,L|259:348,1,30,2|2,0:0|0:0,0:0:0:0:
258,348,55698,1,2,0:0:0:0:
258,348,55957,1,0,0:0:0:0:
258,348,56474,2,0,L|280:348,1,20,2|0,0:0|0:0,0:0:0:0:
278,348,57508,1,2,0:0:0:0:
278,348,58026,1,2,0:0:0:0:
278,348,58543,2,0,L|309:348,1,30,2|2,0:0|0:0,0:0:0:0:
308,348,59836,1,2,0:0:0:0:
308,348,60095,1,0,0:0:0:0:
308,348,60612,2,0,L|339:348,1,30,2|2,0:0|0:0,0:0:0:0:
338,348,61905,1,2,0:0:0:0:
338,348,62163,1,0,0:0:0:0:
338,348,62681,2,0,L|369:348,1,30,2|2,0:0|0:0,0:0:0:0:
368,348,63974,1,2,0:0:0:0:
368,348,64232,1,0,0:0:0:0:
368,348,64750,2,0,L|390:348,1,20,2|0,0:0|0:0,0:0:0:0:
388,348,65784,5,2,0:0:0:0:
424,348,65957,1,0,0:0:0:0:
460,348,66129,1,0,0:0:0:0:
496,348,66301,1,2,0:0:0:0:
496,256,66732,1,0,0:0:0:0:
422,256,67077,1,2,0:0:0:0:
311,256,67595,1,2,0:0:0:0:
219,256,68026,1,2,0:0:0:0:
219,201,68284,5,0,0:0:0:0:
219,201,68370,1,2,0:0:0:0:
310,201,68801,1,0,0:0:0:0:
383,201,69146,1,2,0:0:0:0:
474,201,69577,1,2,0:0:0:0:
474,127,69922,1,2,0:0:0:0:
437,127,70095,1,0,0:0:0:0:
400,127,70267,1,0,0:0:0:0:
363,127,70439,6,0,L|363:84,1,41.6666666666667,2|0,0:0|0:0,0:0:0:0:
234,85,71474,1,2,0:0:0:0:
234,139,71732,1,2,0:0:0:0:
178,139,71991,1,0,0:0:0:0:
141,139,72163,1,2,0:0:0:0:
141,194,72422,5,0,0:0:0:0:
141,194,72508,1,2,0:0:0:0:
49,194,72939,1,0,0:0:0:0:
49,267,73284,1,2,0:0:0:0:
104,267,73543,2,0,L|104:213,1,50,2|2,0:0|0:0,0:0:0:0:
104,107,74577,5,2,0:0:0:0:
196,107,75008,1,0,0:0:0:0:
196,180,75353,1,2,0:0:0:0:
306,180,75870,1,2,0:0:0:0:
306,271,76301,1,2,0:0:0:0:
251,271,76560,5,0,0:0:0:0:
251,271,76646,1,2,0:0:0:0:
251,179,77077,1,0,0:0:0:0:
324,179,77422,1,2,0:0:0:0:
324,87,77853,1,2,0:0:0:0:
250,87,78198,1,2,0:0:0:0:
213,87,78370,1,0,0:0:0:0:
176,87,78543,1,0,0:0:0:0:
139,87,78715,6,0,L|139:130,1,41.6666666666667,2|0,0:0|0:0,0:0:0:0:
139,257,79750,1,2,0:0:0:0:
193,257,80008,1,2,0:0:0:0:
193,201,80267,1,0,0:0:0:0:
157,201,80439,1,2,0:0:0:0:
101,201,80698,5,0,0:0:0:0:
101,201,80784,1,2,0:0:0:0:
101,109,81215,1,0,0:0:0:0:
28,109,81560,1,2,0:0:0:0:
28,164,81819,2,0,L|82:164,1,50,2|2,0:0|0:0,0:0:0:0:
187,164,82853,5,6,0:0:0:0:
187,164,83284,1,0,0:0:0:0:
187,237,83629,2,0,L|187:205,1,25,2|0,0:0|0:0,0:0:0:0:
242,212,84146,2,0,L|242:243,1,25,2|0,0:0|0:0,0:0:0:0:
242,273,84577,1,2,0:0:0:0:
297,273,84836,5,0,0:0:0:0:
297,273,84922,1,2,0:0:0:0:
297,181,85353,1,0,0:0:0:0:
370,181,85698,2,0,L|370:212,1,25,2|0,0:0|0:0,0:0:0:0:
370,242,86129,1,2,0:0:0:0:
370,315,86474,1,2,0:0:0:0:
406,315,86646,1,0,0:0:0:0:
406,278,86819,1,0,0:0:0:0:
442,278,86991,5,2,0:0:0:0:
442,278,87422,1,0,0:0:0:0:
442,149,88026,1,2,0:0:0:0:
442,94,88284,1,2,0:0:0:0:
386,94,88543,1,0,0:0:0:0:
349,94,88715,1,2,0:0:0:0:
349,38,88974,5,0,0:0:0:0:
349,38,89060,1,2,0:0:0:0:
257,38,89491,1,0,0:0:0:0:
257,111,89836,1,2,0:0:0:0:
201,111,90095,1,2,0:0:0:0:
201,111,90612,1,2,0:0:0:0:
201,220,91129,5,6,0:0:0:0:
292,220,91560,1,0,0:0:0:0:
292,220,91905,1,2,0:0:0:0:
401,220,92422,1,2,0:0:0:0:
401,220,92853,1,2,0:0:0:0:
401,275,93112,5,0,0:0:0:0:
401,275,93198,1,2,0:0:0:0:
309,275,93629,1,0,0:0:0:0:
309,275,93974,1,2,0:0:0:0:
199,275,94491,1,2,0:0:0:0:
199,275,94922,1,2,0:0:0:0:
199,330,95181,5,0,0:0:0:0:
199,330,95267,2,0,L|217:330,15,12.5
199,330,97336,1,0,0:0:0:0:
256,192,97465,12,2,98888,1:2:0:0:
60,326,99836,5,2,0:0:0:0:
60,326,100181,2,0,L|60:316,1,10,2|8,0:0|3:0,0:0:0:0:
116,326,100698,2,0,L|116:316,1,10,2|8,0:0|3:0,0:0:0:0:
172,326,101215,2,0,L|172:317,1,6.66666666666667,2|0,0:0|0:0,0:0:0:0:
228,326,101474,5,8,3:0:0:0:
284,326,101732,1,2,0:0:0:0:
284,326,101905,2,0,L|284:316,1,10,2|0,0:0|0:0,0:0:0:0:
340,326,102250,2,0,L|340:316,1,10,2|8,0:0|3:0,0:0:0:0:
396,326,102767,2,0,L|396:316,1,10,2|8,0:0|3:0,0:0:0:0:
452,326,103198,1,2,0:0:0:0:
452,326,103370,1,2,0:0:0:0:
452,326,103543,2,0,L|452:309,1,16.6666666666667,8|2,3:0|0:0,0:0:0:0:
396,192,104577,5,8,3:0:0:0:
396,192,104836,1,2,0:0:0:0:
340,192,105095,1,8,3:0:0:0:
340,192,105267,2,0,L|340:204,1,10,2|0,0:0|0:0,0:0:0:0:
284,192,105612,6,0,L|284:202,1,10,8|0,3:0|0:0,0:0:0:0:
228,192,106043,1,2,0:0:0:0:
228,192,106388,1,2,0:0:0:0:
172,192,106646,6,0,L|172:202,1,10,8|0,3:0|0:0,0:0:0:0:
116,192,107163,2,0,L|116:202,1,10,8|0,3:0|0:0,0:0:0:0:
4,58,107681,5,8,3:0:0:0:
60,58,107939,1,2,0:0:0:0:
60,58,108112,2,0,L|60:68,1,10,2|0,0:0|0:0,0:0:0:0:
116,58,108457,2,0,L|116:68,1,10,2|8,0:0|3:0,0:0:0:0:
172,58,108974,2,0,L|172:68,1,10,2|8,0:0|3:0,0:0:0:0:
228,58,109491,2,0,L|228:67,1,6.66666666666667,2|0,0:0|0:0,0:0:0:0:
284,58,109750,5,8,3:0:0:0:
340,58,110008,1,2,0:0:0:0:
340,58,110181,2,0,L|340:68,1,10,2|0,0:0|0:0,0:0:0:0:
396,58,110526,2,0,L|396:68,1,10,2|8,0:0|3:0,0:0:0:0:
452,58,111043,2,0,L|452:68,1,10,2|8,0:0|3:0,0:0:0:0:
508,58,111474,1,2,0:0:0:0:
508,58,111646,1,2,0:0:0:0:
508,58,111819,2,0,L|508:75,1,16.6666666666667,8|2,3:0|0:0,0:0:0:0:
396,192,112853,5,8,3:0:0:0:
396,192,113112,1,2,0:0:0:0:
340,192,113370,1,8,3:0:0:0:
340,192,113543,2,0,L|340:180,1,10,2|0,0:0|0:0,0:0:0:0:
284,192,113888,6,0,L|284:182,1,10,8|0,3:0|0:0,0:0:0:0:
228,192,114319,1,2,0:0:0:0:
228,192,114663,1,2,0:0:0:0:
172,192,114922,6,0,L|172:182,1,10,8|0,3:0|0:0,0:0:0:0:
116,192,115439,2,0,L|116:182,1,10,8|0,3:0|0:0,0:0:0:0:
60,192,115957,5,2,0:0:0:0:
60,283,116388,1,0,0:0:0:0:
60,283,116732,1,2,0:0:0:0:
170,283,117250,1,2,0:0:0:0:
170,283,117681,1,2,0:0:0:0:
170,337,117939,5,0,0:0:0:0:
170,337,118026,1,2,0:0:0:0:
79,337,118457,1,0,0:0:0:0:
79,337,118801,1,2,0:0:0:0:
79,245,119232,1,2,0:0:0:0:
152,245,119577,1,2,0:0:0:0:
188,245,119750,1,0,0:0:0:0:
188,208,119922,1,0,0:0:0:0:
224,208,120095,5,2,0:0:0:0:
315,208,120526,1,0,0:0:0:0:
315,134,120870,1,0,0:0:0:0:
370,134,121129,1,2,0:0:0:0:
370,189,121388,1,2,0:0:0:0:
424,189,121646,1,0,0:0:0:0:
460,189,121819,1,2,0:0:0:0:
460,134,122077,5,0,0:0:0:0:
460,134,122163,1,2,0:0:0:0:
370,134,122595,1,0,0:0:0:0:
370,207,122939,1,2,0:0:0:0:
314,207,123198,1,2,0:0:0:0:
314,207,123715,1,2,0:0:0:0:
314,97,124232,5,2,0:0:0:0:
222,97,124663,1,0,0:0:0:0:
222,97,125008,1,2,0:0:0:0:
222,207,125526,1,2,0:0:0:0:
222,207,125957,1,2,0:0:0:0:
277,207,126215,5,0,0:0:0:0:
277,207,126301,1,2,0:0:0:0:
277,299,126732,1,0,0:0:0:0:
277,299,127077,1,2,0:0:0:0:
185,299,127508,1,2,0:0:0:0:
111,299,127853,1,2,0:0:0:0:
111,263,128026,1,0,0:0:0:0:
74,263,128198,1,0,0:0:0:0:
74,227,128370,5,2,0:0:0:0:
165,227,128801,1,0,0:0:0:0:
165,153,129146,1,0,0:0:0:0:
110,153,129405,1,2,0:0:0:0:
110,208,129663,1,2,0:0:0:0:
56,208,129922,1,0,0:0:0:0:
20,208,130095,1,2,0:0:0:0:
20,153,130353,5,0,0:0:0:0:
20,153,130439,1,2,0:0:0:0:
110,153,130870,1,0,0:0:0:0:
110,79,131215,1,2,0:0:0:0:
165,79,131474,1,2,0:0:0:0:
165,79,131991,1,2,0:0:0:0:
165,188,132508,5,6,0:0:0:0:
256,188,132939,1,0,0:0:0:0:
256,114,133284,1,2,0:0:0:0:
365,114,133801,1,2,0:0:0:0:
365,205,134232,1,2,0:0:0:0:
309,205,134491,5,0,0:0:0:0:
309,205,134577,1,2,0:0:0:0:
309,113,135008,1,0,0:0:0:0:
382,113,135353,1,2,0:0:0:0:
382,204,135784,1,2,0:0:0:0:
455,204,136129,1,2,0:0:0:0:
455,241,136301,1,0,0:0:0:0:
419,241,136474,1,0,0:0:0:0:
419,278,136646,5,2,0:0:0:0:
327,278,137077,1,0,0:0:0:0:
327,351,137422,1,0,0:0:0:0:
271,351,137681,1,2,0:0:0:0:
271,296,137939,1,2,0:0:0:0:
215,296,138198,1,0,0:0:0:0:
178,296,138370,1,2,0:0:0:0:
178,351,138629,5,0,0:0:0:0:
178,351,138715,1,2,0:0:0:0:
86,351,139146,1,0,0:0:0:0:
86,277,139491,1,2,0:0:0:0:
30,277,139750,1,2,0:0:0:0:
30,277,140267,1,2,0:0:0:0:
30,167,140784,5,6,0:0:0:0:
121,167,141215,1,0,0:0:0:0:
121,167,141560,1,2,0:0:0:0:
230,167,142077,1,2,0:0:0:0:
230,167,142508,1,2,0:0:0:0:
230,224,142767,5,0,0:0:0:0:
230,224,142853,1,2,0:0:0:0:
321,224,143284,1,0,0:0:0:0:
321,224,143629,1,2,0:0:0:0:
412,224,144060,1,0,0:0:0:0:
485,224,144405,1,2,0:0:0:0:
485,224,144577,1,0,0:0:0:0:
485,224,144750,1,0,0:0:0:0:
485,224,144922,5,2,0:0:0:0:
485,132,145353,1,0,0:0:0:0:
356,132,145957,1,2,0:0:0:0:
356,187,146215,1,2,0:0:0:0:
411,187,146474,1,0,0:0:0:0:
411,224,146646,1,2,0:0:0:0:
466,224,146905,5,0,0:0:0:0:
466,224,146991,1,2,0:0:0:0:
466,315,147422,1,0,0:0:0:0:
392,315,147767,1,2,0:0:0:0:
392,259,148026,1,2,0:0:0:0:
312,259,148413,5,0,3:0:0:0:
312,259,148543,2,0,L|312:282,1,20,0|0,1:0|0:0,0:0:0:0:
256,192,151129,5,2,0:0:0:0:
256,192,152422,1,2,0:0:0:0:
256,192,152939,1,2,0:0:0:0:
256,192,153198,1,6,3:2:0:0:
