osu file format v14

[General]
AudioFilename: audio.mp3
AudioLeadIn: 0
PreviewTime: 98888
Countdown: 0
SampleSet: Soft
StackLeniency: 0.2
Mode: 0
LetterboxInBreaks: 0
WidescreenStoryboard: 1

[Editor]
DistanceSpacing: 2.4
BeatDivisor: 4
GridSize: 4
TimelineZoom: 1

[Metadata]
Title:Beat Cannon (KHTP Remix)
TitleUnicode:Beat Cannon (KHTP Remix)
Artist:eFeL remixed by KHTP
ArtistUnicode:eFeL remixed by KHTP
Creator:ktgster
Version:Hard
Source:
Tags:Be-Music Source Script BMS konzertsaal THE OF FIGHTERS 2013 BOF2013 Team COLORTRONICS Ruby.G p.o.o. Trance Hop Videogame Video Game Electronic Instrumental
BeatmapID:2775170
BeatmapSetID:1240125

[Difficulty]
HPDrainRate:4
CircleSize:5.5
OverallDifficulty:5
ApproachRate:3
SliderMultiplier:0.5
SliderTickRate:1

[Events]
//Background and Video events
0,0,"_title.jpg",0,0
//Break Periods
2,49950,64861
//Storyboard Layer 0 (Background)
//Storyboard Layer 1 (Fail)
//Storyboard Layer 2 (Pass)
//Storyboard Layer 3 (Foreground)
//Storyboard Layer 4 (Overlay)
//Storyboard Sound Samples

[TimingPoints]
95,517.241379310345,4,2,1,50,1,0
15870,-100,4,2,1,60,0,0
49750,-100,4,2,1,50,0,0
66301,-100,4,2,1,70,0,0
91129,-100,4,2,1,60,0,0
95267,-100,4,2,1,50,0,0
98888,-100,4,2,1,70,0,0
99922,-100,4,2,1,80,0,1
115957,-100,4,2,1,60,0,0
132508,-100,4,2,1,70,0,0
140784,-100,4,2,1,60,0,0
148413,-100,4,2,1,70,0,0
149060,-100,4,2,1,50,0,0

[Colours]
Combo1 : 0,215,215
Combo2 : 255,159,207

[HitObjects]
437,344,95,5,4,0:0:0:0:
337,344,526,2,0,L|301:344,1,33.3333333333333
183,344,1388,1,0,0:0:0:0:
83,344,1819,1,0,0:0:0:0:
26,344,2077,5,0,0:0:0:0:
26,344,2163,1,0,0:0:0:0:
26,243,2595,2,0,L|62:243,1,33.3333333333333
159,243,3370,1,0,0:0:0:0:
239,243,3715,2,0,L|259:243,2,16.6666666666667
239,202,4232,6,0,L|239:159,1,41.6666666666667,4|2,0:0|0:0,0:0:0:0:
239,20,5267,1,2,0:0:0:0:
178,20,5526,1,0,0:0:0:0:
178,79,5784,2,0,L|178:99,1,16.6666666666667,0|2,0:0|0:0,0:0:0:0:
120,95,6215,5,2,0:0:0:0:
120,95,6301,2,0,L|120:137,1,41.6666666666667,0|2,0:0|0:0,0:0:0:0:
176,193,7077,1,0,0:0:0:0:
236,193,7336,2,0,L|236:245,1,50,2|0,0:0|0:0,0:0:0:0:
236,362,8370,5,2,0:0:0:0:
335,362,8801,2,0,L|371:362,1,33.3333333333333,0|2,0:0|0:0,0:0:0:0:
488,362,9663,1,2,0:0:0:0:
488,262,10095,1,2,0:0:0:0:
488,204,10353,5,0,0:0:0:0:
488,204,10439,1,2,0:0:0:0:
387,204,10870,2,0,L|351:204,1,33.3333333333333,0|2,0:0|0:0,0:0:0:0:
253,204,11646,1,2,0:0:0:0:
172,204,11991,2,0,L|151:204,2,16.6666666666667,2|0|0,0:0|0:0|0:0,0:0:0:0:
172,163,12508,6,0,L|172:120,1,41.6666666666667,0|2,0:0|0:0,0:0:0:0:
312,121,13543,1,2,0:0:0:0:
373,121,13801,1,0,0:0:0:0:
373,180,14060,2,0,L|373:200,1,16.6666666666667,0|2,0:0|0:0,0:0:0:0:
315,196,14491,5,2,0:0:0:0:
315,196,14577,2,0,L|315:238,1,41.6666666666667,0|2,0:0|0:0,0:0:0:0:
234,237,15353,1,2,0:0:0:0:
234,297,15612,2,0,L|234:323,3,25,2|0|2|0,0:0|3:0|0:0|3:0,0:0:0:0:
173,322,16646,5,4,3:2:0:0:
173,261,16905,1,2,0:0:0:0:
113,261,17163,2,0,L|83:261,2,25,0|0|0,3:0|0:0|3:0,0:0:0:0:
113,200,17939,2,0,L|113:179,1,16.6666666666667,2|0,0:0|0:0,0:0:0:0:
113,73,18586,1,2,0:0:0:0:
186,73,18888,5,0,0:0:0:0:
186,73,18974,1,2,0:0:0:0:
186,132,19232,2,0,L|186:161,1,25,0|0,3:0|0:0,0:0:0:0:
246,157,19750,2,0,L|246:127,1,25,0|0,3:0|0:0,0:0:0:0:
246,71,20267,1,0,3:0:0:0:
306,71,20526,2,0,L|327:71,1,16.6666666666667,2|0,0:0|0:0,0:0:0:0:
385,71,20957,5,0,0:0:0:0:
385,71,21043,1,2,0:0:0:0:
385,130,21301,2,0,L|385:160,2,25,0|0|0,3:0|0:0|3:0,0:0:0:0:
324,130,22077,2,0,L|303:130,1,16.6666666666667,2|0,0:0|0:0,0:0:0:0:
307,270,22853,5,0,0:0:0:0:
246,270,23112,1,2,0:0:0:0:
246,210,23370,2,0,L|246:181,1,25,0|0,3:0|0:0,0:0:0:0:
186,185,23888,2,0,L|186:215,1,25,0|0,3:0|0:0,0:0:0:0:
186,271,24405,1,0,3:0:0:0:
126,271,24663,2,0,L|105:271,1,16.6666666666667,2|0,0:0|0:0,0:0:0:0:
52,271,25095,5,0,0:0:0:0:
52,271,25181,1,2,0:0:0:0:
52,211,25439,2,0,L|52:181,2,25,0|0|0,3:0|0:0|3:0,0:0:0:0:
112,211,26215,2,0,L|133:211,1,16.6666666666667,2|0,0:0|0:0,0:0:0:0:
248,211,26862,1,2,0:0:0:0:
248,144,27163,5,0,0:0:0:0:
248,144,27250,1,2,0:0:0:0:
189,144,27508,2,0,L|160:144,1,25,0|0,3:0|0:0,0:0:0:0:
164,84,28026,2,0,L|194:84,1,25,0|0,3:0|0:0,0:0:0:0:
250,84,28543,1,0,3:0:0:0:
250,24,28801,2,0,L|250:3,1,16.6666666666667,2|0,0:0|0:0,0:0:0:0:
313,7,29232,5,0,0:0:0:0:
313,7,29319,1,2,0:0:0:0:
313,66,29577,2,0,L|342:66,2,25,0|0|0,3:0|0:0|3:0,0:0:0:0:
313,126,30353,1,2,0:0:0:0:
313,186,30612,2,0,L|284:186,2,25,0|0|0,3:0|0:0|0:0,0:0:0:0:
313,246,31388,1,2,0:0:0:0:
313,305,31646,2,0,L|342:305,1,25,0|0,3:0|0:0,0:0:0:0:
338,365,32163,2,0,L|288:365,1,50,0|2,3:2|3:2,0:0:0:0:
167,365,33198,5,4,3:2:0:0:
106,365,33457,1,2,0:0:0:0:
106,305,33715,2,0,L|135:305,1,25,0|2,3:0|0:0,0:0:0:0:
191,305,34232,1,0,3:0:0:0:
191,244,34491,1,2,0:0:0:0:
130,244,34750,1,0,3:0:0:0:
70,244,35008,1,2,0:0:0:0:
70,186,35267,5,0,3:0:0:0:
70,125,35526,1,2,0:0:0:0:
129,125,35784,2,0,L|129:154,1,25,0|2,3:0|0:0,0:0:0:0:
189,150,36301,2,0,L|189:121,1,25,0|2,3:0|0:0,0:0:0:0:
189,64,36819,1,0,3:0:0:0:
248,64,37077,1,2,0:0:0:0:
248,124,37336,5,0,3:0:0:0:
248,185,37595,1,2,0:0:0:0:
308,185,37853,2,0,L|308:156,1,25,0|2,3:0|0:0,0:0:0:0:
308,100,38370,1,0,3:0:0:0:
308,39,38629,1,2,0:0:0:0:
368,39,38888,1,0,3:0:0:0:
431,39,39146,1,2,0:0:0:0:
431,99,39405,5,0,3:0:0:0:
370,99,39663,1,2,0:0:0:0:
370,158,39922,2,0,L|399:158,1,25,0|2,3:0|0:0,0:0:0:0:
395,218,40439,2,0,L|366:218,1,25,0|2,3:0|0:0,0:0:0:0:
309,218,40957,1,0,3:0:0:0:
309,277,41215,1,2,0:0:0:0:
310,338,41474,5,0,3:0:0:0:
249,338,41732,1,2,0:0:0:0:
249,278,41991,2,0,L|249:249,1,25,0|2,3:0|0:0,0:0:0:0:
249,192,42508,1,0,3:0:0:0:
188,192,42767,1,2,0:0:0:0:
188,252,43026,1,0,3:0:0:0:
188,315,43284,1,2,0:0:0:0:
127,315,43543,5,0,3:0:0:0:
66,315,43801,1,2,0:0:0:0:
66,255,44060,2,0,L|37:255,1,25,0|2,3:0|0:0,0:0:0:0:
41,194,44577,2,0,L|70:194,1,25,0|2,3:0|0:0,0:0:0:0:
126,194,45095,1,0,3:0:0:0:
126,135,45353,1,2,0:0:0:0:
126,74,45612,5,0,3:0:0:0:
187,74,45870,1,2,0:0:0:0:
187,134,46129,2,0,L|187:163,1,25,0|2,3:0|0:0,0:0:0:0:
187,220,46646,1,0,3:0:0:0:
248,220,46905,1,2,0:0:0:0:
248,160,47163,1,0,3:0:0:0:
248,97,47422,1,2,0:0:0:0:
309,97,47681,5,0,3:0:0:0:
309,97,48198,1,0,3:0:0:0:
309,97,48715,2,0,L|309:126,1,25,0|2,3:0|3:2,0:0:0:0:
309,182,49232,1,0,1:0:0:0:
368,182,49491,1,0,0:0:0:0:
368,121,49750,1,0,0:0:0:0:
97,333,66301,5,2,0:0:0:0:
196,333,66732,2,0,L|231:333,1,33.3333333333333,0|2,0:0|0:0,0:0:0:0:
349,333,67595,1,2,0:0:0:0:
448,333,68026,1,2,0:0:0:0:
448,275,68284,5,0,0:0:0:0:
448,275,68370,1,2,0:0:0:0:
349,275,68801,2,0,L|313:275,1,33.3333333333333,0|2,0:0|0:0,0:0:0:0:
215,275,69577,1,2,0:0:0:0:
134,275,69922,2,0,L|113:275,2,16.6666666666667,2|0|0,0:0|0:0|0:0,0:0:0:0:
134,234,70439,6,0,L|134:191,1,41.6666666666667,2|0,0:0|0:0,0:0:0:0:
134,52,71474,1,2,0:0:0:0:
195,52,71732,1,2,0:0:0:0:
195,111,71991,2,0,L|195:131,1,16.6666666666667,0|2,0:0|0:0,0:0:0:0:
258,127,72422,5,0,0:0:0:0:
258,127,72508,2,0,L|258:169,1,41.6666666666667,2|0,0:0|0:0,0:0:0:0:
339,168,73284,1,2,0:0:0:0:
339,228,73543,2,0,L|339:254,1,25,2|0,0:0|0:0,0:0:0:0:
398,253,74060,2,0,L|398:279,1,25,2|0,0:0|0:0,0:0:0:0:
398,338,74577,5,2,0:0:0:0:
299,338,75008,2,0,L|264:338,1,33.3333333333333,0|2,0:0|0:0,0:0:0:0:
146,338,75870,1,2,0:0:0:0:
47,338,76301,1,2,0:0:0:0:
47,280,76560,5,0,0:0:0:0:
47,280,76646,1,2,0:0:0:0:
146,280,77077,2,0,L|182:280,1,33.3333333333333,0|2,0:0|0:0,0:0:0:0:
280,280,77853,1,2,0:0:0:0:
361,280,78198,2,0,L|382:280,2,16.6666666666667,2|0|0,0:0|0:0|0:0,0:0:0:0:
361,239,78715,6,0,L|361:196,1,41.6666666666667,2|0,0:0|0:0,0:0:0:0:
361,57,79750,1,2,0:0:0:0:
300,57,80008,1,2,0:0:0:0:
300,116,80267,2,0,L|300:136,1,16.6666666666667,0|2,0:0|0:0,0:0:0:0:
237,132,80698,5,0,0:0:0:0:
237,132,80784,2,0,L|237:174,1,41.6666666666667,2|0,0:0|0:0,0:0:0:0:
156,173,81560,1,2,0:0:0:0:
156,233,81819,2,0,L|156:259,1,25,2|0,0:0|0:0,0:0:0:0:
97,258,82336,2,0,L|97:284,1,25,2|0,0:0|0:0,0:0:0:0:
97,343,82853,5,6,0:0:0:0:
196,343,83284,1,0,0:0:0:0:
276,343,83629,2,0,L|304:343,1,25,2|0,0:0|0:0,0:0:0:0:
361,343,84146,2,0,L|389:343,1,25,2|0,0:0|0:0,0:0:0:0:
426,343,84577,1,2,0:0:0:0:
426,285,84836,5,0,0:0:0:0:
426,285,84922,1,2,0:0:0:0:
326,285,85353,1,0,0:0:0:0:
245,285,85698,2,0,L|217:285,1,25,2|0,0:0|0:0,0:0:0:0:
179,285,86129,1,2,0:0:0:0:
98,285,86474,2,0,L|77:285,2,16.6666666666667,2|0|0,0:0|0:0|0:0,0:0:0:0:
98,244,86991,6,0,L|98:201,1,41.6666666666667,2|0,0:0|0:0,0:0:0:0:
98,62,88026,1,2,0:0:0:0:
158,62,88284,1,2,0:0:0:0:
158,122,88543,2,0,L|178:122,1,16.6666666666667,0|2,0:0|0:0,0:0:0:0:
238,122,88974,5,0,0:0:0:0:
238,122,89060,2,0,L|238:80,1,41.6666666666667,2|0,0:0|0:0,0:0:0:0:
318,80,89836,1,2,0:0:0:0:
318,140,90095,2,0,L|318:166,1,25,2|0,0:0|0:0,0:0:0:0:
377,165,90612,2,0,L|377:191,1,25,2|0,0:0|0:0,0:0:0:0:
377,250,91129,5,6,0:0:0:0:
277,250,91560,1,0,0:0:0:0:
196,250,91905,1,2,0:0:0:0:
76,250,92422,2,0,L|34:250,1,41.6666666666667,2|2,0:0|0:0,0:0:0:0:
34,312,93112,5,0,0:0:0:0:
34,312,93198,1,2,0:0:0:0:
134,312,93629,1,0,0:0:0:0:
215,312,93974,1,2,0:0:0:0:
334,312,94491,2,0,L|376:312,1,41.6666666666667,2|2,0:0|0:0,0:0:0:0:
438,312,95181,1,0,0:0:0:0:
438,312,95267,1,0,0:0:0:0:
256,192,95396,12,2,98888,1:2:0:0:
213,23,99922,6,0,L|213:49,1,25,8|2,3:0|0:0,0:0:0:0:
171,90,100439,2,0,L|171:116,1,25,8|2,3:0|0:0,0:0:0:0:
129,157,100957,2,0,L|129:183,1,25,8|2,3:0|0:0,0:0:0:0:
86,225,101388,1,0,0:0:0:0:
86,225,101474,1,8,3:0:0:0:
213,316,101991,6,0,L|213:290,1,25,8|2,3:0|0:0,0:0:0:0:
171,249,102508,2,0,L|171:223,1,25,8|2,3:0|0:0,0:0:0:0:
129,182,103026,2,0,L|129:158,2,16.6666666666667,8|2|2,3:0|0:0|0:0,0:0:0:0:
100,210,103543,6,0,L|100:252,1,41.6666666666667,8|2,3:0|0:0,0:0:0:0:
198,350,104577,1,8,3:0:0:0:
240,307,104836,1,2,0:0:0:0:
197,264,105095,1,8,3:0:0:0:
197,264,105267,2,0,L|197:227,1,33.3333333333333,2|8,0:0|3:0,0:0:0:0:
267,159,106043,1,2,0:0:0:0:
323,215,106388,1,2,0:0:0:0:
280,257,106646,2,0,L|280:286,1,25,8|0,3:0|0:0,0:0:0:0:
322,324,107163,2,0,L|322:355,1,25,8|0,3:0|0:0,0:0:0:0:
382,349,107681,5,8,3:0:0:0:
382,349,108198,2,0,L|382:323,1,25,8|2,3:0|0:0,0:0:0:0:
424,282,108715,2,0,L|424:256,1,25,8|2,3:0|0:0,0:0:0:0:
466,215,109232,2,0,L|466:189,1,25,8|2,3:0|0:0,0:0:0:0:
509,147,109663,1,0,0:0:0:0:
509,147,109750,1,8,3:0:0:0:
382,56,110267,6,0,L|382:82,1,25,8|2,3:0|0:0,0:0:0:0:
424,123,110784,2,0,L|424:149,1,25,8|2,3:0|0:0,0:0:0:0:
466,190,111301,2,0,L|466:213,2,16.6666666666667,8|2|2,3:0|0:0|0:0,0:0:0:0:
495,162,111819,6,0,L|495:120,1,41.6666666666667,8|2,3:0|0:0,0:0:0:0:
397,22,112853,1,8,3:0:0:0:
355,65,113112,1,2,0:0:0:0:
398,108,113370,1,8,3:0:0:0:
398,108,113543,2,0,L|398:144,1,33.3333333333333,2|8,0:0|3:0,0:0:0:0:
328,213,114319,1,2,0:0:0:0:
272,157,114663,1,2,0:0:0:0:
315,115,114922,2,0,L|315:85,1,25,8|0,3:0|0:0,0:0:0:0:
273,48,115439,2,0,L|273:16,1,25,8|0,3:0|0:0,0:0:0:0:
212,23,115957,5,2,0:0:0:0:
212,122,116388,1,0,0:0:0:0:
212,122,116732,1,2,0:0:0:0:
212,242,117250,1,2,0:0:0:0:
212,242,117681,1,2,0:0:0:0:
154,242,117939,5,0,0:0:0:0:
154,242,118026,1,2,0:0:0:0:
154,142,118457,1,0,0:0:0:0:
154,142,118801,1,2,0:0:0:0:
154,42,119232,1,2,0:0:0:0:
73,42,119577,2,0,L|51:42,2,16.6666666666667,2|0|0,0:0|0:0|0:0,0:0:0:0:
73,82,120095,6,0,L|73:124,1,41.6666666666667,2|0,0:0|0:0,0:0:0:0:
73,203,120870,1,0,0:0:0:0:
73,203,121129,2,0,L|73:233,1,25,2|2,0:0|0:0,0:0:0:0:
73,288,121646,2,0,L|73:308,1,16.6666666666667,0|2,0:0|0:0,0:0:0:0:
118,350,122077,5,0,0:0:0:0:
118,350,122163,1,2,0:0:0:0:
188,279,122595,1,0,0:0:0:0:
244,335,122939,1,2,0:0:0:0:
286,292,123198,1,2,0:0:0:0:
286,292,123715,1,2,0:0:0:0:
370,376,124232,5,2,0:0:0:0:
370,277,124663,1,0,0:0:0:0:
370,277,125008,1,2,0:0:0:0:
370,157,125526,1,2,0:0:0:0:
370,157,125957,1,2,0:0:0:0:
312,157,126215,5,0,0:0:0:0:
312,157,126301,1,2,0:0:0:0:
312,257,126732,1,0,0:0:0:0:
312,257,127077,1,2,0:0:0:0:
312,357,127508,1,2,0:0:0:0:
231,357,127853,2,0,L|209:357,2,16.6666666666667,2|0|0,0:0|0:0|0:0,0:0:0:0:
231,317,128370,6,0,L|231:275,1,41.6666666666667,2|0,0:0|0:0,0:0:0:0:
231,196,129146,1,0,0:0:0:0:
231,196,129405,2,0,L|231:166,1,25,2|2,0:0|0:0,0:0:0:0:
231,111,129922,2,0,L|231:91,1,16.6666666666667,0|2,0:0|0:0,0:0:0:0:
276,49,130353,5,0,0:0:0:0:
276,49,130439,1,2,0:0:0:0:
346,120,130870,1,0,0:0:0:0:
402,64,131215,1,2,0:0:0:0:
444,107,131474,1,2,0:0:0:0:
444,107,131991,1,2,0:0:0:0:
444,227,132508,6,0,L|402:227,1,41.6666666666667,6|0,0:0|0:0,0:0:0:0:
322,227,133284,1,2,0:0:0:0:
322,227,133801,1,2,0:0:0:0:
261,227,134060,2,0,L|231:227,1,25,2|0,0:0|0:0,0:0:0:0:
236,290,134491,5,0,0:0:0:0:
236,290,134577,1,2,0:0:0:0:
136,290,135008,1,0,0:0:0:0:
136,290,135353,1,2,0:0:0:0:
36,290,135784,1,2,0:0:0:0:
36,209,136129,2,0,L|58:209,2,16.6666666666667,2|0|0,0:0|0:0|0:0,0:0:0:0:
36,169,136646,6,0,L|36:127,1,41.6666666666667,2|0,0:0|0:0,0:0:0:0:
115,154,137422,1,0,0:0:0:0:
115,154,137681,2,0,L|115:184,1,25,2|2,0:0|0:0,0:0:0:0:
115,239,138198,2,0,L|115:259,1,16.6666666666667,0|2,0:0|0:0,0:0:0:0:
160,301,138629,5,0,0:0:0:0:
160,301,138715,1,2,0:0:0:0:
230,230,139146,1,0,0:0:0:0:
173,173,139491,1,2,0:0:0:0:
215,130,139750,1,2,0:0:0:0:
215,130,140267,1,2,0:0:0:0:
334,130,140784,6,0,L|376:130,1,41.6666666666667,6|0,0:0|0:0,0:0:0:0:
456,130,141560,1,2,0:0:0:0:
456,130,142077,2,0,L|498:130,1,41.6666666666667,2|2,0:0|0:0,0:0:0:0:
497,192,142767,5,0,0:0:0:0:
497,192,142853,1,2,0:0:0:0:
397,192,143284,1,0,0:0:0:0:
397,192,143629,2,0,L|354:192,1,41.6666666666667,2|0,0:0|0:0,0:0:0:0:
355,272,144405,2,0,L|377:272,2,16.6666666666667,2|0|0,0:0|0:0|0:0,0:0:0:0:
314,272,144922,6,0,L|314:229,1,41.6666666666667,2|0,0:0|0:0,0:0:0:0:
314,90,145957,1,2,0:0:0:0:
254,90,146215,1,2,0:0:0:0:
254,150,146474,2,0,L|254:170,1,16.6666666666667,0|2,0:0|0:0,0:0:0:0:
254,229,146905,5,0,0:0:0:0:
254,229,146991,1,2,0:0:0:0:
184,158,147422,1,0,0:0:0:0:
241,101,147767,1,2,0:0:0:0:
199,58,148026,1,2,0:0:0:0:
101,58,148413,5,0,3:0:0:0:
101,58,148543,2,0,L|101:113,1,50,0|0,1:0|0:0,0:0:0:0:
256,192,151129,5,2,0:0:0:0:
256,192,152422,1,2,0:0:0:0:
256,192,152939,1,2,0:0:0:0:
256,252,153198,1,6,3:2:0:0:
