osu file format v14

[General]
AudioFilename: audio.mp3
AudioLeadIn: 0
PreviewTime: 22634
Countdown: 0
SampleSet: Soft
StackLeniency: 0.7
Mode: 0
LetterboxInBreaks: 0
WidescreenStoryboard: 0

[Editor]
Bookmarks: 691,11662,21262,41148,41834,48691,59662,70634,76120,82977,99434,102177,104920
DistanceSpacing: 1
BeatDivisor: 4
GridSize: 4
TimelineZoom: 3.399998

[Metadata]
Title:CaptivAte2 ~kakusei~
TitleUnicode:CaptivAte2~覚醒~
Artist:e-lma
ArtistUnicode:e-lma
Creator:felys
Version:Standard
Source:beatmania IIDX 16 EMPRESS
Tags:Leader EvilElvis NOSTALGISH REQUIEM ERi 朱雀 Suzaku DJ YOSHITAKA Jounzan Konami v2
BeatmapID:1050660
BeatmapSetID:492877

[Difficulty]
HPDrainRate:2
CircleSize:3
OverallDifficulty:3
ApproachRate:4
SliderMultiplier:1
SliderTickRate:1

[Events]
//Background and Video events
0,0,"captivate.jpg",0,0
//Break Periods
2,48691,58291
//Storyboard Layer 0 (Background)
//Storyboard Layer 1 (Fail)
//Storyboard Layer 2 (Pass)
//Storyboard Layer 3 (Foreground)
//Storyboard Sound Samples

[TimingPoints]
-680,342.857142857143,4,2,1,60,1,0
691,-125,4,2,1,60,0,0
11662,-125,4,2,1,60,0,0
22634,-100,4,2,1,60,0,0
59662,-125,4,2,1,60,0,0
82977,-100,4,2,1,60,0,0

[Colours]
Combo1 : 190,183,255
Combo2 : 183,255,255
Combo3 : 166,206,255
Combo4 : 111,255,183

[HitObjects]
174,350,348,5,2,0:0:0:0:
254,313,691,2,0,P|317:301|380:313,2,120,4|2|2,0:0|0:0|0:0,0:0:0:0:
254,313,2748,1,2,0:0:0:0:
271,226,3091,1,2,0:0:0:0:
240,143,3434,6,0,P|177:131|114:143,2,120,2|2|2,0:0|0:0|0:0,0:0:0:0:
240,143,5834,1,2,0:0:0:0:
318,182,6177,6,0,L|450:166,2,120,2|2|2,0:0|0:0|0:0,0:0:0:0:
252,240,7548,2,0,B|233:297|269:297|252:367,2,120,2|2|0,0:0|0:0|0:0,0:0:0:0:
335,269,8920,1,2,0:0:0:0:
257,194,10291,6,0,P|264:234|240:282,1,80
172,228,10977,2,0,P|164:188|179:150,1,80
257,194,11662,6,0,B|305:210|305:210|423:186,1,160,4|0,1:2|0:0,0:0:0:0:
461,115,12691,1,0,1:0:0:0:
373,108,13034,2,0,P|340:138|346:251,1,160,0|2,0:0|0:0,0:0:0:0:
408,303,14062,1,0,1:0:0:0:
329,342,14405,6,0,L|166:335,1,160,4|0,0:0|0:0,0:0:0:0:
99,281,15434,1,0,1:0:0:0:
170,229,15777,2,0,B|189:151|189:151|159:64,1,160,0|2,0:0|0:0,0:0:0:0:
250,82,16805,1,0,1:0:0:0:
263,169,17148,6,0,P|303:190|409:150,1,160,4|0,1:0|1:0,0:0:0:0:
457,85,18177,2,0,L|472:32,2,40,0|2|0,1:0|0:0|1:0,0:0:0:0:
405,155,18862,1,0,1:0:0:0:
437,238,19205,1,0,1:0:0:0:
398,317,19548,1,0,1:0:0:0:
312,339,19891,6,0,P|238:320|148:349,1,160,0|0,1:0|1:0,0:0:0:0:
102,274,20920,2,0,L|106:234,1,40,0|4,1:0|0:0,0:0:0:0:
114,191,21262,1,4,1:0:0:0:
114,191,22634,6,0,P|185:206|247:165,1,150,6|2,1:0|1:0,0:0:0:0:
310,76,23491,1,2,0:0:0:0:
310,76,23662,2,0,L|462:77,1,150,2|2,1:0|1:0,0:0:0:0:
482,174,24520,1,2,0:0:0:0:
482,174,24691,2,0,P|466:220|455:282,1,100,2|10,1:0|1:0,0:0:0:0:
384,340,25377,6,0,L|224:330,1,150,14|2,1:0|1:0,0:0:0:0:
143,287,26234,1,2,0:0:0:0:
143,287,26405,2,0,P|137:222|137:86,1,200,2|0,1:0|1:0,0:0:0:0:
224,148,27434,2,0,P|272:157|323:128,1,100,2|8,1:0|1:0,0:0:0:0:
356,49,28120,6,0,P|406:103|366:221,1,200,14|0,1:0|1:0,0:0:0:0:
316,297,29148,1,0,1:0:0:0:
401,348,29491,2,0,B|310:312|310:312|192:337,1,200,6|0,1:0|0:0,0:0:0:0:
113,360,30520,1,10,1:0:0:0:
42,288,30862,6,0,L|54:169,1,100,14|0,1:0|1:0,0:0:0:0:
141,146,31548,2,0,L|240:156,1,100,14|0,1:0|1:0,0:0:0:0:
233,256,32234,1,0,1:0:0:0:
133,246,32577,1,2,1:0:0:0:
141,146,32920,2,0,P|116:111|64:85,1,100,2|10,1:0|1:0,0:0:0:0:
159,27,33605,6,0,L|374:18,1,200,14|0,1:0|1:0,0:0:0:0:
337,126,34634,1,2,1:0:0:0:
436,78,34977,2,0,B|468:182|393:182|418:277,1,200,0|2,1:0|1:0,0:0:0:0:
512,287,36005,1,10,1:0:0:0:
450,365,36348,6,0,L|241:344,1,200,10|0,1:0|1:0,0:0:0:0:
151,361,37377,1,2,1:0:0:0:
78,292,37720,2,0,B|71:246|89:215|89:215|66:164|66:164|78:133|80:90,1,200,0|2,1:0|1:0,0:0:0:0:
164,48,38748,1,0,1:0:0:0:
189,155,39091,6,0,P|235:178|334:144,2,150,10|2|2,1:0|0:0|1:0,0:0:0:0:
258,69,40462,2,0,P|304:46|403:80,2,150,14|2|2,1:0|0:0|1:0,0:0:0:0:
256,192,41834,12,6,44920,1:0:0:0:
256,188,59662,6,0,L|261:62,2,120,4|2|2,0:0|0:0|0:0,0:0:0:0:
192,237,61034,2,0,P|130:248|70:220,2,120,2|2|0,0:0|0:0|0:0,0:0:0:0:
267,269,62405,6,0,P|329:258|389:286,2,120,6|4|2,0:0|0:0|0:0,0:0:0:0:
221,335,63777,2,0,L|229:207,2,120,6|4|2,0:0|0:0|0:0,0:0:0:0:
301,333,65148,6,0,B|337:345|337:345|423:328,2,120,4|2|2,0:0|0:0|0:0,0:0:0:0:
343,263,66520,2,0,B|427:247|427:247|464:266,2,120,4|2|2,0:0|0:0|0:0,0:0:0:0:
258,239,67891,6,0,P|246:197|266:113,1,120,4|0,0:0|0:0,0:0:0:0:
335,15,68920,1,0,0:0:0:0:
251,40,69262,6,0,L|82:45,2,160,4|2|4,1:2|0:0|1:0,0:0:0:0:
296,147,72005,5,4,1:0:0:0:
253,232,73377,5,4,1:0:0:0:
286,322,74748,5,4,1:0:0:0:
256,192,76120,12,4,80234,1:0:0:0:
256,194,81948,5,4,1:2:0:0:
256,194,82977,6,0,P|211:207|116:165,2,150,6|2|2,1:0|1:0|1:0,0:0:0:0:
319,262,84348,2,0,P|364:279|451:232,2,150,6|2|4,1:0|1:0|1:2,0:0:0:0:
372,185,85720,6,0,L|381:24,2,150,6|2|2,1:0|1:0|1:0,0:0:0:0:
267,170,87091,2,0,L|275:319,2,150,4|2|4,1:2|1:0|1:2,0:0:0:0:
187,102,88462,6,0,B|139:92|139:92|79:107,1,100,6|2,1:0|1:0,0:0:0:0:
36,189,89148,2,0,L|40:295,1,100,0|4,1:0|1:2,0:0:0:0:
124,342,89834,2,0,P|194:335|245:346,1,100,6|2,1:0|1:0,0:0:0:0:
322,352,90520,2,0,P|371:357|420:349,1,100,0|4,1:0|1:2,0:0:0:0:
467,260,91205,5,0,1:0:0:0:
443,162,91548,1,0,1:0:0:0:
370,230,91891,1,0,1:0:0:0:
309,150,92234,1,0,1:0:0:0:
251,231,92577,6,0,L|181:227,2,50,4|4|2,1:2|1:2|1:0,0:0:0:0:
227,316,93262,2,0,L|315:321,2,75,0|2|4,0:0|0:0|1:2,0:0:0:0:
227,316,93948,6,0,P|170:342|81:307,2,150,6|2|4,1:0|1:0|1:2,0:0:0:0:
164,247,95320,2,0,L|159:88,2,150,2|2|4,1:0|1:0|1:2,0:0:0:0:
231,186,96691,6,0,P|162:160|94:187,2,150,6|2|4,1:0|1:0|1:0,0:0:0:0:
305,254,98062,2,0,L|454:240,2,150,4|2|4,1:0|1:0|1:0,0:0:0:0:
238,328,99434,6,0,P|186:333|132:309,1,100,4|2,1:0|1:0,0:0:0:0:
90,230,100120,2,0,L|103:111,1,100,0|8,0:0|1:0,0:0:0:0:
189,84,100805,1,14,1:0:0:0:
265,148,101148,1,2,1:0:0:0:
348,92,101491,1,0,0:0:0:0:
426,154,101834,1,10,1:0:0:0:
256,192,102177,12,14,104920,1:0:0:0:
