osu file format v14

[General]
AudioFilename: audio.mp3
AudioLeadIn: 0
PreviewTime: 22634
Countdown: 0
SampleSet: Soft
StackLeniency: 0.5
Mode: 0
LetterboxInBreaks: 0
WidescreenStoryboard: 0

[Editor]
Bookmarks: 691,11662,22634,33605,44920,48691,59662,70634,76120,82977,99434,104920
DistanceSpacing: 2
BeatDivisor: 4
GridSize: 4
TimelineZoom: 3.399998

[Metadata]
Title:CaptivAte2 ~kakusei~
TitleUnicode:CaptivAte2~覚醒~
Artist:e-lma
ArtistUnicode:e-lma
Creator:felys
Version:Leader's Another
Source:beatmania IIDX 16 EMPRESS
Tags:Leader EvilElvis NOSTALGISH REQUIEM ERi 朱雀 Suzaku DJ YOSHITAKA Jounzan Konami v2
BeatmapID:1056622
BeatmapSetID:492877

[Difficulty]
HPDrainRate:6
CircleSize:4
OverallDifficulty:7
ApproachRate:8.5
SliderMultiplier:1.6
SliderTickRate:1

[Events]
//Background and Video events
0,0,"captivate.jpg",0,0
//Break Periods
2,48691,58912
//Storyboard Layer 0 (Background)
//Storyboard Layer 1 (Fail)
//Storyboard Layer 2 (Pass)
//Storyboard Layer 3 (Foreground)
//Storyboard Sound Samples

[TimingPoints]
-680,342.857142857143,4,2,1,50,1,0
348,-100,4,2,1,50,0,0
11662,-100,4,2,1,65,0,0
22291,-200,4,2,1,30,0,0
22634,-100,4,2,1,65,0,0
59662,-133.333333333333,4,2,1,50,0,0
70291,-200,4,2,1,30,0,0
70634,-100,4,2,1,55,0,0
78862,-100,4,2,1,65,0,0
79548,-133.333333333333,4,2,1,65,0,0
80920,-100,4,2,1,75,0,0

[Colours]
Combo1 : 190,183,255
Combo2 : 183,255,255
Combo3 : 166,206,255
Combo4 : 111,255,183

[HitObjects]
120,304,348,5,2,0:0:0:0:
120,304,691,2,0,P|152:232|120:140,1,160,4|0,0:0|0:0,0:0:0:0:
44,60,1205,2,0,L|58:219,1,160,2|0,0:0|0:0,0:0:0:0:
204,328,1720,2,0,B|284:312|284:360|380:336,1,160,2|0,0:0|0:0,0:0:0:0:
369,347,2748,5,2,0:0:0:0:
369,347,3091,1,2,0:0:0:0:
369,347,3434,2,0,L|384:168,1,160,2|0,0:0|0:0,0:0:0:0:
244,36,3948,2,0,L|258:195,1,160,2|0,0:0|0:0,0:0:0:0:
369,347,4462,2,0,B|288:320|288:376|200:348,1,160,2|0,0:0|0:0,0:0:0:0:
212,351,5834,5,2,0:0:0:0:
212,351,6177,2,0,L|96:332,1,80,2|2,0:0|0:0,0:0:0:0:
28,356,6520,1,2,0:0:0:0:
72,268,6691,2,0,P|96:204|48:112,1,160,2|0,0:0|0:0,0:0:0:0:
12,196,7205,2,0,L|200:196,1,160,2|2,0:0|0:0,0:0:0:0:
256,144,7720,5,0,0:0:0:0:
256,144,8062,1,2,0:0:0:0:
344,176,8234,2,0,P|420:172|480:112,1,160,2|0,0:0|0:0,0:0:0:0:
256,144,8748,2,0,L|236:328,1,160,2|0,0:0|0:0,0:0:0:0:
168,344,9262,2,0,B|256:328|256:380|352:348,2,160,2|0|0,0:0|0:0|0:0,0:0:0:0:
48,192,10291,5,2,0:0:0:0:
256,192,10377,12,0,11491,0:0:0:0:
92,356,11662,6,0,P|80:308|80:260,1,80,4|0,1:2|0:0,0:0:0:0:
212,100,12005,2,0,L|204:196,1,80,0|0,1:0|0:0,0:0:0:0:
92,356,12348,2,0,L|176:368,1,80
324,276,12691,2,0,P|276:272|224:252,1,80,0|0,1:0|0:0,0:0:0:0:
132,112,13034,6,0,L|221:98,1,80,0|0,0:0|0:0,0:0:0:0:
44,88,13377,2,0,L|32:-4,1,80,0|0,1:0|0:0,0:0:0:0:
72,180,13720,1,2,0:0:0:0:
72,180,13805,1,2,0:0:0:0:
72,180,13891,1,0,0:0:0:0:
148,228,14062,1,0,1:0:0:0:
64,264,14234,1,0,1:0:0:0:
140,320,14405,6,0,B|224:296|224:352|320:328,1,160,4|0,0:0|1:0,0:0:0:0:
388,296,14920,1,0,0:0:0:0:
312,236,15091,2,0,P|304:200|300:148,1,80,0|0,0:0|0:0,0:0:0:0:
408,40,15434,1,0,1:0:0:0:
408,40,15520,1,0,0:0:0:0:
408,40,15605,2,0,P|405:61|400:80,1,40,0|0,0:0|2:0,0:0:0:0:
300,157,15777,6,0,L|208:165,1,80,0|0,0:0|0:0,0:0:0:0:
64,68,16120,2,0,L|143:74,1,80,0|0,1:0|0:0,0:0:0:0:
308,164,16462,1,2,0:0:0:0:
308,164,16548,1,2,0:0:0:0:
308,164,16634,1,0,0:0:0:0:
160,240,16805,2,0,P|132:236|112:236,2,40,0|0|0,1:0|0:0|1:0,0:0:0:0:
436,360,17148,6,0,B|464:276|412:276|440:192,1,160,4|0,1:0|1:0,0:0:0:0:
476,76,17662,1,2,0:0:0:0:
372,120,17834,1,0,1:0:0:0:
292,48,18005,1,2,0:0:0:0:
372,120,18177,1,0,1:0:0:0:
392,8,18348,1,2,0:0:0:0:
264,164,18520,6,0,P|187:168|128:112,1,160,0|0,1:0|1:0,0:0:0:0:
224,80,19034,1,2,0:0:0:0:
72,208,19205,2,0,P|44:212|4:224,2,40,0|2|0,1:0|0:0|0:0,0:0:0:0:
256,284,19548,2,0,L|344:296,1,80,0|2,1:0|0:0,0:0:0:0:
472,196,19891,6,0,P|424:192|388:176,1,80,0|0,1:0|0:0,0:0:0:0:
256,40,20234,2,0,L|268:144,1,80,0|2,1:0|0:0,0:0:0:0:
436,276,20577,1,0,1:0:0:0:
232,248,20748,1,2,0:0:0:0:
320,316,20919,1,0,1:0:0:0:
352,208,21091,1,4,0:0:0:0:
200,352,21262,5,4,1:0:0:0:
200,352,22291,2,0,P|196:320|184:280,1,60,0|0,0:0|0:0,0:0:0:0:
128,216,22634,6,0,P|200:208|276:248,1,160,6|0,1:0|1:0,0:0:0:0:
344,336,23148,2,0,P|320:280|348:160,1,160,2|2,1:0|0:0,0:0:0:0:
208,136,23662,2,0,P|244:87|362:51,1,160,2|0,1:0|1:2,0:0:0:0:
489,174,24177,2,0,B|409:154|405:206|329:182,1,160,2|2,1:0|0:0,0:0:0:0:
264,264,24691,6,0,P|236:268|208:280,3,40,2|0|2|0,1:0|0:0|0:0|0:0,0:0:0:0:
152,296,25034,2,0,P|132:293|112:288,3,40,10|0|0|0,1:0|0:0|1:0|0:0,0:0:0:0:
96,212,25377,5,14,1:0:0:0:
94,192,25462,1,0,0:0:0:0:
92,172,25548,1,2,0:0:0:0:
90,152,25634,1,0,0:0:0:0:
89,132,25719,1,0,1:0:0:0:
204,28,25891,1,2,1:0:0:0:
202,47,25976,1,0,0:0:0:0:
200,67,26062,1,0,1:0:0:0:
198,87,26148,1,0,0:0:0:0:
197,107,26233,1,2,0:0:0:0:
88,312,26405,5,2,1:0:0:0:
107,310,26490,1,0,0:0:0:0:
127,312,26576,1,2,0:0:0:0:
147,316,26662,1,0,0:0:0:0:
166,323,26747,1,0,1:0:0:0:
280,356,26920,1,2,1:0:0:0:
299,357,27005,1,0,0:0:0:0:
319,355,27091,1,0,1:0:0:0:
339,351,27177,1,0,0:0:0:0:
358,344,27262,1,2,0:0:0:0:
424,220,27434,5,2,1:0:0:0:
424,220,27520,1,0,0:0:0:0:
424,220,27605,1,2,1:0:0:0:
424,220,27691,1,0,0:0:0:0:
424,220,27777,2,0,P|456:216|480:216,3,40,8|2|2|0,1:0|1:0|0:0|0:0,0:0:0:0:
336,256,28120,5,14,1:0:0:0:
308,257,28205,1,0,0:0:0:0:
281,249,28291,1,0,0:0:0:0:
258,232,28377,1,2,1:0:0:0:
242,210,28462,1,0,1:0:0:0:
234,183,28548,1,0,0:0:0:0:
235,155,28634,1,2,1:0:0:0:
245,129,28720,1,0,0:0:0:0:
263,108,28805,2,0,P|284:104|312:100,3,40,0|0|2|0,1:0|0:0|0:0|0:0,0:0:0:0:
320,112,29148,2,0,P|339:116|359:119,3,40,0|0|2|0,1:0|0:0|0:0|0:0,0:0:0:0:
444,100,29491,5,6,1:0:0:0:
444,100,29577,1,0,0:0:0:0:
444,100,29662,1,2,0:0:0:0:
444,100,29748,1,0,0:0:0:0:
444,100,29834,1,0,1:0:0:0:
340,216,30005,1,2,1:0:0:0:
340,216,30091,1,0,0:0:0:0:
340,216,30176,1,0,0:0:0:0:
340,216,30262,1,0,0:0:0:0:
340,216,30348,1,2,0:0:0:0:
468,328,30520,5,10,1:0:0:0:
468,328,30605,1,0,0:0:0:0:
468,328,30691,1,2,0:0:0:0:
468,328,30777,1,0,0:0:0:0:
468,328,30862,2,0,P|474:303|476:275,3,40,14|0|2|2,1:0|0:0|0:0|1:0,0:0:0:0:
392,276,31205,2,0,L|384:184,1,80,0|2,1:0|1:0,0:0:0:0:
420,108,31548,1,2,1:0:0:0:
420,108,31720,1,0,0:0:0:0:
320,132,31891,2,0,P|276:126|224:108,1,80,0|2,1:0|1:0,0:0:0:0:
168,40,32234,6,0,P|160:20|156:-8,2,40,4|2|0,1:2|1:0|0:0,0:0:0:0:
242,116,32577,2,0,L|238:160,1,40,2|2,1:0|1:0,0:0:0:0:
143,251,32834,2,0,L|140:212,1,40,2|2,1:0|1:0,0:0:0:0:
40,100,33091,1,0,0:0:0:0:
40,100,33177,1,2,1:0:0:0:
40,100,33262,2,0,L|48:184,1,80,10|2,1:0|1:0,0:0:0:0:
196,344,33605,6,0,P|240:336|296:336,1,80,14|2,1:0|0:0,0:0:0:0:
324,292,33862,2,0,P|296:288|268:276,1,40,0|0,0:0|1:0,0:0:0:0:
192,168,34120,2,0,L|184:76,1,80,2|0,1:0|1:0,0:0:0:0:
216,56,34377,2,0,L|212:116,1,40,0|2,0:0|0:0,0:0:0:0:
94,262,34634,6,0,P|66:226|70:150,1,120,2|0,1:0|0:0,0:0:0:0:
86,130,34977,1,0,1:0:0:0:
176,305,35148,2,0,P|134:347|76:356,1,120,2|0,1:0|0:0,0:0:0:0:
44,352,35491,1,2,0:0:0:0:
196,204,35662,5,2,1:0:0:0:
215,206,35747,1,0,0:0:0:0:
234,213,35833,1,0,0:0:0:0:
251,224,35919,1,0,0:0:0:0:
264,240,36005,2,0,P|272:272|272:296,3,40,10|0|2|0,1:0|0:0|1:0|0:0,0:0:0:0:
312,344,36348,6,0,L|396:336,1,80,10|2,1:0|0:0,0:0:0:0:
432,300,36605,2,0,P|408:296|384:288,1,40,0|0,0:0|0:0,0:0:0:0:
308,176,36862,1,2,1:0:0:0:
327,173,36947,1,0,0:0:0:0:
347,171,37033,1,0,1:0:0:0:
367,168,37119,1,0,0:0:0:0:
387,166,37204,1,2,0:0:0:0:
240,248,37377,6,0,P|216:208|232:124,1,120,2|0,1:0|0:0,0:0:0:0:
240,112,37720,1,0,1:0:0:0:
324,56,37891,1,2,1:0:0:0:
343,53,37976,1,0,0:0:0:0:
363,51,38062,1,0,1:0:0:0:
383,48,38148,1,0,0:0:0:0:
403,46,38233,1,2,0:0:0:0:
480,192,38405,6,0,P|456:200|428:216,3,40,2|2|0|2,1:0|1:0|0:0|1:0,0:0:0:0:
368,248,38748,2,0,P|344:240|316:224,3,40,10|0|2|0,1:0|0:0|1:0|0:0,0:0:0:0:
256,192,39091,5,14,1:0:0:0:
256,192,39262,1,2,1:2:0:0:
208,268,39434,2,0,L|128:276,1,80,2|2,1:0|1:2,0:0:0:0:
24,188,39777,2,0,P|72:180|120:160,1,80,0|2,1:0|1:0,0:0:0:0:
204,112,40120,1,2,1:2:0:0:
204,112,40291,1,2,1:2:0:0:
192,224,40462,6,0,P|197:266|200:312,1,80,14|2,1:0|1:2,0:0:0:0:
224,344,40720,2,0,P|232:312|248:276,1,40,0|2,0:0|1:2,0:0:0:0:
328,208,40977,1,10,1:0:0:0:
328,208,41062,1,0,0:0:0:0:
328,208,41148,1,2,1:2:0:0:
328,208,41234,1,0,0:0:0:0:
328,208,41320,1,2,1:2:0:0:
392,328,41491,2,0,P|404:352|412:364,2,40,2|0|2,1:0|0:0|1:0,0:0:0:0:
328,208,41834,5,14,1:0:0:0:
329,188,41919,1,0,0:0:0:0:
331,168,42005,1,2,0:0:0:0:
332,148,42091,1,2,1:0:0:0:
336,128,42177,2,0,L|340:76,3,40,0|0|2|0,1:0|0:0|1:0|0:0,0:0:0:0:
248,160,42520,5,14,1:0:0:0:
246,140,42605,1,0,0:0:0:0:
244,120,42691,1,2,0:0:0:0:
243,100,42777,1,2,1:0:0:0:
240,80,42863,2,0,L|236:28,3,40,0|0|2|0,1:0|0:0|1:0|0:0,0:0:0:0:
316,4,43205,5,4,1:2:0:0:
240,80,43377,2,0,B|160:68|160:120|64:92,1,160,4|0,1:2|0:0,0:0:0:0:
24,192,43891,6,0,P|60:196|104:208,1,80,4|0,1:2|0:0,0:0:0:0:
44,240,44148,6,0,P|82:229|122:224,1,80,4|0,1:2|0:0,0:0:0:0:
68,280,44405,6,0,P|102:259|139:244,1,80,4|0,1:2|0:0,0:0:0:0:
140,340,44920,5,4,1:0:0:0:
408,320,59662,6,0,P|384:264|400:188,1,120.000004577637,4|2,0:0|0:0,0:0:0:0:
488,140,60177,2,0,L|480:204,1,60.0000022888184,2|0,0:0|0:0,0:0:0:0:
304,360,60520,2,0,L|296:228,1,120.000004577637,2|0,0:0|0:0,0:0:0:0:
364,176,61034,6,0,P|376:144|380:112,2,60.0000022888184,2|0|2,0:0|0:0|0:0,0:0:0:0:
296,240,61548,2,0,L|228:247,1,60.0000022888184,2|0,0:0|0:0,0:0:0:0:
162,344,61891,2,0,L|300:352,1,120.000004577637,2|2,0:0|0:0,0:0:0:0:
432,360,62405,6,0,P|420:324|416:288,1,60.0000022888184,6|0,0:0|0:0,0:0:0:0:
492,120,62748,1,0,0:0:0:0:
492,120,62920,2,0,L|480:244,1,120.000004577637,4|0,0:0|0:0,0:0:0:0:
400,168,63434,1,2,0:0:0:0:
400,168,63777,6,0,P|352:172|324:176,1,60.0000022888184,6|0,0:0|0:0,0:0:0:0:
252,120,64120,1,2,0:0:0:0:
176,236,64291,2,0,L|300:248,2,120.000004577637,4|0|2,0:0|0:0|0:0,0:0:0:0:
76,184,65148,6,0,P|68:148|68:112,1,60.0000022888184,4|2,0:0|0:0,0:0:0:0:
156,136,65491,1,2,0:0:0:0:
44,272,65662,2,0,P|108:264|172:264,1,120.000004577637,2|0,0:0|0:0,0:0:0:0:
296,192,66177,2,0,L|224:204,1,60.0000022888184,2|2,0:0|0:0,0:0:0:0:
156,136,66520,5,4,0:0:0:0:
252,100,66691,1,2,0:0:0:0:
296,192,66862,1,2,0:0:0:0:
380,52,67034,2,0,L|512:40,2,120.000004577637,2|0|2,0:0|0:0|0:0,0:0:0:0:
212,124,67891,6,0,P|180:116|140:100,2,60.0000022888184,4|0|0,0:0|0:0|0:0,0:0:0:0:
312,76,68405,2,0,L|300:156,1,60.0000022888184,0|0,0:0|0:0,0:0:0:0:
272,212,68748,2,0,L|284:292,1,60.0000022888184,0|0,0:0|0:0,0:0:0:0:
300,352,69091,1,0,0:0:0:0:
300,352,69262,5,4,1:2:0:0:
472,296,69434,1,4,1:2:0:0:
472,296,70291,6,0,P|468:266|468:232,1,60,0|0,1:0|0:0,0:0:0:0:
512,208,70634,6,0,L|412:196,1,80,4|0,1:0|0:0,0:0:0:0:
348,136,70977,1,2,0:0:0:0:
436,112,71148,1,2,0:0:0:0:
436,112,71491,2,0,L|448:20,2,80,2|2|0,0:0|0:0|0:0,0:0:0:0:
340,248,72005,6,0,L|240:236,1,80,4|2,1:0|0:0,0:0:0:0:
176,176,72348,1,0,0:0:0:0:
264,152,72519,1,2,0:0:0:0:
264,152,72862,2,0,L|276:60,2,80,2|2|0,0:0|0:0|0:0,0:0:0:0:
168,292,73377,6,0,L|68:280,1,80,4|2,1:0|0:0,0:0:0:0:
4,220,73720,1,0,0:0:0:0:
92,196,73891,1,2,0:0:0:0:
92,196,74234,2,0,L|104:104,2,80,2|2|0,0:0|0:0|0:0,0:0:0:0:
20,344,74748,6,0,L|104:356,1,80,4|2,1:0|0:0,0:0:0:0:
272,280,75091,2,0,L|192:291,1,80,0|2,0:0|0:0,0:0:0:0:
192,291,75605,1,2,0:0:0:0:
48,260,75777,1,2,0:0:0:0:
20,344,75948,1,2,0:0:0:0:
128,236,76120,6,0,P|124:192|112:152,1,80,4|0,1:0|1:0,0:0:0:0:
60,68,76462,1,4,1:2:0:0:
60,68,76634,1,0,1:0:0:0:
160,72,76805,6,0,P|204:68|244:56,1,80,4|0,1:2|1:0,0:0:0:0:
328,16,77148,1,4,1:2:0:0:
328,16,77320,1,0,1:0:0:0:
312,120,77491,6,0,P|316:164|328:204,1,80,4|0,1:2|1:0,0:0:0:0:
388,340,77834,1,4,1:2:0:0:
388,340,78005,1,0,1:0:0:0:
124,340,78177,1,4,1:2:0:0:
124,340,78348,1,0,1:0:0:0:
260,288,78520,1,4,1:2:0:0:
208,364,78691,1,0,1:0:0:0:
124,340,78862,6,0,L|72:332,3,40,2|0|0|2,1:0|1:0|1:0|1:0,0:0:0:0:
56,260,79205,2,0,L|8:252,3,40,0|0|2|0,1:0|1:0|1:0|1:0,0:0:0:0:
132,208,79548,6,0,L|136:164,1,30.0000011444092,0|0,1:0|1:0,0:0:0:0:
52,160,79720,2,0,L|48:124,5,30.0000011444092,2|0|4|0|0|0,1:0|1:0|1:2|1:0|1:0|1:0,0:0:0:0:
132,208,80234,6,0,P|168:216|280:128,1,180.000006866455,4|0,1:0|0:0,0:0:0:0:
464,28,80920,6,0,P|428:32|384:44,1,80,4|0,1:2|0:0,0:0:0:0:
444,76,81177,6,0,P|406:65|366:60,1,80,4|0,1:2|0:0,0:0:0:0:
420,116,81434,6,0,P|386:95|349:80,1,80,4|0,1:2|0:0,0:0:0:0:
336,180,81948,5,4,1:2:0:0:
336,180,82977,6,0,L|328:276,1,80,6|2,1:0|0:0,0:0:0:0:
396,344,83320,1,2,1:2:0:0:
260,296,83491,1,2,1:0:0:0:
260,296,83577,1,2,0:1:0:0:
260,296,83662,2,0,P|204:304|152:324,1,80,0|2,0:0|1:0,0:0:0:0:
28,248,84005,1,2,1:0:0:0:
76,340,84177,1,0,0:0:0:0:
132,204,84348,6,0,P|128:160|116:116,1,80,6|2,1:0|0:0,0:0:0:0:
44,56,84691,1,2,1:0:0:0:
212,128,84862,1,2,1:0:0:0:
212,128,84948,1,2,0:1:0:0:
212,128,85034,2,0,L|292:120,1,80,0|2,1:0|1:0,0:0:0:0:
456,60,85377,2,0,P|408:56|364:40,1,80,4|4,1:2|1:2,0:0:0:0:
280,8,85720,6,0,L|288:112,1,80,6|0,1:0|0:0,0:0:0:0:
372,264,86062,2,0,L|378:184,1,80,2|2,1:0|1:0,0:0:0:0:
388,160,86320,1,2,0:1:0:0:
388,160,86405,2,0,P|432:148|468:144,1,80,0|2,0:0|0:0,0:0:0:0:
456,236,86748,1,2,1:0:0:0:
388,160,86920,1,2,1:0:0:0:
288,304,87091,6,0,L|196:296,1,80,4|4,1:2|1:2,0:0:0:0:
104,216,87434,2,0,L|192:208,1,80,6|2,1:2|1:0,0:0:0:0:
220,172,87691,2,0,P|196:168|168:160,1,40,2|0,0:1|1:0,0:0:0:0:
64,104,87948,1,2,1:0:0:0:
144,64,88120,1,4,1:2:0:0:
220,172,88291,1,4,1:2:0:0:
332,92,88462,6,0,P|364:88|396:88,2,40,6|0|0,1:0|0:0|0:0,0:0:0:0:
232,36,88805,1,2,1:0:0:0:
136,172,88977,1,2,1:0:0:0:
136,172,89062,1,2,0:1:0:0:
136,172,89148,2,0,L|148:268,1,80,0|2,0:0|0:0,0:0:0:0:
248,360,89491,2,0,L|257:280,1,80,4|4,1:2|1:2,0:0:0:0:
388,180,89834,5,6,1:0:0:0:
464,240,90005,1,2,0:0:0:0:
257,280,90177,1,2,1:0:0:0:
304,200,90348,1,2,1:0:0:0:
304,200,90434,1,2,0:1:0:0:
304,200,90520,2,0,P|296:160|280:112,1,80,0|2,1:0|1:0,0:0:0:0:
232,28,90862,1,4,1:2:0:0:
232,28,91034,1,4,1:2:0:0:
348,56,91205,6,0,P|396:52|436:40,1,80,6|2,1:0|0:0,0:0:0:0:
504,168,91548,2,0,L|412:156,1,80,2|2,1:0|1:0,0:0:0:0:
376,184,91805,2,0,P|416:196|428:204,1,40,2|0,0:1|1:0,0:0:0:0:
492,280,92062,1,2,0:0:0:0:
420,344,92234,1,0,1:0:0:0:
492,280,92405,1,2,0:0:0:0:
420,344,92577,6,0,L|336:356,1,80,4|4,1:2|1:2,0:0:0:0:
236,284,92920,2,0,P|236:248|248:204,1,80,2|0,1:0|0:0,0:0:0:0:
264,180,93177,1,2,1:0:0:0:
264,180,93262,2,0,L|256:72,1,80,0|2,0:0|1:0,0:0:0:0:
316,24,93605,1,4,1:2:0:0:
180,40,93777,1,4,1:2:0:0:
316,24,93948,6,0,P|360:28|396:36,1,80,6|2,1:0|0:0,0:0:0:0:
464,172,94291,2,0,L|328:188,1,120,2|2,1:0|0:1,0:0:0:0:
316,148,94634,2,0,L|412:156,1,80,0|2,1:0|0:0,0:0:0:0:
492,80,94977,1,4,1:2:0:0:
412,48,95148,1,4,1:2:0:0:
280,232,95320,6,0,L|200:224,1,80,2|2,1:0|0:0,0:0:0:0:
108,216,95662,1,2,1:0:0:0:
168,140,95834,1,2,1:0:0:0:
168,140,95920,1,2,0:1:0:0:
168,140,96005,2,0,P|160:100|144:60,1,80,0|2,0:0|1:0,0:0:0:0:
108,216,96348,1,4,1:2:0:0:
20,188,96520,1,4,1:2:0:0:
174,285,96691,6,0,P|199:211|168:140,1,160,6|2,1:0|1:0,0:0:0:0:
72,48,97205,1,2,1:0:0:0:
72,48,97291,1,2,0:1:0:0:
72,48,97377,2,0,L|80:132,1,80,0|2,0:0|0:0,0:0:0:0:
180,288,97720,2,0,L|187:208,1,80,4|0,1:2|0:0,0:0:0:0:
260,112,98062,5,4,1:2:0:0:
464,196,98234,1,2,0:0:0:0:
348,88,98405,1,2,1:0:0:0:
296,204,98577,1,2,1:0:0:0:
296,204,98662,1,2,0:1:0:0:
296,204,98748,2,0,L|304:296,1,80,4|4,1:2|1:2,0:0:0:0:
432,364,99091,2,0,P|424:316|408:272,1,80,4|4,1:2|1:2,0:0:0:0:
256,100,99434,5,4,1:0:0:0:
256,100,99605,1,2,0:0:0:0:
200,192,99777,1,2,1:0:0:0:
312,192,99948,1,2,1:0:0:0:
200,192,100120,1,0,0:0:0:0:
312,192,100291,1,4,0:0:0:0:
256,284,100462,1,8,1:0:0:0:
256,284,100633,1,4,1:2:0:0:
180,348,100805,6,0,L|96:356,1,80,14|2,1:0|0:0,0:0:0:0:
0,260,101148,2,0,L|79:267,1,80,2|2,1:0|1:0,0:0:0:0:
204,216,101491,1,0,0:0:0:0:
88,168,101662,1,2,1:0:0:0:
272,148,101834,1,10,1:0:0:0:
208,36,102005,1,4,0:0:0:0:
360,108,102177,6,0,P|364:72|372:24,1,80,14|0,1:0|1:0,0:0:0:0:
348,240,102520,2,0,P|344:276|336:324,1,80,2|2,1:0|1:0,0:0:0:0:
420,176,102862,2,0,P|456:180|504:188,1,80,12|0,1:0|1:0,0:0:0:0:
288,164,103205,2,0,P|252:160|204:152,1,80,0|0,1:0|1:0,0:0:0:0:
56,96,103548,5,12,1:0:0:0:
172,44,103720,1,4,1:2:0:0:
80,181,103891,1,4,1:2:0:0:
208,152,104062,1,4,1:2:0:0:
92,264,104234,6,0,P|132:272|180:288,1,80,2|2,1:0|1:0,0:0:0:0:
224,240,104491,2,0,P|184:247|146:259,1,80,2|0,1:0|0:0,0:0:0:0:
72,344,104748,2,0,P|120:352|144:364,1,40,2|0,1:0|0:0,0:0:0:0:
188,372,104920,5,4,1:0:0:0:
