osu file format v14

[General]
AudioFilename: audio.mp3
AudioLeadIn: 0
PreviewTime: 22634
Countdown: 0
SampleSet: Soft
StackLeniency: 0.7
Mode: 0
LetterboxInBreaks: 0
WidescreenStoryboard: 0

[Editor]
Bookmarks: 691,11662,21262,41148,41834,48691,59662,70634,76120,82977,99434,104920
DistanceSpacing: 1.4
BeatDivisor: 4
GridSize: 4
TimelineZoom: 3.399998

[Metadata]
Title:CaptivAte2 ~kakusei~
TitleUnicode:CaptivAte2~覚醒~
Artist:e-lma
ArtistUnicode:e-lma
Creator:felys
Version:Hyper
Source:beatmania IIDX 16 EMPRESS
Tags:Leader EvilElvis NOSTALGISH REQUIEM ERi 朱雀 Suzaku DJ YOSHITAKA Jounzan Konami v2
BeatmapID:1050580
BeatmapSetID:492877

[Difficulty]
HPDrainRate:5
CircleSize:4
OverallDifficulty:6
ApproachRate:7
SliderMultiplier:1.4
SliderTickRate:1

[Events]
//Background and Video events
0,0,"captivate.jpg",0,0
//Break Periods
2,48691,58762
//Storyboard Layer 0 (Background)
//Storyboard Layer 1 (Fail)
//Storyboard Layer 2 (Pass)
//Storyboard Layer 3 (Foreground)
//Storyboard Sound Samples

[TimingPoints]
-680,342.857142857143,4,2,1,50,1,0
348,-100,4,2,1,50,0,0
691,-125,4,2,1,50,0,0
11662,-125,4,2,1,65,0,0
22634,-100,4,2,1,65,0,0
59662,-125,4,2,1,50,0,0
70634,-125,4,2,1,55,0,0
76120,-125,4,2,1,65,0,0
82977,-100,4,2,1,75,0,0

[Colours]
Combo1 : 190,183,255
Combo2 : 183,255,255
Combo3 : 166,206,255
Combo4 : 111,255,183

[HitObjects]
256,192,348,5,2,0:0:0:0:
256,192,691,2,0,L|129:197,1,112,4|0,0:0|0:0,0:0:0:0:
99,299,1205,2,0,L|210:294,1,112,2|0,0:0|0:0,0:0:0:0:
284,324,1720,1,2,0:0:0:0:
284,324,2748,2,0,P|329:336|398:292,1,112,2|2,0:0|0:0,0:0:0:0:
386,309,3434,6,0,L|399:173,1,112,2|0,0:0|0:0,0:0:0:0:
338,149,3948,2,0,B|392:164|392:164|450:139,1,112,2|0,0:0|0:0,0:0:0:0:
388,74,4462,1,2,0:0:0:0:
257,209,5834,5,2,0:0:0:0:
257,209,6177,6,0,P|263:248|263:270,2,56,2|2|2,0:0|0:0|0:0,0:0:0:0:
173,241,6691,2,0,P|131:231|80:166,1,112,2|0,0:0|0:0,0:0:0:0:
171,152,7205,1,2,0:0:0:0:
171,152,7548,6,0,L|174:88,2,56,2|0|2,0:0|0:0|0:0,0:0:0:0:
238,211,8062,1,2,0:0:0:0:
238,211,8234,2,0,P|281:201|360:199,1,112,2|0,0:0|0:0,0:0:0:0:
417,235,8748,1,2,0:0:0:0:
475,182,8920,2,0,P|473:147|461:54,1,112,2|2,0:0|0:0,0:0:0:0:
256,192,9348,12,0,11320,0:0:0:0:
250,200,11662,6,0,P|261:147|240:86,1,112,4|0,1:2|1:0,0:0:0:0:
140,162,12348,2,0,P|123:214|134:269,1,112,0|0,0:0|1:0,0:0:0:0:
312,343,13034,6,0,L|423:329,1,112,0|0,0:0|1:0,0:0:0:0:
461,168,13720,2,0,L|350:182,1,112,2|0,0:0|1:0,0:0:0:0:
256,271,14405,5,4,0:0:0:0:
176,192,14748,1,0,1:0:0:0:
256,112,15091,1,0,0:0:0:0:
335,192,15434,1,0,1:0:0:0:
132,315,15777,6,0,P|90:315|11:271,1,112,0|0,0:0|1:0,0:0:0:0:
247,226,16462,2,0,L|237:350,1,112,2|0,0:0|1:0,0:0:0:0:
43,182,17148,6,0,P|45:147|55:108,1,56,4|2,1:0|0:0,0:0:0:0:
135,77,17491,2,0,P|140:104|141:132,1,56,0|2,1:0|0:0,0:0:0:0:
208,179,17834,2,0,L|289:169,1,56,0|2,1:0|0:0,0:0:0:0:
219,91,18177,2,0,L|300:81,1,56,0|2,1:0|0:0,0:0:0:0:
350,135,18520,5,0,1:0:0:0:
350,135,18691,1,2,0:0:0:0:
428,92,18862,1,0,1:0:0:0:
428,92,19034,1,2,0:0:0:0:
481,162,19205,2,0,L|470:228,1,56,0|0,1:0|0:0,0:0:0:0:
421,284,19548,2,0,L|430:339,1,56,0|2,1:0|0:0,0:0:0:0:
343,243,19891,6,0,P|311:255|235:224,1,112,0|0,1:0|1:0,0:0:0:0:
202,161,20405,1,2,0:0:0:0:
155,224,20577,2,0,P|159:265|159:295,1,56,0|2,1:0|0:0,0:0:0:0:
65,242,20920,2,0,P|66:214|69:186,1,56,0|4,1:0|0:0,0:0:0:0:
124,128,21262,5,4,1:0:0:0:
267,339,22634,6,0,P|276:287|226:218,1,140,6|0,1:0|1:0,0:0:0:0:
183,299,23148,2,0,B|126:314|126:314|43:294,1,140,2|2,1:0|0:0,0:0:0:0:
138,220,23662,2,0,B|195:205|195:205|278:225,1,140,2|0,1:0|1:2,0:0:0:0:
335,292,24177,2,0,P|369:307|463:249,1,140,2|2,1:0|0:0,0:0:0:0:
380,214,24691,2,0,P|386:171|395:115,1,70,2|2,1:0|0:0,0:0:0:0:
488,108,25034,2,0,P|483:142|477:177,1,70,10|0,1:0|1:0,0:0:0:0:
289,160,25377,6,0,P|297:97|317:6,1,140,14|0,1:0|1:0,0:0:0:0:
184,92,25891,2,0,P|198:160|207:229,1,140,2|2,1:0|0:0,0:0:0:0:
154,304,26405,2,0,B|118:318|83:324|83:324|45:318|6:300,1,140,2|0,1:0|1:0,0:0:0:0:
84,231,26920,1,2,1:0:0:0:
84,231,27091,2,0,P|74:166|64:141,1,70,0|2,1:0|0:0,0:0:0:0:
21,78,27434,2,0,P|76:83|111:83,1,70,2|2,1:0|1:0,0:0:0:0:
189,54,27777,2,0,P|180:87|177:122,1,70,8|2,1:0|0:0,0:0:0:0:
240,178,28120,5,14,1:0:0:0:
312,219,28291,1,0,0:0:0:0:
376,166,28462,1,0,1:0:0:0:
312,111,28634,2,0,P|354:123|448:86,1,140,2|2,1:0|0:0,0:0:0:0:
369,35,29148,1,0,1:0:0:0:
369,35,29320,1,2,0:0:0:0:
312,111,29491,6,0,P|308:151|303:183,1,70,6|2,1:0|0:0,0:0:0:0:
242,237,29834,1,0,0:0:0:0:
242,237,30005,2,0,L|400:228,1,140,2|2,1:0|0:0,0:0:0:0:
409,323,30520,1,0,1:0:0:0:
407,317,30691,1,0,0:0:0:0:
311,329,30862,6,0,L|142:311,1,140,14|0,1:0|1:0,0:0:0:0:
95,351,31377,1,2,1:0:0:0:
106,267,31548,2,0,P|96:228|75:190,1,70,2|0,1:0|0:0,0:0:0:0:
34,132,31891,2,0,L|105:121,1,70,0|2,1:0|1:0,0:0:0:0:
176,162,32234,6,0,L|172:206,2,35,4|2|0,1:2|1:0|0:0,0:0:0:0:
257,184,32577,2,0,P|260:136|175:76,2,140,2|2|10,1:0|1:0|1:0,0:0:0:0:
283,278,33434,1,2,1:0:0:0:
379,260,33605,6,0,L|404:99,1,140,14|0,1:0|1:0,0:0:0:0:
476,71,34120,2,0,P|405:82|347:44,1,140,2|2,1:0|0:0,0:0:0:0:
335,173,34634,2,0,P|406:162|464:200,1,140,2|0,1:0|1:0,0:0:0:0:
390,242,35148,1,2,1:0:0:0:
424,319,35320,2,0,P|461:294|477:264,1,70,0|2,1:0|0:0,0:0:0:0:
390,242,35662,2,0,P|353:267|337:297,1,70,2|0,1:0|0:0,0:0:0:0:
278,347,36005,2,0,L|194:335,1,70,10|2,1:0|1:0,0:0:0:0:
63,344,36348,6,0,P|77:300|77:191,1,140,10|0,1:0|0:0,0:0:0:0:
35,135,36862,2,0,L|198:123,1,140,2|2,1:0|0:0,0:0:0:0:
255,98,37377,2,0,P|251:49|241:22,1,70,2|2,1:0|0:0,0:0:0:0:
174,124,37720,6,0,P|164:157|163:192,1,70,0|2,1:0|1:0,0:0:0:0:
236,233,38062,2,0,L|318:223,1,70,0|2,1:0|0:0,0:0:0:0:
386,167,38405,2,0,L|379:213,3,35,2|2|0|2,1:0|1:0|0:0|1:0,0:0:0:0:
409,138,38748,2,0,L|403:103,3,35,10|0|2|0,1:0|0:0|1:0|0:0,0:0:0:0:
369,84,39091,6,0,L|455:72,1,70,14|2,1:0|1:2,0:0:0:0:
290,37,39434,1,2,1:0:0:0:
294,126,39605,2,0,P|298:178|285:265,1,140,2|2,1:2|1:0,0:0:0:0:
241,345,40120,2,0,P|286:340|327:338,1,70,2|2,1:2|1:2,0:0:0:0:
393,350,40462,6,0,P|397:298|409:256,1,70,14|2,1:0|1:2,0:0:0:0:
457,217,40805,1,2,1:2:0:0:
404,282,40977,2,0,P|356:288|271:229,1,140,10|2,1:0|1:2,0:0:0:0:
209,196,41491,2,0,L|210:278,1,70,2|2,1:0|1:0,0:0:0:0:
139,358,41834,6,0,L|134:305,3,35,14|0|2|2,1:0|0:0|0:0|1:0,0:0:0:0:
113,326,42177,2,0,L|108:273,3,35,0|0|2|0,1:0|0:0|1:0|0:0,0:0:0:0:
83,306,42520,2,0,L|78:253,3,35,14|0|2|2,1:0|0:0|0:0|1:0,0:0:0:0:
54,288,42862,2,0,L|49:235,3,35,0|0|2|0,1:0|0:0|1:0|0:0,0:0:0:0:
27,238,43205,5,4,1:2:0:0:
121,123,43377,1,4,1:2:0:0:
121,123,43891,2,0,P|183:126|241:135,2,105,4|4|4,1:2|1:2|1:2,0:0:0:0:
298,164,44920,5,4,1:0:0:0:
253,193,59662,6,0,P|266:246|247:315,1,112,4|2,0:0|0:0,0:0:0:0:
193,352,60177,2,0,L|75:345,1,112,2|2,0:0|0:0,0:0:0:0:
72,267,60691,2,0,L|137:271,1,56,2|0,0:0|0:0,0:0:0:0:
158,197,61034,6,0,P|172:138|149:83,1,112,2|2,0:0|0:0,0:0:0:0:
91,45,61548,1,0,0:0:0:0:
249,77,61891,1,0,0:0:0:0:
249,77,62062,2,0,P|285:73|308:69,1,56,0|2,0:0|0:0,0:0:0:0:
376,111,62405,6,0,P|386:75|381:40,2,56,6|0|0,0:0|0:0|0:0,0:0:0:0:
307,151,62920,2,0,P|337:178|419:174,1,112,4|0,0:0|0:0,0:0:0:0:
471,223,63434,2,0,P|481:195|483:162,1,56,2|0,0:0|0:0,0:0:0:0:
392,257,63777,6,0,P|403:300|414:328,1,56,6|0,0:0|0:0,0:0:0:0:
473,353,64120,1,2,0:0:0:0:
400,324,64291,2,0,P|356:315|290:337,1,112,4|0,0:0|0:0,0:0:0:0:
217,356,64805,2,0,L|161:350,1,56,2|2,0:0|0:0,0:0:0:0:
43,295,65148,6,0,L|47:366,2,56,4|2|2,0:0|0:0|0:0,0:0:0:0:
103,244,65662,2,0,P|110:202|111:108,1,112,2|0,0:0|0:0,0:0:0:0:
79,60,66177,1,2,0:0:0:0:
79,60,66348,1,2,0:0:0:0:
162,73,66520,6,0,P|198:64|221:49,1,56,4|2,0:0|0:0,0:0:0:0:
297,49,66862,1,2,0:0:0:0:
265,127,67034,2,0,P|256:182|255:253,1,112,2|0,0:0|0:0,0:0:0:0:
333,208,67548,2,0,P|376:200|409:200,1,56,2|2,0:0|0:0,0:0:0:0:
256,192,67891,12,4,69434,0:0:0:0:
325,188,69948,5,2,0:0:0:0:
200,92,70291,1,0,1:0:0:0:
166,245,70634,1,4,1:0:0:0:
256,340,72005,5,4,1:0:0:0:
388,255,73377,5,4,1:0:0:0:
134,211,74748,5,4,1:0:0:0:
207,98,76120,6,0,P|235:104|319:64,1,112,4|4,1:0|1:2,0:0:0:0:
388,42,76634,1,0,1:0:0:0:
440,107,76805,2,0,L|432:170,1,56,4|0,1:2|1:0,0:0:0:0:
478,233,77148,2,0,L|471:297,1,56,4|0,1:2|1:0,0:0:0:0:
402,335,77491,6,0,L|277:324,1,112,4|4,1:2|1:2,0:0:0:0:
225,271,78005,1,0,1:0:0:0:
161,326,78177,2,0,P|150:298|145:255,1,56,4|0,1:2|1:0,0:0:0:0:
178,194,78520,2,0,L|101:188,1,56,4|0,1:2|1:0,0:0:0:0:
61,247,78862,6,0,L|68:204,3,28,2|0|0|2,1:0|1:0|1:0|1:0,0:0:0:0:
71,189,79205,2,0,L|78:146,3,28,0|0|2|0,1:0|1:0|1:0|1:0,0:0:0:0:
80,133,79548,2,0,L|87:90,3,28,0|0|2|0,1:0|1:0|1:0|1:0,0:0:0:0:
90,75,79891,2,0,L|97:32,3,28,4|0|0|0,1:2|1:0|1:0|1:0,0:0:0:0:
101,20,80234,5,4,1:0:0:0:
465,308,82977,6,0,P|425:315|328:259,1,140,6|2,1:0|1:2,0:0:0:0:
294,201,83491,1,2,1:0:0:0:
294,201,83577,1,2,0:1:0:0:
294,201,83662,2,0,L|301:109,1,70,0|2,0:0|1:0,0:0:0:0:
391,116,84005,2,0,L|385:185,1,70,2|0,1:0|0:0,0:0:0:0:
299,131,84348,6,0,P|248:129|155:133,1,140,6|2,1:0|1:0,0:0:0:0:
88,179,84862,1,2,1:0:0:0:
88,179,84948,1,2,0:1:0:0:
88,179,85034,2,0,P|75:129|57:100,1,70,0|2,1:0|1:0,0:0:0:0:
125,53,85377,2,0,P|159:48|203:35,1,70,4|4,1:2|1:2,0:0:0:0:
248,102,85720,6,0,P|238:160|231:252,1,140,6|2,1:0|1:0,0:0:0:0:
190,314,86234,1,2,1:0:0:0:
190,314,86320,1,2,0:1:0:0:
190,314,86405,2,0,L|106:309,1,70,0|2,0:0|0:0,0:0:0:0:
270,345,86748,2,0,L|354:340,1,70,2|2,1:0|1:0,0:0:0:0:
417,306,87091,6,0,P|425:277|437:250,3,35,4|0|4|0,1:2|0:0|1:2|0:0,0:0:0:0:
426,272,87434,2,0,P|423:202|429:125,1,140,6|0,1:2|1:0,0:0:0:0:
468,58,87948,1,2,1:0:0:0:
384,72,88120,2,0,P|340:77|310:77,1,70,4|4,1:2|1:2,0:0:0:0:
260,13,88462,6,0,P|290:64|256:154,1,140,6|2,1:0|1:0,0:0:0:0:
200,185,88977,1,2,1:0:0:0:
200,185,89062,1,2,0:1:0:0:
200,185,89148,2,0,L|105:176,1,70,0|2,0:0|0:0,0:0:0:0:
53,143,89491,2,0,P|51:98|54:65,1,70,4|4,1:2|1:2,0:0:0:0:
130,178,89834,6,0,P|130:258|119:328,1,140,6|2,1:0|1:0,0:0:0:0:
201,343,90348,1,2,1:0:0:0:
201,343,90434,1,2,0:1:0:0:
201,343,90520,2,0,P|212:286|212:262,1,70,0|2,0:0|1:0,0:0:0:0:
274,218,90862,2,0,P|286:251|306:289,1,70,4|4,1:2|1:2,0:0:0:0:
361,341,91205,6,0,L|500:320,1,140,6|2,1:0|1:0,0:0:0:0:
487,236,91720,1,2,1:0:0:0:
487,236,91805,1,2,0:1:0:0:
487,236,91891,2,0,L|399:247,1,70,0|2,1:0|0:0,0:0:0:0:
355,187,92234,1,0,1:0:0:0:
405,120,92405,1,2,0:0:0:0:
481,154,92577,6,0,P|488:99|494:57,1,70,4|4,1:2|1:2,0:0:0:0:
421,34,92920,1,2,1:0:0:0:
342,63,93091,1,0,0:0:0:0:
342,63,93177,1,2,1:0:0:0:
342,63,93262,2,0,P|297:63|248:46,1,70,0|2,0:0|1:0,0:0:0:0:
192,31,93605,2,0,P|195:65|197:102,1,70,4|4,1:2|1:2,0:0:0:0:
155,173,93948,6,0,P|94:195|32:151,1,140,6|2,1:0|1:0,0:0:0:0:
105,112,94462,1,2,1:0:0:0:
155,173,94634,2,0,P|152:203|134:259,1,70,0|2,0:0|0:0,0:0:0:0:
101,315,94977,2,0,L|21:309,1,70,4|4,1:2|1:2,0:0:0:0:
179,355,95320,6,0,L|333:336,1,140,2|2,1:0|1:0,0:0:0:0:
397,364,95834,1,2,1:0:0:0:
397,364,95920,1,2,0:1:0:0:
397,364,96005,2,0,P|401:309|405:277,1,70,0|2,0:0|1:0,0:0:0:0:
460,232,96348,1,4,1:2:0:0:
460,232,96520,1,4,1:2:0:0:
413,162,96691,6,0,P|370:165|276:138,1,140,6|2,1:0|1:0,0:0:0:0:
204,97,97205,1,2,1:0:0:0:
204,97,97291,1,2,0:1:0:0:
204,97,97377,2,0,L|115:100,1,70,0|2,0:0|0:0,0:0:0:0:
51,83,97720,2,0,P|46:45|46:13,1,70,4|0,1:2|0:0,0:0:0:0:
133,117,98062,6,0,L|110:276,1,140,4|2,1:2|1:0,0:0:0:0:
158,326,98577,1,2,1:0:0:0:
158,326,98662,1,2,0:1:0:0:
158,326,98748,2,0,L|255:314,1,70,4|4,1:2|1:2,0:0:0:0:
308,340,99091,2,0,P|309:289|301:257,1,70,4|4,1:2|1:2,0:0:0:0:
250,202,99434,6,0,L|257:121,1,70,4|2,1:0|0:0,0:0:0:0:
310,63,99777,2,0,P|367:91|442:38,1,140,2|0,1:0|0:0,0:0:0:0:
370,7,100291,1,4,0:0:0:0:
431,59,100462,2,0,P|427:98|423:144,1,70,8|4,1:0|1:2,0:0:0:0:
479,192,100805,6,0,P|424:217|348:162,1,140,14|2,1:0|1:0,0:0:0:0:
276,159,101320,1,2,1:0:0:0:
276,159,101405,1,2,0:1:0:0:
276,159,101491,2,0,P|285:215|285:253,1,70,0|2,0:0|1:0,0:0:0:0:
245,302,101834,2,0,L|163:292,1,70,10|4,1:0|0:0,0:0:0:0:
50,353,102177,6,0,L|52:309,7,35,14|0|0|0|2|0|2|2,1:0|0:0|1:0|1:0|1:0|0:0|1:0|0:1,0:0:0:0:
107,263,102862,2,0,L|105:219,7,35,12|0|0|0|0|0|0|0,1:0|0:0|1:0|1:0|1:0|0:0|1:0|1:0,0:0:0:0:
43,184,103548,6,0,P|37:148|25:107,1,70,12|4,1:0|1:2,0:0:0:0:
140,46,103891,2,0,P|130:79|125:114,1,70,4|4,1:2|1:2,0:0:0:0:
192,177,104234,2,0,L|322:170,2,105,2|2|2,1:0|1:0|1:0,0:0:0:0:
192,177,104920,5,4,1:0:0:0:
