osu file format v14

[General]
AudioFilename: audio.mp3
AudioLeadIn: 0
PreviewTime: 22634
Countdown: 0
SampleSet: Soft
StackLeniency: 0.5
Mode: 0
LetterboxInBreaks: 0
WidescreenStoryboard: 0

[Editor]
Bookmarks: 691,11662,41148,41834,48691,59662,70634,76120,82977,99434,104920
DistanceSpacing: 2.7
BeatDivisor: 4
GridSize: 4
TimelineZoom: 3.399998

[Metadata]
Title:CaptivAte2 ~kakusei~
TitleUnicode:CaptivAte2~覚醒~
Artist:e-lma
ArtistUnicode:e-lma
Creator:felys
Version:Black Another
Source:beatmania IIDX 16 EMPRESS
Tags:Leader EvilElvis NOSTALGISH REQUIEM ERi 朱雀 Suzaku DJ YOSHITAKA Jounzan Konami v2
BeatmapID:1049903
BeatmapSetID:492877

[Difficulty]
HPDrainRate:7
CircleSize:5
OverallDifficulty:8
ApproachRate:9
SliderMultiplier:1.8
SliderTickRate:1

[Events]
//Background and Video events
0,0,"captivate.jpg",0,0
//Break Periods
2,48691,59062
//Storyboard Layer 0 (Background)
//Storyboard Layer 1 (Fail)
//Storyboard Layer 2 (Pass)
//Storyboard Layer 3 (Foreground)
//Storyboard Sound Samples

[TimingPoints]
-680,342.857142857143,4,2,1,50,1,0
348,-100,4,2,1,50,0,0
691,-142.857142857143,4,2,1,50,0,0
11662,-125,4,2,1,65,0,0
25377,-100,4,2,1,65,0,0
59662,-125,4,2,1,50,0,0
70291,-200,4,2,1,50,0,0
70634,-125,4,2,1,55,0,0
76120,-125,4,2,1,65,0,0
78862,-100,4,2,1,65,0,0
82977,-100,4,2,1,75,0,0
83320,-125,4,2,1,75,0,0
83577,-100,4,2,1,75,0,0
86062,-125,4,2,1,75,0,0
86320,-83.3333333333333,4,2,1,75,0,0
86577,-142.857142857143,4,2,1,75,0,0
87091,-100,4,2,1,75,0,0
88805,-125,4,2,1,75,0,0
89062,-83.3333333333333,4,2,1,75,0,0
90177,-125,4,2,1,75,0,0
90434,-83.3333333333333,4,2,1,75,0,0
91205,-100,4,2,1,75,0,0
92920,-125,4,2,1,75,0,0
93177,-83.3333333333333,4,2,1,75,0,0
93948,-100,4,2,1,75,0,0
97034,-125,4,2,1,75,0,0
97291,-83.3333333333333,4,2,1,75,0,0
97720,-125,4,2,1,75,0,0
98062,-100,4,2,1,75,0,0

[Colours]
Combo1 : 190,183,255
Combo2 : 183,255,255
Combo3 : 166,206,255
Combo4 : 111,255,183

[HitObjects]
118,331,348,5,2,0:0:0:0:
118,331,691,2,0,P|126:290|119:191,1,125.999996154785,4|0,0:0|0:0,0:0:0:0:
40,177,1205,2,0,P|77:186|148:139,1,125.999996154785,2|0,0:0|0:0,0:0:0:0:
178,71,1720,1,2,0:0:0:0:
178,71,2748,1,2,0:0:0:0:
238,24,3091,1,2,0:0:0:0:
247,98,3434,6,0,B|231:158|274:157|254:228,1,125.999996154785,2|0,0:0|0:0,0:0:0:0:
419,179,3948,2,0,P|387:183|319:117,1,125.999996154785,2|0,0:0|0:0,0:0:0:0:
314,51,4462,1,2,0:0:0:0:
314,51,5834,1,2,0:0:0:0:
314,51,6177,6,0,L|388:52,1,62.9999980773926,2|2,0:0|0:0,0:0:0:0:
451,146,6520,1,2,0:0:0:0:
369,124,6691,2,0,P|333:125|238:138,1,125.999996154785,2|0,0:0|0:0,0:0:0:0:
451,146,7205,1,2,0:0:0:0:
288,338,7548,6,0,P|253:335|212:328,1,62.9999980773926,2|0,0:0|0:0,0:0:0:0:
98,257,7891,1,2,0:0:0:0:
129,326,8062,1,2,0:0:0:0:
172,264,8234,2,0,P|178:207|164:134,1,125.999996154785,2|0,0:0|0:0,0:0:0:0:
62,92,8748,1,2,0:0:0:0:
162,38,8920,6,0,P|203:31|229:28,1,62.9999980773926,2|0,0:0|0:0,0:0:0:0:
166,139,9262,1,2,0:0:0:0:
166,139,10291,6,0,L|169:90,2,41.9999987182618,2|2|2,0:0|0:0|0:0,0:0:0:0:
220,188,10634,2,0,L|217:229,2,41.9999987182618,2|2|2,0:0|0:0|0:0,0:0:0:0:
277,142,10977,2,0,P|339:144|381:90,1,125.999996154785,4|0,0:0|0:0,0:0:0:0:
306,69,11491,1,0,0:0:0:0:
468,159,11662,5,4,1:2:0:0:
468,159,11748,1,0,0:0:0:0:
468,159,11834,1,0,0:0:0:0:
406,221,12005,2,0,L|413:342,2,108,0|0|0,1:0|0:0|0:0,0:0:0:0:
485,273,12691,1,0,1:0:0:0:
330,352,12862,1,0,0:0:0:0:
330,352,12948,1,0,0:0:0:0:
330,352,13034,6,0,L|325:273,1,72,0|0,0:0|0:0,0:0:0:0:
249,213,13377,1,0,1:0:0:0:
153,243,13548,1,0,0:0:0:0:
219,319,13720,1,2,0:0:0:0:
219,319,13805,1,2,0:0:0:0:
313,282,13977,1,2,0:0:0:0:
313,282,14062,1,0,1:0:0:0:
132,366,14234,1,0,1:0:0:0:
132,366,14320,1,0,0:0:0:0:
132,366,14405,6,0,P|128:328|128:292,1,72,4|0,0:0|0:0,0:0:0:0:
68,180,14748,2,0,B|64:232|52:296,1,108,0|0,1:0|0:0,0:0:0:0:
53,286,15091,2,0,P|75:282|102:282,1,36
198,224,15262,2,0,P|179:223|162:220,1,36,0|0,0:0|0:0,0:0:0:0:
142,147,15434,1,0,1:0:0:0:
63,179,15605,1,0,0:0:0:0:
63,179,15691,1,0,0:0:0:0:
63,179,15777,6,0,P|60:129|55:89,1,72,0|0,0:0|0:0,0:0:0:0:
232,44,16120,2,0,P|228:79|226:115,1,72,0|0,1:0|0:0,0:0:0:0:
410,173,16462,1,2,0:0:0:0:
410,173,16548,1,2,0:0:0:0:
425,72,16720,1,2,0:0:0:0:
425,72,16805,1,0,1:0:0:0:
330,109,16977,1,0,1:0:0:0:
330,109,17062,1,0,0:0:0:0:
330,109,17148,6,0,P|322:68|323:28,1,72,4|2,1:0|0:0,0:0:0:0:
494,188,17491,2,0,L|487:268,1,72,0|2,1:0|0:0,0:0:0:0:
296,348,17834,1,0,1:0:0:0:
280,255,18005,1,2,0:0:0:0:
397,169,18177,1,0,1:0:0:0:
381,262,18348,1,2,0:0:0:0:
381,262,18434,1,2,0:0:0:0:
381,262,18520,5,0,1:0:0:0:
130,318,18691,1,2,0:0:0:0:
200,348,18862,2,0,P|202:311|190:268,1,72,0|2,1:0|0:0,0:0:0:0:
67,206,19205,1,0,1:0:0:0:
67,206,19291,1,2,0:0:0:0:
220,123,19462,1,2,0:0:0:0:
220,123,19548,2,0,L|268:127,1,36,0|0,1:0|0:0,0:0:0:0:
193,277,19720,2,0,L|157:274,1,36,0|0,1:0|0:0,0:0:0:0:
78,128,19891,6,0,P|71:85|74:55,1,72,4|0,1:0|0:0,0:0:0:0:
69,229,20234,2,0,P|71:264|64:300,1,72,0|0,1:0|0:0,0:0:0:0:
223,231,20577,2,0,P|257:224|305:219,1,72,0|2,1:0|0:0,0:0:0:0:
437,203,20920,1,0,1:0:0:0:
401,140,21091,1,4,0:0:0:0:
355,313,21262,5,4,1:0:0:0:
92,233,22634,5,6,1:0:0:0:
95,215,22720,1,0,0:0:0:0:
98,197,22805,1,2,0:0:0:0:
101,179,22891,1,0,0:0:0:0:
104,161,22977,1,0,1:0:0:0:
206,248,23148,1,2,1:0:0:0:
203,266,23234,1,0,0:0:0:0:
200,284,23319,1,0,1:0:0:0:
197,302,23405,1,0,0:0:0:0:
194,320,23491,1,2,0:0:0:0:
294,197,23662,5,2,1:0:0:0:
272,168,23747,1,0,0:0:0:0:
241,150,23833,1,2,0:0:0:0:
205,147,23919,1,0,0:0:0:0:
172,159,24004,1,0,1:2:0:0:
271,299,24177,1,2,1:0:0:0:
304,310,24262,1,0,0:0:0:0:
340,307,24348,1,0,1:0:0:0:
371,289,24434,1,0,0:0:0:0:
392,261,24519,1,2,0:0:0:0:
498,150,24691,5,2,1:0:0:0:
462,154,24776,1,0,0:0:0:0:
428,143,24862,1,2,0:0:0:0:
402,118,24948,1,0,0:0:0:0:
360,69,25034,5,10,1:0:0:0:
334,44,25119,1,0,0:0:0:0:
300,33,25205,1,0,1:0:0:0:
264,37,25291,1,0,0:0:0:0:
209,78,25377,6,0,L|217:134,1,45,14|0,1:0|0:0,0:0:0:0:
305,156,25548,2,0,L|297:110,1,45,2|0,0:0|0:0,0:0:0:0:
249,229,25720,1,0,1:0:0:0:
249,229,25891,1,2,1:0:0:0:
209,223,25977,1,0,0:0:0:0:
170,218,26062,1,0,1:0:0:0:
130,212,26148,1,0,0:0:0:0:
90,207,26234,1,2,0:0:0:0:
217,337,26405,5,2,1:0:0:0:
257,331,26491,1,0,0:0:0:0:
296,326,26576,1,2,0:0:0:0:
336,320,26662,1,0,0:0:0:0:
376,315,26748,1,0,1:0:0:0:
473,177,26920,1,2,1:0:0:0:
439,164,27005,1,0,0:0:0:0:
404,167,27091,1,0,1:0:0:0:
373,186,27177,1,0,0:0:0:0:
355,216,27262,1,2,0:0:0:0:
336,26,27434,5,2,1:0:0:0:
343,66,27520,1,0,0:0:0:0:
376,89,27606,1,2,1:0:0:0:
416,94,27692,1,0,0:0:0:0:
453,79,27777,5,8,1:0:0:0:
446,88,27862,1,2,1:0:0:0:
441,98,27949,1,2,0:0:0:0:
439,109,28034,1,0,0:0:0:0:
437,120,28120,6,0,P|436:145|442:172,1,45,14|0,1:0|0:0,0:0:0:0:
471,335,28291,2,0,P|472:312|468:290,1,45,0|2,0:0|1:0,0:0:0:0:
375,254,28462,1,0,1:0:0:0:
330,257,28547,1,0,0:0:0:0:
285,261,28633,1,2,1:0:0:0:
240,265,28719,1,0,0:0:0:0:
195,269,28804,5,0,1:0:0:0:
198,309,28890,1,0,0:0:0:0:
231,338,28976,1,2,0:0:0:0:
275,335,29062,1,0,0:0:0:0:
295,296,29147,1,0,1:0:0:0:
288,252,29233,1,0,0:0:0:0:
273,209,29319,1,2,0:0:0:0:
265,165,29404,1,0,0:0:0:0:
270,121,29490,5,6,1:0:0:0:
311,56,29662,1,2,0:0:0:0:
360,62,29748,1,0,0:0:0:0:
409,69,29834,1,0,1:0:0:0:
183,171,30005,1,2,1:0:0:0:
140,185,30091,1,0,0:0:0:0:
98,166,30177,1,0,0:0:0:0:
83,123,30262,1,0,0:0:0:0:
104,83,30348,1,2,0:0:0:0:
102,289,30520,5,10,1:0:0:0:
101,297,30605,1,0,0:0:0:0:
99,305,30691,1,2,0:0:0:0:
97,313,30777,1,0,0:0:0:0:
95,321,30862,5,14,1:0:0:0:
131,302,30948,1,0,0:0:0:0:
171,306,31034,1,2,0:0:0:0:
204,329,31120,1,2,1:0:0:0:
226,362,31205,5,0,1:0:0:0:
252,357,31291,1,0,0:0:0:0:
278,351,31377,1,2,1:0:0:0:
304,346,31462,1,0,0:0:0:0:
370,333,31548,5,2,1:0:0:0:
379,312,31633,1,0,0:0:0:0:
384,290,31719,1,0,0:0:0:0:
382,268,31805,1,2,1:0:0:0:
376,246,31890,1,0,1:0:0:0:
368,225,31976,1,0,0:0:0:0:
365,203,32062,1,2,1:0:0:0:
367,180,32148,1,0,0:0:0:0:
373,158,32234,6,0,L|368:106,2,45,4|2|0,1:2|1:0|0:0,0:0:0:0:
455,204,32577,1,2,1:0:0:0:
455,204,32662,1,2,1:0:0:0:
286,268,32834,1,2,1:0:0:0:
286,268,32920,1,2,1:0:0:0:
125,187,33091,1,0,0:0:0:0:
125,187,33177,1,2,1:0:0:0:
125,187,33262,1,10,1:0:0:0:
203,227,33434,1,2,1:0:0:0:
48,257,33605,5,14,1:0:0:0:
29,216,33690,1,0,0:0:0:0:
27,171,33776,1,2,0:0:0:0:
43,130,33862,1,0,0:0:0:0:
75,98,33947,1,0,1:0:0:0:
308,168,34120,5,2,1:0:0:0:
327,209,34205,1,0,0:0:0:0:
329,254,34291,1,2,0:0:0:0:
313,295,34377,1,0,0:0:0:0:
281,327,34462,1,0,1:0:0:0:
167,219,34634,5,2,1:0:0:0:
169,174,34719,1,0,0:0:0:0:
172,129,34805,1,2,0:0:0:0:
175,84,34891,1,0,0:0:0:0:
178,39,34976,1,0,1:0:0:0:
440,116,35148,1,2,1:0:0:0:
437,160,35233,1,0,0:0:0:0:
434,205,35319,1,0,1:0:0:0:
431,250,35405,1,0,0:0:0:0:
428,295,35490,1,2,0:0:0:0:
199,340,35662,6,0,P|205:308|224:266,1,45,2|0,1:0|0:0,0:0:0:0:
280,257,35834,2,0,P|286:278|289:300,1,45,0|0,0:0|0:0,0:0:0:0:
167,219,36005,2,0,L|223:210,1,45,10|0,1:0|0:0,0:0:0:0:
335,182,36177,2,0,L|279:173,1,45,2|0,1:0|0:0,0:0:0:0:
67,126,36348,5,10,1:0:0:0:
78,157,36433,1,0,0:0:0:0:
90,189,36519,1,0,0:0:0:0:
78,220,36605,1,0,0:0:0:0:
65,251,36690,1,0,1:0:0:0:
205,168,36862,5,2,1:0:0:0:
193,136,36947,1,0,0:0:0:0:
181,104,37033,1,0,0:0:0:0:
193,73,37119,1,0,0:0:0:0:
206,42,37204,1,0,1:0:0:0:
394,77,37377,5,2,1:0:0:0:
367,100,37462,1,0,0:0:0:0:
332,110,37548,1,2,0:0:0:0:
296,104,37634,1,0,0:0:0:0:
268,80,37720,1,0,1:0:0:0:
479,24,37891,1,2,1:0:0:0:
474,59,37977,1,0,0:0:0:0:
469,94,38062,1,0,1:0:0:0:
464,129,38148,1,0,0:0:0:0:
460,164,38234,1,2,0:0:0:0:
251,288,38405,5,2,1:0:0:0:
291,259,38491,1,2,1:0:0:0:
340,257,38577,1,0,0:0:0:0:
385,275,38662,1,2,1:0:0:0:
408,318,38748,5,10,1:0:0:0:
435,333,38834,1,0,0:0:0:0:
465,326,38920,1,2,1:0:0:0:
482,300,39005,1,0,0:0:0:0:
480,268,39091,5,14,1:0:0:0:
325,339,39262,1,2,1:2:0:0:
181,245,39434,1,2,1:0:0:0:
181,245,39520,1,0,0:0:0:0:
181,245,39605,1,2,1:2:0:0:
221,335,39777,5,0,1:0:0:0:
296,182,39948,1,2,1:0:0:0:
189,47,40120,1,2,1:2:0:0:
189,47,40205,1,0,0:0:0:0:
189,47,40291,1,2,1:2:0:0:
124,204,40462,5,14,1:0:0:0:
296,182,40634,1,2,1:2:0:0:
293,213,40720,1,0,0:0:0:0:
290,244,40805,1,2,1:2:0:0:
388,180,40977,5,10,1:0:0:0:
216,202,41149,1,2,1:2:0:0:
219,171,41235,1,0,0:0:0:0:
222,140,41320,1,2,1:2:0:0:
477,49,41491,5,2,1:0:0:0:
474,71,41577,1,0,0:0:0:0:
472,93,41662,1,2,1:0:0:0:
470,115,41748,1,0,0:0:0:0:
467,137,41834,5,14,1:0:0:0:
455,171,41920,1,0,0:0:0:0:
462,205,42005,1,2,0:0:0:0:
449,238,42091,1,2,1:0:0:0:
423,264,42177,5,0,1:0:0:0:
415,274,42262,1,0,0:0:0:0:
409,286,42348,1,2,1:0:0:0:
406,299,42434,1,0,0:0:0:0:
368,324,42520,5,14,1:0:0:0:
341,288,42605,1,0,0:0:0:0:
296,279,42691,1,2,0:0:0:0:
254,297,42777,1,2,1:0:0:0:
228,338,42862,1,0,1:0:0:0:
180,353,42948,1,0,0:0:0:0:
134,332,43034,1,2,1:0:0:0:
121,283,43120,1,0,0:0:0:0:
147,242,43205,5,4,1:2:0:0:
117,100,43377,1,4,1:2:0:0:
10,196,43548,1,2,0:0:0:0:
10,196,43634,1,2,0:0:0:0:
260,160,43805,1,2,0:0:0:0:
260,160,43891,2,0,P|315:165|418:179,2,135,4|4|4,1:2|1:2|1:2,0:0:0:0:
260,160,44920,5,4,1:0:0:0:
256,190,59662,6,0,P|247:153|225:121,1,72,4|0,0:0|0:0,0:0:0:0:
181,179,60005,1,2,0:0:0:0:
254,266,60177,2,0,P|297:256|330:157,1,144,2|2,0:0|0:0,0:0:0:0:
300,107,60691,1,2,0:0:0:0:
300,107,60777,1,0,0:0:0:0:
300,107,60862,1,0,0:0:0:0:
450,56,61034,6,0,P|450:98|460:149,1,72,2|0,0:0|0:0,0:0:0:0:
492,198,61377,1,2,0:0:0:0:
440,258,61548,2,0,P|404:246|298:241,1,144,2|2,0:0|0:0,0:0:0:0:
254,297,62062,1,0,0:0:0:0:
254,297,62148,1,0,0:0:0:0:
254,297,62234,1,2,0:0:0:0:
121,364,62405,6,0,P|68:351|48:339,1,72,6|0,0:0|0:0,0:0:0:0:
173,242,62748,1,0,0:0:0:0:
101,288,62920,2,0,B|106:213|101:142,1,144,4|0,0:0|0:0,0:0:0:0:
31,180,63434,1,2,0:0:0:0:
31,180,63520,1,0,0:0:0:0:
31,180,63605,1,0,0:0:0:0:
188,160,63777,6,0,P|177:115|162:89,1,72,6|0,0:0|0:0,0:0:0:0:
90,27,64120,1,2,0:0:0:0:
188,97,64291,2,0,P|225:116|314:51,1,144,4|0,0:0|0:0,0:0:0:0:
239,35,64805,1,2,0:0:0:0:
239,35,64891,1,0,0:0:0:0:
239,35,64977,1,2,0:0:0:0:
374,135,65148,6,0,P|378:92|388:59,1,72,4|2,0:0|0:0,0:0:0:0:
450,112,65491,1,2,0:0:0:0:
375,215,65662,2,0,P|319:215|217:193,1,144,2|0,0:0|0:0,0:0:0:0:
289,138,66177,1,2,0:0:0:0:
289,138,66262,1,0,0:0:0:0:
289,138,66348,1,2,0:0:0:0:
381,295,66520,5,4,0:0:0:0:
449,315,66691,1,2,0:0:0:0:
474,248,66862,1,2,0:0:0:0:
405,226,67034,2,0,P|412:277|406:348,1,108,2|0,0:0|0:0,0:0:0:0:
401,346,67377,1,0,0:0:0:0:
304,298,67548,1,2,0:0:0:0:
304,298,67634,1,0,0:0:0:0:
304,298,67720,1,2,0:0:0:0:
211,352,67891,5,4,0:0:0:0:
256,192,67977,12,0,69091,0:0:0:0:
222,274,69262,5,4,1:2:0:0:
286,111,69434,1,4,1:2:0:0:
116,142,69948,5,2,0:0:0:0:
116,142,70291,2,0,L|112:71,1,67.5,0|0,1:0|0:0,0:0:0:0:
67,26,70634,5,4,1:0:0:0:
127,64,70805,1,0,0:0:0:0:
195,40,70977,1,2,0:0:0:0:
242,93,71148,1,2,0:0:0:0:
242,93,71491,5,2,0:0:0:0:
253,74,71662,1,2,0:0:0:0:
272,64,71834,1,0,0:0:0:0:
415,233,72005,5,4,1:0:0:0:
435,156,72177,1,2,0:0:0:0:
327,222,72348,1,0,0:0:0:0:
347,299,72520,1,2,0:0:0:0:
347,299,72862,5,2,0:0:0:0:
368,302,73034,1,2,0:0:0:0:
385,289,73205,1,0,0:0:0:0:
213,352,73377,5,4,1:0:0:0:
217,273,73548,1,2,0:0:0:0:
90,190,73720,1,0,0:0:0:0:
86,269,73891,1,2,0:0:0:0:
86,269,74234,5,2,0:0:0:0:
106,275,74405,1,2,0:0:0:0:
121,290,74577,1,0,0:0:0:0:
252,110,74748,5,4,1:0:0:0:
165,99,74920,1,2,0:0:0:0:
79,86,75091,1,0,0:0:0:0:
134,20,75262,1,2,0:0:0:0:
134,20,75605,5,2,0:0:0:0:
143,39,75777,1,2,0:0:0:0:
143,60,75948,1,2,0:0:0:0:
255,208,76120,6,0,P|297:204|325:186,1,72,4|0,1:0|1:0,0:0:0:0:
459,238,76462,2,0,P|432:214|398:204,1,72,4|0,1:2|1:0,0:0:0:0:
393,64,76805,2,0,P|375:95|373:130,1,72,4|0,1:2|1:0,0:0:0:0:
459,238,77148,1,4,1:2:0:0:
393,64,77320,1,0,1:0:0:0:
255,208,77491,6,0,L|269:292,1,72,4|0,1:2|1:0,0:0:0:0:
137,347,77834,2,0,L|125:275,1,72,4|0,1:2|1:0,0:0:0:0:
177,63,78177,1,4,1:2:0:0:
140,201,78348,1,0,1:0:0:0:
151,83,78520,1,4,1:2:0:0:
153,225,78691,1,0,1:0:0:0:
260,160,78862,5,2,1:0:0:0:
296,141,78948,1,0,1:0:0:0:
336,138,79034,1,0,1:0:0:0:
370,158,79120,1,2,1:0:0:0:
404,178,79205,1,0,1:0:0:0:
444,177,79291,1,0,1:0:0:0:
478,155,79377,1,2,1:0:0:0:
489,116,79462,1,0,1:0:0:0:
476,77,79548,1,0,1:0:0:0:
441,55,79634,1,0,1:0:0:0:
400,53,79720,2,0,L|376:57,4,22.5,2|0|0|0|4,1:0|1:0|1:0|1:0|1:2,0:0:0:0:
336,138,79977,1,0,1:0:0:0:
336,138,80062,2,0,L|313:134,4,22.5,0|0|0|0|4,1:0|1:0|1:0|1:0|1:0,0:0:0:0:
97,257,80920,5,4,1:2:0:0:
82,95,81177,1,4,1:2:0:0:
229,162,81434,1,4,1:2:0:0:
229,162,81948,5,4,1:2:0:0:
417,337,82977,5,6,1:0:0:0:
355,202,83148,1,2,0:0:0:0:
355,202,83234,1,2,0:0:0:0:
355,202,83320,2,0,L|363:113,1,72,2|2,1:2|1:0,0:0:0:0:
278,45,83577,2,0,L|270:134,1,90,2|0,0:1|0:0,0:0:0:0:
206,195,83834,1,2,1:0:0:0:
180,210,83919,1,0,0:0:0:0:
151,218,84005,1,2,1:0:0:0:
121,219,84091,1,0,0:0:0:0:
93,211,84176,1,0,0:0:0:0:
67,195,84262,1,0,0:0:0:0:
46,174,84348,5,6,1:0:0:0:
145,88,84520,1,2,0:0:0:0:
145,88,84691,1,2,1:0:0:0:
272,240,84862,1,2,1:0:0:0:
272,240,84948,1,2,0:1:0:0:
272,240,85034,2,0,P|277:284|257:340,1,90,0|2,1:0|1:0,0:0:0:0:
367,328,85377,1,4,1:2:0:0:
179,274,85548,1,4,1:2:0:0:
407,184,85720,6,0,B|414:139|414:139|406:94,1,90,6|0,1:0|0:0,0:0:0:0:
247,126,86062,2,0,L|333:121,1,72,2|2,1:0|1:0,0:0:0:0:
327,42,86320,2,0,L|208:48,1,107.999996704102,2|0,0:1|0:0,0:0:0:0:
172,115,86577,2,0,L|124:107,1,31.4999990386963,2|0,0:0|0:0,0:0:0:0:
154,190,86748,2,0,L|106:182,1,31.4999990386963,2|0,1:0|0:0,0:0:0:0:
135,265,86920,2,0,L|87:257,1,31.4999990386963,2|0,1:0|1:0,0:0:0:0:
275,349,87091,5,4,1:2:0:0:
306,343,87177,1,0,0:0:0:0:
336,337,87262,1,4,1:2:0:0:
367,331,87348,1,0,0:0:0:0:
398,326,87434,1,6,1:2:0:0:
501,194,87605,1,0,1:0:0:0:
501,194,87691,2,0,P|448:202|406:173,1,90,2|0,1:0|0:0,0:0:0:0:
338,148,87948,6,0,P|331:169|328:191,1,45,4|0,1:2|0:0,0:0:0:0:
463,113,88120,2,0,P|456:77|447:53,1,45,4|0,1:2|0:0,0:0:0:0:
331,6,88291,2,0,P|324:27|321:49,1,45,4|0,1:2|0:0,0:0:0:0:
236,108,88462,6,0,P|194:104|129:94,1,90,6|0,1:0|0:0,0:0:0:0:
33,28,88805,2,0,P|35:62|31:104,1,72,2|2,1:0|1:0,0:0:0:0:
97,189,89062,2,0,P|162:171|215:165,1,107.999996704102,2|0,1:0|0:0,0:0:0:0:
203,166,89320,1,4,1:2:0:0:
179,282,89491,1,4,1:2:0:0:
63,256,89662,1,4,1:2:0:0:
284,351,89834,5,6,1:0:0:0:
300,348,89920,1,0,0:0:0:0:
315,345,90005,1,2,0:0:0:0:
331,342,90091,1,0,0:0:0:0:
348,338,90177,2,0,L|354:244,1,72,2|2,1:0|1:0,0:0:0:0:
470,220,90434,2,0,L|465:327,1,107.999996704102,2|0,0:1|0:0,0:0:0:0:
472,342,90691,1,2,1:0:0:0:
382,281,90862,1,4,1:2:0:0:
457,203,91034,1,4,1:2:0:0:
381,42,91205,6,0,L|475:35,1,90,6|2,1:0|0:0,0:0:0:0:
470,35,91462,1,0,0:0:0:0:
470,35,91548,1,2,1:0:0:0:
308,193,91720,1,2,1:0:0:0:
300,182,91805,1,0,0:0:0:0:
292,171,91891,2,0,P|283:144|281:124,1,45,0|0,1:0|0:0,0:0:0:0:
258,5,92062,2,4,P|254:27|247:48,1,45,4|0,1:2|0:0,0:0:0:0:
98,68,92234,1,4,1:2:0:0:
174,179,92405,1,2,1:0:0:0:
174,179,92491,1,0,1:0:0:0:
174,179,92577,5,4,1:2:0:0:
258,5,92748,1,4,1:2:0:0:
72,133,92920,2,0,P|83:188|83:223,1,72,2|0,1:0|0:0,0:0:0:0:
123,261,93177,2,0,P|172:279|225:258,1,107.999996704102,2|0,1:0|0:0,0:0:0:0:
270,217,93434,1,2,1:0:0:0:
296,197,93520,1,0,0:0:0:0:
326,188,93605,1,4,1:2:0:0:
358,189,93691,1,0,0:0:0:0:
389,196,93777,1,4,1:2:0:0:
415,213,93862,1,0,0:0:0:0:
462,259,93948,6,0,L|469:163,1,90,6|2,1:0|0:0,0:0:0:0:
345,266,94291,2,0,L|351:355,1,90,2|2,1:0|1:0,0:0:0:0:
351,355,94548,1,2,0:1:0:0:
351,355,94634,1,0,0:0:0:0:
271,260,94805,1,2,0:0:0:0:
280,179,94977,1,4,1:2:0:0:
287,98,95148,1,4,1:2:0:0:
488,34,95320,5,2,1:0:0:0:
463,60,95405,1,0,0:0:0:0:
428,69,95491,1,2,0:0:0:0:
393,59,95577,1,0,0:0:0:0:
366,35,95662,2,0,P|303:28|275:22,1,90,2|2,1:0|1:0,0:0:0:0:
198,110,95920,2,0,P|261:103|289:97,1,90,2|0,0:1|0:0,0:0:0:0:
205,38,96177,1,2,1:0:0:0:
28,106,96348,1,4,1:2:0:0:
94,30,96520,1,4,1:2:0:0:
155,182,96691,1,6,1:0:0:0:
153,190,96777,1,0,0:0:0:0:
151,198,96862,1,2,0:0:0:0:
149,206,96948,1,0,0:0:0:0:
147,214,97034,6,0,B|232:213,1,72,2|2,1:0|1:0,0:0:0:0:
286,341,97291,2,0,B|265:347|238:352|238:352|209:348|180:334,1,107.999996704102,2|0,0:1|0:0,0:0:0:0:
239,280,97548,1,2,0:0:0:0:
430,288,97720,2,0,P|441:320|447:369,1,72,4|0,1:2|0:0,0:0:0:0:
364,212,98062,5,4,1:2:0:0:
369,185,98148,1,0,0:0:0:0:
374,158,98234,1,2,0:0:0:0:
379,131,98320,1,0,0:0:0:0:
384,104,98405,1,2,1:0:0:0:
470,175,98577,1,2,1:0:0:0:
470,175,98662,1,2,0:1:0:0:
470,175,98748,2,0,L|455:265,1,90,4|4,1:2|1:2,0:0:0:0:
278,169,99091,2,0,L|292:80,1,90,4|4,1:2|1:2,0:0:0:0:
101,56,99434,5,4,1:0:0:0:
92,71,99519,1,0,0:0:0:0:
86,88,99605,1,2,0:0:0:0:
81,106,99691,1,0,0:0:0:0:
80,124,99776,1,2,1:0:0:0:
83,141,99862,1,0,0:0:0:0:
89,158,99948,1,2,1:0:0:0:
97,174,100034,1,2,0:1:0:0:
107,190,100119,1,0,0:0:0:0:
115,205,100205,1,0,0:0:0:0:
122,222,100291,1,4,0:0:0:0:
124,240,100376,1,0,0:0:0:0:
122,258,100462,1,8,1:0:0:0:
117,275,100548,1,0,0:0:0:0:
109,291,100634,1,4,1:2:0:0:
99,306,100719,1,0,0:0:0:0:
41,355,100805,5,14,1:0:0:0:
25,322,100890,1,0,0:0:0:0:
27,286,100976,1,2,0:0:0:0:
47,256,101062,1,0,0:0:0:0:
79,239,101147,1,2,1:0:0:0:
116,237,101233,1,0,0:0:0:0:
150,249,101319,1,2,1:0:0:0:
179,271,101405,1,2,0:1:0:0:
207,295,101490,1,0,0:0:0:0:
237,316,101576,1,0,0:0:0:0:
270,330,101662,1,2,1:0:0:0:
306,337,101747,1,0,0:0:0:0:
343,336,101833,1,10,1:0:0:0:
378,329,101919,1,0,0:0:0:0:
411,313,102005,1,4,0:0:0:0:
437,287,102090,1,0,0:0:0:0:
470,224,102176,5,14,1:0:0:0:
447,221,102262,1,0,0:0:0:0:
424,218,102348,1,0,1:0:0:0:
401,215,102434,1,0,1:0:0:0:
378,212,102520,1,2,1:0:0:0:
355,209,102605,1,0,0:0:0:0:
332,206,102691,1,2,1:0:0:0:
309,203,102777,1,2,0:1:0:0:
264,245,102862,5,12,1:0:0:0:
272,224,102947,1,0,0:0:0:0:
278,202,103033,1,0,1:0:0:0:
277,180,103119,1,0,1:0:0:0:
271,158,103204,1,0,1:0:0:0:
264,137,103290,1,0,0:0:0:0:
260,115,103376,1,0,1:0:0:0:
262,92,103462,1,0,1:0:0:0:
288,36,103547,5,12,1:0:0:0:
174,154,103720,1,4,1:2:0:0:
389,217,103891,1,4,1:2:0:0:
251,320,104062,1,4,1:2:0:0:
251,320,104148,1,0,0:0:0:0:
251,320,104234,5,2,1:0:0:0:
216,284,104320,1,0,0:0:0:0:
166,281,104405,1,2,1:0:0:0:
121,303,104491,1,2,1:0:0:0:
96,346,104577,1,0,1:0:0:0:
48,357,104662,1,0,0:0:0:0:
12,322,104748,1,2,1:0:0:0:
19,272,104834,1,0,0:0:0:0:
65,255,104920,5,4,1:0:0:0:
