osu file format v14

[General]
AudioFilename: Hard Bargain (Ghost Inside).mp3
AudioLeadIn: 0
PreviewTime: -1
Countdown: 0
SampleSet: Normal
StackLeniency: 0.8
Mode: 0
LetterboxInBreaks: 1
SkinPreference:shocked!
WidescreenStoryboard: 1

[Editor]
DistanceSpacing: 0.5
BeatDivisor: 6
GridSize: 4
TimelineZoom: 1

[Metadata]
Title:Hard Bargain (Ghost Inside)
TitleUnicode:Hard Bargain (Ghost Inside)
Artist:e-dubble
ArtistUnicode:e-dubble
Creator:Num5119
Version:Kappa
Source:
Tags:
BeatmapID:1022878
BeatmapSetID:478977

[Difficulty]
HPDrainRate:6.5
CircleSize:4.2
OverallDifficulty:8
ApproachRate:9
SliderMultiplier:2.19999990463257
SliderTickRate:1

[Events]
//Background and Video events
0,0,"5243641910_e30e0171b2_o.jpg",0,0
//Break Periods
//Storyboard Layer 0 (Background)
//Storyboard Layer 1 (Fail)
//Storyboard Layer 2 (Pass)
//Storyboard Layer 3 (Foreground)
//Storyboard Sound Samples

[TimingPoints]
4740,576.923076923077,4,1,0,100,1,0
23201,-83.3333333333333,4,1,0,100,0,0
31422,-66.6666666666667,4,1,0,100,0,0
32143,-83.3333333333333,4,1,0,100,0,0
41663,-100,4,1,0,100,0,0
54355,-66.6666666666667,4,1,0,100,0,1
54932,-100,4,1,0,100,0,0
58970,-66.6666666666667,4,1,0,100,0,1
59836,-100,4,1,0,100,0,0
78586,-83.3333333333333,4,1,0,100,0,0
97047,-100,4,1,0,100,0,0
133970,-83.3333333333333,4,1,0,100,0,0

[HitObjects]
116,156,124,6,0,B|36:372|104:304|180:248|180:248,1,219.999990463257
432,272,989,1,0,0:0:0:0:
460,88,1278,6,0,B|292:108|232:128|248:68,1,219.999990463257
104,187,2143,1,0,0:0:0:0:
160,76,2432,6,0,L|88:212,1,125
212,128,3009,2,0,L|88:196,1,125
228,204,3586,2,0,L|100:188,1,125
196,272,4163,2,0,L|96:180,1,125
392,296,4643,1,0,0:0:0:0:
392,296,4739,2,0,P|328:248|328:232,2,59.9999984105428
220,204,5316,1,0,0:0:0:0:
360,224,5605,1,0,0:0:0:0:
368,80,5893,2,0,P|448:20|448:8,2,109.999995231628
268,280,6759,1,0,0:0:0:0:
112,256,7047,6,0,P|48:340|52:352,2,109.999995231628
192,280,7913,1,0,0:0:0:0:
80,160,8201,1,0,0:0:0:0:
340,188,8538,1,0,0:0:0:0:
380,124,8778,2,0,P|476:84|476:76,2,109.999995231628
168,288,9643,5,0,0:0:0:0:
196,112,9932,1,0,0:0:0:0:
388,128,10220,1,0,0:0:0:0:
316,292,10509,2,0,P|412:344|420:340,2,109.999995231628
348,204,11374,5,0,0:0:0:0:
48,244,11663,1,0,0:0:0:0:
176,152,11951,1,0,0:0:0:0:
176,152,12240,1,0,0:0:0:0:
364,84,12528,1,0,0:0:0:0:
260,324,12816,1,0,0:0:0:0:
112,144,13105,2,0,P|76:176|72:192,1,36.6666650772095
372,148,13393,2,0,P|408:164|420:176,3,36.6666650772095
400,344,13970,5,0,0:0:0:0:
64,312,14259,1,0,0:0:0:0:
424,176,14547,1,0,0:0:0:0:
88,112,14836,1,0,0:0:0:0:
248,328,15124,1,0,0:0:0:0:
384,40,15413,1,0,0:0:0:0:
124,184,15701,1,0,0:0:0:0:
460,212,15990,1,0,0:0:0:0:
112,268,16278,6,0,P|56:308|96:340,2,109.999995231628
236,96,17143,1,0,0:0:0:0:
380,128,17432,2,0,P|480:72|480:68,2,109.999995231628
320,256,18297,1,0,0:0:0:0:
168,92,18586,1,0,0:0:0:0:
96,200,18874,1,0,0:0:0:0:
372,128,19163,1,0,0:0:0:0:
396,264,19451,1,0,0:0:0:0:
116,260,19740,6,0,P|88:340|96:344,2,109.999995231628
256,320,20605,1,0,0:0:0:0:
256,40,20893,1,0,0:0:0:0:
432,192,21182,1,0,0:0:0:0:
256,340,21470,1,0,0:0:0:0:
96,192,21759,1,0,0:0:0:0:
432,192,22047,1,0,0:0:0:0:
392,264,22336,5,0,0:0:0:0:
364,280,22432,1,0,0:0:0:0:
324,280,22528,1,0,0:0:0:0:
288,272,22624,6,0,P|272:280|276:272,1,36.6666650772095
256,152,22913,1,0,0:0:0:0:
108,316,23201,5,0,0:0:0:0:
120,88,23490,1,0,0:0:0:0:
404,88,23778,1,0,0:0:0:0:
396,312,24066,1,0,0:0:0:0:
72,256,24355,1,0,0:0:0:0:
172,32,24643,1,0,0:0:0:0:
420,132,24932,1,0,0:0:0:0:
316,328,25220,1,0,0:0:0:0:
68,192,25509,5,0,0:0:0:0:
256,36,25797,1,0,0:0:0:0:
456,192,26086,1,0,0:0:0:0:
256,328,26374,1,0,0:0:0:0:
148,56,26663,1,0,0:0:0:0:
256,344,26951,1,0,0:0:0:0:
360,56,27240,1,0,0:0:0:0:
96,248,27528,1,0,0:0:0:0:
388,248,27816,1,0,0:0:0:0:
256,32,28105,5,0,0:0:0:0:
112,352,28393,1,0,0:0:0:0:
256,32,28682,1,0,0:0:0:0:
412,360,28970,1,0,0:0:0:0:
64,152,29259,1,0,0:0:0:0:
440,156,29547,1,0,0:0:0:0:
220,140,29836,5,0,0:0:0:0:
220,256,30124,1,0,0:0:0:0:
320,200,30413,1,0,0:0:0:0:
60,192,30701,1,0,0:0:0:0:
400,332,30990,1,0,0:0:0:0:
384,40,31278,1,0,0:0:0:0:
128,176,31566,2,0,P|96:224|100:228,1,54.9999997138977
388,176,31855,2,0,P|436:208|440:224,1,54.9999997138977
128,176,32143,1,0,0:0:0:0:
384,176,32432,5,0,0:0:0:0:
256,24,32720,1,0,0:0:0:0:
256,56,32816,1,0,0:0:0:0:
256,92,32913,1,0,0:0:0:0:
256,124,33009,6,0,P|256:144|264:136,1,43.9999967498781
256,356,33297,1,0,0:0:0:0:
184,160,33586,5,0,0:0:0:0:
60,72,33874,1,0,0:0:0:0:
328,160,34163,1,0,0:0:0:0:
440,76,34451,1,0,0:0:0:0:
256,260,34740,1,0,0:0:0:0:
256,56,35028,1,0,0:0:0:0:
256,360,35316,1,0,0:0:0:0:
256,164,35605,1,0,0:0:0:0:
40,348,35893,5,0,0:0:0:0:
476,264,36182,1,0,0:0:0:0:
32,148,36470,1,0,0:0:0:0:
464,36,36759,1,0,0:0:0:0:
256,120,37047,5,0,0:0:0:0:
308,224,37336,1,0,0:0:0:0:
204,220,37624,1,0,0:0:0:0:
152,80,37913,1,0,0:0:0:0:
392,144,38201,1,0,0:0:0:0:
192,300,38490,1,0,0:0:0:0:
300,24,38778,1,0,0:0:0:0:
412,352,39066,1,0,0:0:0:0:
28,304,39355,1,0,0:0:0:0:
400,68,39643,5,0,0:0:0:0:
120,324,39932,1,0,0:0:0:0:
352,264,40220,1,0,0:0:0:0:
400,304,40413,1,0,0:0:0:0:
168,128,40701,1,0,0:0:0:0:
132,96,40797,1,0,0:0:0:0:
220,236,41086,5,0,0:0:0:0:
240,216,41182,1,0,0:0:0:0:
260,196,41278,1,0,0:0:0:0:
280,172,41374,6,0,P|296:148|312:148,1,43.9999967498781
416,112,41663,6,0,P|476:64|464:44,2,109.999995231628
256,64,42528,1,0,0:0:0:0:
112,160,42816,2,0,P|52:128|68:96,2,109.999995231628
256,300,43682,1,0,0:0:0:0:
84,288,43970,5,0,0:0:0:0:
144,60,44259,1,0,0:0:0:0:
424,300,44547,1,0,0:0:0:0:
352,68,44836,1,0,0:0:0:0:
120,284,45124,2,0,P|184:332|200:324,2,109.999995231628
436,328,45990,1,0,0:0:0:0:
356,92,46278,6,0,P|436:56|432:32,2,109.999995231628
256,188,47143,1,0,0:0:0:0:
80,320,47432,1,0,0:0:0:0:
88,48,47720,1,0,0:0:0:0:
256,192,48009,1,0,0:0:0:0:
432,324,48297,1,0,0:0:0:0:
428,52,48586,5,0,0:0:0:0:
72,344,48874,1,0,0:0:0:0:
352,120,49163,1,0,0:0:0:0:
164,276,49451,1,0,0:0:0:0:
256,192,49740,1,0,0:0:0:0:
72,52,50028,5,0,0:0:0:0:
88,76,50124,1,0,0:0:0:0:
104,96,50220,1,0,0:0:0:0:
124,128,50316,6,0,P|136:140|136:160,1,36.6666650772095
364,152,50605,6,0,P|384:124|372:112,1,36.6666650772095
256,276,50893,1,0,0:0:0:0:
76,352,51182,1,0,0:0:0:0:
256,192,51470,1,0,0:0:0:0:
68,188,51759,1,0,0:0:0:0:
256,280,52047,5,0,0:0:0:0:
424,352,52336,1,0,0:0:0:0:
256,192,52624,1,0,0:0:0:0:
448,192,52913,1,0,0:0:0:0:
256,56,53201,5,0,0:0:0:0:
68,136,53490,1,0,0:0:0:0:
248,320,53778,1,0,0:0:0:0:
256,56,54066,1,0,0:0:0:0:
356,104,54355,1,0,0:0:0:0:
404,200,54643,1,0,0:0:0:0:
336,280,54932,1,0,0:0:0:0:
232,308,55220,1,0,0:0:0:0:
392,192,55509,6,0,P|484:236|488:256,2,109.999995231628
352,340,56374,1,0,0:0:0:0:
116,292,56663,2,0,P|48:312|36:348,2,109.999995231628
256,192,57528,1,0,0:0:0:0:
272,88,57816,5,0,0:0:0:0:
324,280,58105,1,0,0:0:0:0:
116,220,58393,1,0,0:0:0:0:
424,104,58682,1,0,0:0:0:0:
128,312,58970,1,0,0:0:0:0:
88,40,59259,5,0,0:0:0:0:
88,72,59355,1,0,0:0:0:0:
104,108,59451,1,0,0:0:0:0:
128,128,59547,2,0,P|104:164|92:164,1,36.6666650772095
384,176,59836,2,0,P|384:192|416:204,1,36.6666650772095
108,68,60124,5,0,0:0:0:0:
108,312,60413,1,0,0:0:0:0:
408,312,60701,1,0,0:0:0:0:
412,72,60990,1,0,0:0:0:0:
68,116,61278,5,0,0:0:0:0:
168,348,61566,1,0,0:0:0:0:
428,236,61855,1,0,0:0:0:0:
316,40,62143,1,0,0:0:0:0:
72,188,62432,5,0,0:0:0:0:
256,336,62720,1,0,0:0:0:0:
432,192,63009,1,0,0:0:0:0:
256,32,63297,1,0,0:0:0:0:
104,340,63586,5,0,0:0:0:0:
412,272,63874,1,0,0:0:0:0:
104,184,64163,1,0,0:0:0:0:
412,64,64451,1,0,0:0:0:0:
104,64,64740,1,0,0:0:0:0:
416,184,65028,1,0,0:0:0:0:
104,268,65316,1,0,0:0:0:0:
412,340,65605,1,0,0:0:0:0:
256,84,65893,5,0,0:0:0:0:
132,276,66182,1,0,0:0:0:0:
376,280,66470,1,0,0:0:0:0:
136,96,66759,1,0,0:0:0:0:
256,324,67047,1,0,0:0:0:0:
368,92,67336,1,0,0:0:0:0:
84,252,67624,5,0,0:0:0:0:
444,224,67913,1,0,0:0:0:0:
236,28,68201,1,0,0:0:0:0:
228,320,68490,1,0,0:0:0:0:
408,84,68778,1,0,0:0:0:0:
104,80,69066,1,0,0:0:0:0:
380,336,69355,5,0,0:0:0:0:
432,148,69643,1,0,0:0:0:0:
184,332,69932,1,0,0:0:0:0:
80,144,70220,1,0,0:0:0:0:
344,48,70509,1,0,0:0:0:0:
436,260,70797,1,0,0:0:0:0:
176,48,71086,1,0,0:0:0:0:
96,256,71374,1,0,0:0:0:0:
216,160,71663,5,0,0:0:0:0:
256,228,71951,1,0,0:0:0:0:
296,160,72240,1,0,0:0:0:0:
152,248,72528,1,0,0:0:0:0:
360,220,72816,1,0,0:0:0:0:
232,64,73105,1,0,0:0:0:0:
256,328,73393,1,0,0:0:0:0:
416,64,73682,1,0,0:0:0:0:
80,56,73970,5,0,0:0:0:0:
416,112,74259,1,0,0:0:0:0:
208,332,74547,1,0,0:0:0:0:
192,80,74836,1,0,0:0:0:0:
360,204,75124,1,0,0:0:0:0:
160,272,75413,1,0,0:0:0:0:
292,112,75701,1,0,0:0:0:0:
284,252,75990,1,0,0:0:0:0:
168,172,76278,1,0,0:0:0:0:
256,192,76314,12,0,78297,0:0:0:0:
128,132,78586,6,0,P|36:120|32:140,2,131.999990249634
208,256,79451,1,0,0:0:0:0:
364,104,79740,2,0,P|424:44|460:72,2,131.999990249634
256,192,80605,1,0,0:0:0:0:
352,328,80893,5,0,0:0:0:0:
160,348,81182,1,0,0:0:0:0:
156,248,81470,1,0,0:0:0:0:
356,272,81759,1,0,0:0:0:0:
260,24,82047,2,0,B|284:108|244:120|392:148|20:116|500:160|20:144|496:172|16:160|536:88|44:184|452:212|156:204|264:212|272:216|272:212|256:208|268:216|268:216|280:208|280:216|268:184|260:228|264:252|272:336,1,307.999977249146
268,295,82913,1,0,0:0:0:0:
132,108,83201,5,0,0:0:0:0:
392,192,83490,1,0,0:0:0:0:
132,264,83778,1,0,0:0:0:0:
256,192,84066,5,0,0:0:0:0:
392,108,84355,5,0,0:0:0:0:
104,192,84643,1,0,0:0:0:0:
392,268,84932,1,0,0:0:0:0:
256,192,85220,5,0,0:0:0:0:
40,348,85509,5,0,0:0:0:0:
472,348,85797,1,0,0:0:0:0:
116,180,86086,1,0,0:0:0:0:
404,180,86374,1,0,0:0:0:0:
256,40,86663,1,0,0:0:0:0:
256,348,86951,1,0,0:0:0:0:
256,324,87047,1,0,0:0:0:0:
256,304,87143,1,0,0:0:0:0:
256,276,87240,2,0,P|240:264|256:264,1,43.9999967498781
88,224,87528,2,0,P|104:188|128:184,1,43.9999967498781
164,88,87816,6,0,P|76:28|84:4,2,131.999990249634
260,160,88682,1,0,0:0:0:0:
360,104,88970,2,0,P|428:28|476:40,2,131.999990249634
256,192,89836,1,0,0:0:0:0:
152,288,90124,5,0,0:0:0:0:
256,48,90413,1,0,0:0:0:0:
344,292,90701,1,0,0:0:0:0:
256,192,90990,1,0,0:0:0:0:
184,284,91278,1,0,0:0:0:0:
320,36,91566,1,0,0:0:0:0:
128,168,91855,1,0,0:0:0:0:
444,120,92143,1,0,0:0:0:0:
176,104,92432,6,0,P|80:44|56:56,2,131.999990249634
280,160,93297,1,0,0:0:0:0:
384,216,93586,1,0,0:0:0:0:
140,304,93874,1,0,0:0:0:0:
288,328,94163,1,0,0:0:0:0:
92,140,94451,1,0,0:0:0:0:
192,60,94740,6,0,P|300:104|300:108,2,149.999995422363
272,300,95605,1,0,0:0:0:0:
224,308,95797,1,0,0:0:0:0:
128,104,95990,1,0,0:0:0:0:
164,76,96182,1,0,0:0:0:0:
432,112,96470,1,0,0:0:0:0:
396,124,96566,1,0,0:0:0:0:
360,144,96663,1,0,0:0:0:0:
332,164,96759,2,0,P|320:176|324:176,1,43.9999967498781
216,236,97047,5,0,0:0:0:0:
256,128,97336,1,0,0:0:0:0:
288,240,97624,1,0,0:0:0:0:
196,168,97913,1,0,0:0:0:0:
316,176,98201,1,0,0:0:0:0:
144,312,98490,5,0,0:0:0:0:
256,40,98778,1,0,0:0:0:0:
348,320,99066,1,0,0:0:0:0:
124,120,99355,1,0,0:0:0:0:
384,120,99643,1,0,0:0:0:0:
124,120,99932,5,0,0:0:0:0:
348,320,100220,1,0,0:0:0:0:
256,40,100509,1,0,0:0:0:0:
144,312,100797,1,0,0:0:0:0:
384,120,101086,1,0,0:0:0:0:
64,288,101374,1,0,0:0:0:0:
112,48,101663,5,0,0:0:0:0:
432,88,101951,1,0,0:0:0:0:
380,348,102240,1,0,0:0:0:0:
64,288,102528,1,0,0:0:0:0:
352,40,102816,5,0,0:0:0:0:
60,160,103105,1,0,0:0:0:0:
376,336,103393,1,0,0:0:0:0:
224,88,103682,1,0,0:0:0:0:
64,264,103970,1,0,0:0:0:0:
356,184,104259,1,0,0:0:0:0:
56,40,104547,5,0,0:0:0:0:
240,204,104836,1,0,0:0:0:0:
44,336,105124,1,0,0:0:0:0:
356,220,105413,1,0,0:0:0:0:
76,48,105701,5,0,0:0:0:0:
304,208,105990,1,0,0:0:0:0:
48,320,106278,1,0,0:0:0:0:
472,324,106566,1,0,0:0:0:0:
248,28,106855,1,0,0:0:0:0:
120,268,107143,1,0,0:0:0:0:
384,272,107432,1,0,0:0:0:0:
252,112,107720,1,0,0:0:0:0:
456,64,108009,1,0,0:0:0:0:
252,296,108297,1,0,0:0:0:0:
80,68,108586,5,0,0:0:0:0:
240,204,108874,1,0,0:0:0:0:
44,64,109163,1,0,0:0:0:0:
344,252,109451,1,0,0:0:0:0:
96,340,109740,1,0,0:0:0:0:
184,152,110028,1,0,0:0:0:0:
492,312,110316,1,0,0:0:0:0:
320,116,110605,1,0,0:0:0:0:
472,52,110893,1,0,0:0:0:0:
220,248,111182,1,0,0:0:0:0:
32,368,111470,5,0,0:0:0:0:
120,184,111759,1,0,0:0:0:0:
284,140,112047,1,0,0:0:0:0:
228,336,112336,1,0,0:0:0:0:
420,324,112624,1,0,0:0:0:0:
348,140,112913,1,0,0:0:0:0:
0,0,113201,5,0,0:0:0:0:
128,204,113490,1,0,0:0:0:0:
276,280,113778,1,0,0:0:0:0:
240,84,114066,1,0,0:0:0:0:
512,0,114355,1,0,0:0:0:0:
228,304,114643,1,0,0:0:0:0:
84,192,114932,1,0,0:0:0:0:
368,180,115220,1,0,0:0:0:0:
184,96,115509,6,0,P|96:52|88:56,2,109.999995231628
260,36,116374,1,0,0:0:0:0:
120,300,116663,1,0,0:0:0:0:
392,168,116951,5,0,0:0:0:0:
380,140,117047,1,0,0:0:0:0:
380,104,117143,1,0,0:0:0:0:
392,72,117240,2,0,P|408:36|432:32,1,43.9999967498781
296,232,117528,1,0,0:0:0:0:
348,304,117816,6,0,P|428:336|432:360,2,109.999995231628
256,156,118682,1,0,0:0:0:0:
128,328,118970,1,0,0:0:0:0:
264,152,119259,5,0,0:0:0:0:
284,128,119355,1,0,0:0:0:0:
316,112,119451,1,0,0:0:0:0:
352,100,119547,2,0,P|360:112|380:120,1,36.6666650772095
204,188,119836,1,0,0:0:0:0:
164,104,120124,6,0,P|76:40|60:44,2,109.999995231628
84,228,120990,1,0,0:0:0:0:
356,40,121278,1,0,0:0:0:0:
340,264,121566,5,0,0:0:0:0:
316,240,121663,1,0,0:0:0:0:
292,212,121759,1,0,0:0:0:0:
260,188,121855,2,0,P|248:176|232:184,1,36.6666650772095
224,44,122143,1,0,0:0:0:0:
128,248,122432,5,0,0:0:0:0:
436,64,122720,1,0,0:0:0:0:
340,312,123009,1,0,0:0:0:0:
240,16,123297,1,0,0:0:0:0:
172,356,123586,1,0,0:0:0:0:
384,168,123874,5,0,0:0:0:0:
352,156,123970,1,0,0:0:0:0:
312,156,124066,1,0,0:0:0:0:
272,160,124163,2,0,P|240:176|236:172,1,36.6666650772095
52,264,124451,1,0,0:0:0:0:
188,104,124740,6,0,P|120:52|72:64,2,109.999995231628
276,212,125605,1,0,0:0:0:0:
104,216,125893,1,0,0:0:0:0:
396,32,126182,5,0,0:0:0:0:
360,36,126278,1,0,0:0:0:0:
324,48,126374,1,0,0:0:0:0:
292,68,126470,2,0,P|284:104|292:120,1,36.6666650772095
464,180,126759,1,0,0:0:0:0:
408,256,127047,6,0,B|352:312|344:352|380:356,2,109.999995231628
276,296,127913,1,0,0:0:0:0:
160,60,128201,1,0,0:0:0:0:
120,292,128490,5,0,0:0:0:0:
80,296,128586,1,0,0:0:0:0:
44,316,128682,1,0,0:0:0:0:
20,344,128778,2,0,P|12:364|24:368,1,36.6666650772095
328,152,129066,1,0,0:0:0:0:
200,268,129355,5,0,0:0:0:0:
144,72,129643,1,0,0:0:0:0:
424,192,129932,1,0,0:0:0:0:
96,252,130220,1,0,0:0:0:0:
392,40,130509,1,0,0:0:0:0:
340,316,130797,1,0,0:0:0:0:
312,304,130893,1,0,0:0:0:0:
288,280,130990,1,0,0:0:0:0:
260,256,131086,2,0,P|252:232|232:216,1,36.6666650772095
24,56,131374,1,0,0:0:0:0:
472,304,131663,1,0,0:0:0:0:
256,192,131699,12,0,133682,0:0:0:0:
144,108,133970,6,0,P|44:40|28:44,2,131.999990249634
384,300,134836,1,0,0:0:0:0:
348,112,135124,2,0,P|424:40|444:52,2,131.999990249634
452,224,135990,1,0,0:0:0:0:
220,24,136278,1,0,0:0:0:0:
80,344,136566,1,0,0:0:0:0:
468,300,136855,1,0,0:0:0:0:
40,64,137143,1,0,0:0:0:0:
256,40,137432,6,0,B|280:124|240:136|388:164|16:132|496:176|16:160|492:188|12:176|532:104|40:200|448:228|152:220|260:228|268:232|268:228|252:224|264:232|264:232|276:224|276:232|264:200|256:244|260:268|268:352,1,307.999977249146
268,320,138297,1,0,0:0:0:0:
144,76,138586,5,0,0:0:0:0:
92,308,138874,1,0,0:0:0:0:
400,100,139163,1,0,0:0:0:0:
432,320,139451,1,0,0:0:0:0:
312,280,139740,5,0,0:0:0:0:
160,196,140028,1,0,0:0:0:0:
312,120,140316,1,0,0:0:0:0:
256,196,140605,5,0,0:0:0:0:
444,56,140893,5,0,0:0:0:0:
196,352,141182,1,0,0:0:0:0:
116,28,141470,1,0,0:0:0:0:
452,328,141759,1,0,0:0:0:0:
56,176,142047,1,0,0:0:0:0:
452,72,142336,1,0,0:0:0:0:
420,84,142432,1,0,0:0:0:0:
396,112,142528,1,0,0:0:0:0:
380,144,142624,2,0,P|360:160|368:168,1,43.9999967498781
184,320,142913,2,0,P|216:276|224:280,1,43.9999967498781
128,140,143201,6,0,P|40:64|24:76,2,131.999990249634
256,192,144066,1,0,0:0:0:0:
392,344,144355,2,0,P|484:248|496:252,2,131.999990249634
256,192,145220,1,0,0:0:0:0:
256,40,145509,1,0,0:0:0:0:
120,352,145797,1,0,0:0:0:0:
432,136,146086,1,0,0:0:0:0:
76,136,146374,1,0,0:0:0:0:
360,356,146663,5,0,0:0:0:0:
76,136,146951,1,0,0:0:0:0:
432,136,147240,1,0,0:0:0:0:
120,352,147528,1,0,0:0:0:0:
344,184,147816,5,0,0:0:0:0:
176,132,148105,1,0,0:0:0:0:
236,268,148393,1,0,0:0:0:0:
304,52,148682,1,0,0:0:0:0:
48,312,148970,1,0,0:0:0:0:
472,240,149259,1,0,0:0:0:0:
48,40,149547,1,0,0:0:0:0:
356,356,149836,1,0,0:0:0:0:
32,252,150124,5,0,0:0:0:0:
388,68,150413,1,0,0:0:0:0:
284,360,150701,1,0,0:0:0:0:
256,40,150990,1,0,0:0:0:0:
220,32,151182,1,0,0:0:0:0:
28,200,151470,1,0,0:0:0:0:
56,220,151566,1,0,0:0:0:0:
440,252,151855,1,0,0:0:0:0:
412,272,151951,1,0,0:0:0:0:
376,280,152047,1,0,0:0:0:0:
336,288,152143,2,0,P|320:308|308:300,1,43.9999967498781
120,316,152432,6,0,P|40:272|48:260,2,131.999990249634
180,132,153297,1,0,0:0:0:0:
380,152,153586,2,0,P|464:96|460:84,2,131.999990249634
320,324,154451,1,0,0:0:0:0:
96,212,154740,5,0,0:0:0:0:
388,72,155028,1,0,0:0:0:0:
156,72,155316,1,0,0:0:0:0:
392,272,155605,1,0,0:0:0:0:
256,44,155893,1,0,0:0:0:0:
136,296,156182,1,0,0:0:0:0:
440,156,156470,1,0,0:0:0:0:
136,296,156759,1,0,0:0:0:0:
180,120,157047,6,0,P|80:56|56:72,2,131.999990249634
384,52,157913,1,0,0:0:0:0:
300,252,158201,2,0,P|384:196|380:180,2,131.999990249634
96,312,159066,1,0,0:0:0:0:
392,44,159355,5,0,0:0:0:0:
64,164,159643,1,0,0:0:0:0:
432,336,159932,1,0,0:0:0:0:
220,128,160220,1,0,0:0:0:0:
392,224,160509,1,0,0:0:0:0:
104,152,160797,5,0,0:0:0:0:
100,120,160893,1,0,0:0:0:0:
104,80,160990,1,0,0:0:0:0:
120,52,161086,2,0,P|132:32|156:36,1,43.9999967498781
352,152,161374,2,0,P|400:136|396:124,1,49.9999984741211
176,108,161663,6,0,P|68:48|68:32,2,131.999990249634
364,112,162528,1,0,0:0:0:0:
224,240,162816,2,0,P|300:176|296:164,2,131.999990249634
424,292,163682,1,0,0:0:0:0:
204,40,163970,5,0,0:0:0:0:
92,248,164259,1,0,0:0:0:0:
324,348,164547,1,0,0:0:0:0:
436,120,164836,1,0,0:0:0:0:
84,120,165124,5,0,0:0:0:0:
352,40,165413,1,0,0:0:0:0:
448,268,165701,1,0,0:0:0:0:
180,364,165990,1,0,0:0:0:0:
224,88,166278,5,0,0:0:0:0:
372,240,166566,1,0,0:0:0:0:
168,272,166855,1,0,0:0:0:0:
256,192,167143,5,0,0:0:0:0:
388,228,167432,5,0,0:0:0:0:
188,80,167720,1,0,0:0:0:0:
204,304,168009,1,0,0:0:0:0:
352,28,168297,1,0,0:0:0:0:
24,248,168586,1,0,0:0:0:0:
440,344,168874,1,0,0:0:0:0:
184,24,169163,1,0,0:0:0:0:
184,344,169451,1,0,0:0:0:0:
220,340,169643,1,0,0:0:0:0:
296,68,169932,1,0,0:0:0:0:
260,76,170028,1,0,0:0:0:0:
452,320,170316,1,0,0:0:0:0:
416,312,170413,1,0,0:0:0:0:
376,308,170509,1,0,0:0:0:0:
332,308,170605,2,0,P|320:276|328:264,1,43.9999967498781
232,40,170893,5,0,0:0:0:0:
440,192,171182,1,0,0:0:0:0:
144,276,171470,1,0,0:0:0:0:
36,104,171759,1,0,0:0:0:0:
436,300,172047,5,0,0:0:0:0:
192,68,172336,1,0,0:0:0:0:
96,312,172624,1,0,0:0:0:0:
360,204,172913,1,0,0:0:0:0:
52,324,173201,5,0,0:0:0:0:
248,28,173490,1,0,0:0:0:0:
48,100,173778,1,0,0:0:0:0:
472,176,174066,1,0,0:0:0:0:
424,20,174355,1,0,0:0:0:0:
232,360,174643,1,0,0:0:0:0:
440,332,174932,1,0,0:0:0:0:
72,48,175220,1,0,0:0:0:0:
440,188,175509,1,0,0:0:0:0:
256,192,175545,12,0,177816,0:0:0:0:
