osu file format v14

[General]
AudioFilename: audio.mp3
AudioLeadIn: 0
PreviewTime: 16599
Countdown: 0
SampleSet: Normal
StackLeniency: 0.7
Mode: 0
LetterboxInBreaks: 0
EpilepsyWarning: 1
WidescreenStoryboard: 0

[Editor]
DistanceSpacing: 1.3
BeatDivisor: 5
GridSize: 8
TimelineZoom: 1

[Metadata]
Title:vernite v modu lubov (hardstyle remix)
TitleUnicode:vernite v modu lubov (hardstyle remix)
Artist:dve ticahi yadrov
ArtistUnicode:dve ticahi yadrov
Creator:TeranVova
Version:unreal
Source:ad
Tags:dve ticahi yadrov vernite v modu lubov hardstyle remix
BeatmapID:4536007
BeatmapSetID:2152785

[Difficulty]
HPDrainRate:5
CircleSize:4
OverallDifficulty:5
ApproachRate:10
SliderMultiplier:2.4
SliderTickRate:1

[Events]
//Background and Video events
0,0,"WhatsApp Image 2024-03-18 at 21.33.23.jpeg",0,0
Video,0,"output(compress-video-online.com) (2).mp4"
//Break Periods
//Storyboard Layer 0 (Background)
//Storyboard Layer 1 (Fail)
//Storyboard Layer 2 (Pass)
//Storyboard Layer 3 (Foreground)
//Storyboard Layer 4 (Overlay)
//Storyboard Sound Samples

[TimingPoints]
0,333.333333333333,4,1,0,100,1,0

[HitObjects]
256,192,1500,12,0,8000,0:0:0:0:
90,60,8333,6,0,P|125:316|130:325,1,240
237,88,8833,1,0,0:0:0:0:
391,78,9000,1,0,0:0:0:0:
326,245,9166,5,0,0:0:0:0:
84,246,9333,2,0,P|83:84|88:74,1,120
192,66,9666,1,0,0:0:0:0:
314,88,9833,2,0,P|424:168|426:178,1,120
252,196,10166,1,0,0:0:0:0:
93,76,14666,2,0,L|206:196,1,120
433,120,15000,2,0,L|314:208,1,120
140,288,15333,1,0,0:0:0:0:
118,122,15499,1,0,0:0:0:0:
205,244,15666,1,0,0:0:0:0:
328,76,15833,1,0,0:0:0:0:
410,243,15999,2,0,L|278:181,1,120
138,133,16333,1,0,0:0:0:0:
86,278,16555,2,0,P|203:296|209:290,1,80
212,227,16777,2,0,P|288:263|291:267,1,80
138,133,17000,2,0,P|225:144|238:137,1,80
304,96,17222,2,0,P|357:160|359:172,1,80
395,265,17444,2,0,P|341:337|329:337,1,80
251,269,17666,2,0,P|167:315|156:315,1,80
96,234,17888,2,0,P|64:142|69:136,1,80
58,61,18111,1,0,0:0:0:0:
296,173,18222,1,0,0:0:0:0:
271,86,18333,2,0,P|185:63|164:69,1,80
141,165,18555,1,0,0:0:0:0:
169,302,18666,2,0,P|283:303|286:288,1,160
338,214,18999,1,0,0:0:0:0:
142,104,19111,1,0,0:0:0:0:
210,235,19222,1,0,0:0:0:0:
364,91,19333,1,0,0:0:0:0:
71,296,19444,1,0,0:0:0:0:
364,91,19555,1,0,0:0:0:0:
385,301,19666,1,0,0:0:0:0:
266,136,19777,1,0,0:0:0:0:
159,323,19888,1,0,0:0:0:0:
278,255,19999,1,0,0:0:0:0:
186,185,20111,1,0,0:0:0:0:
225,47,20222,1,0,0:0:0:0:
116,123,20333,1,0,0:0:0:0:
65,223,20444,1,0,0:0:0:0:
240,336,20555,1,0,0:0:0:0:
318,134,20666,2,0,L|436:233,1,80
415,274,20888,2,0,L|306:280,1,80
414,55,21111,1,0,0:0:0:0:
181,209,21222,1,0,0:0:0:0:
110,112,21333,1,0,0:0:0:0:
218,54,21444,1,0,0:0:0:0:
273,177,21555,1,0,0:0:0:0:
95,306,21666,1,0,0:0:0:0:
181,217,21777,1,0,0:0:0:0:
253,264,21888,1,0,0:0:0:0:
200,230,21999,1,0,0:0:0:0:
293,91,22111,1,0,0:0:0:0:
161,123,22222,1,0,0:0:0:0:
67,220,22333,1,0,0:0:0:0:
385,213,22444,1,0,0:0:0:0:
153,37,22555,1,0,0:0:0:0:
293,344,22666,1,0,0:0:0:0:
155,289,22777,2,0,L|155:197,1,80
138,122,22999,1,0,0:0:0:0:
366,61,23111,2,0,L|366:161,1,80
263,69,23333,2,0,L|259:176,1,80
90,348,23555,2,0,L|90:265,1,80
179,350,23777,2,0,L|181:267,1,80
420,174,23999,1,0,0:0:0:0:
51,183,24111,1,0,0:0:0:0:
201,189,24222,2,0,L|281:177,1,80
387,153,24444,1,0,0:0:0:0:
97,49,24666,1,0,0:0:0:0:
104,80,24777,1,0,0:0:0:0:
118,119,24888,1,0,0:0:0:0:
133,154,24999,1,0,0:0:0:0:
150,185,25111,1,0,0:0:0:0:
169,215,25222,1,0,0:0:0:0:
203,243,25333,1,0,0:0:0:0:
257,267,25444,1,0,0:0:0:0:
328,269,25555,1,0,0:0:0:0:
391,219,25666,1,0,0:0:0:0:
398,138,25777,1,0,0:0:0:0:
322,83,25888,1,0,0:0:0:0:
112,248,25999,1,0,0:0:0:0:
221,151,26111,1,0,0:0:0:0:
278,297,26222,1,0,0:0:0:0:
333,202,26333,1,0,0:0:0:0:
149,116,26444,1,0,0:0:0:0:
66,137,26555,1,0,0:0:0:0:
176,237,26666,1,0,0:0:0:0:
305,49,26777,1,0,0:0:0:0:
296,207,26888,1,0,0:0:0:0:
439,138,26999,2,0,L|359:140,1,80
141,172,27222,2,0,L|245:153,1,80
305,142,27444,2,0,L|306:236,1,80
303,318,27666,1,0,0:0:0:0:
196,261,27777,1,0,0:0:0:0:
254,91,27888,1,0,0:0:0:0:
411,142,27999,1,0,0:0:0:0:
303,318,28111,1,0,0:0:0:0:
196,261,28222,1,0,0:0:0:0:
118,184,28333,1,0,0:0:0:0:
302,193,28444,1,0,0:0:0:0:
401,51,28555,1,0,0:0:0:0:
174,48,28666,1,0,0:0:0:0:
82,312,28777,1,0,0:0:0:0:
254,130,28888,1,0,0:0:0:0:
201,270,28999,2,0,L|289:268,1,80
150,212,29222,1,0,0:0:0:0:
251,97,29333,1,0,0:0:0:0:
333,244,29444,1,0,0:0:0:0:
226,334,29555,1,0,0:0:0:0:
104,61,29666,1,0,0:0:0:0:
226,334,29777,1,0,0:0:0:0:
416,93,29888,1,0,0:0:0:0:
226,334,29999,1,0,0:0:0:0:
248,192,30111,1,0,0:0:0:0:
248,192,30222,1,0,0:0:0:0:
249,68,30333,1,0,0:0:0:0:
64,222,30444,1,0,0:0:0:0:
371,285,30555,2,0,L|357:177,1,80
346,137,30777,6,0,L|249:91,1,80
65,325,30999,1,0,0:0:0:0:
236,72,31111,1,0,0:0:0:0:
347,341,31222,1,0,0:0:0:0:
463,95,31333,1,0,0:0:0:0:
351,248,31444,1,0,0:0:0:0:
241,162,31555,1,0,0:0:0:0:
92,226,31666,1,0,0:0:0:0:
91,110,31777,1,0,0:0:0:0:
174,63,31888,2,0,L|296:68,1,80
336,96,32111,2,0,L|411:151,1,80
420,255,32333,2,0,L|361:338,1,80
266,315,32555,1,0,0:0:0:0:
100,213,32666,1,0,0:0:0:0:
95,98,32777,2,0,L|197:71,1,80
200,55,33777,2,0,P|174:355|179:356,1,400
376,82,34555,2,0,L|341:252,1,160
244,316,34999,1,0,0:0:0:0:
64,53,35666,2,0,P|343:189|352:300,1,400
247,311,36444,2,0,P|93:209|91:194,1,160
96,93,36999,1,0,0:0:0:0:
346,133,37666,1,0,0:0:0:0:
168,263,37888,1,0,0:0:0:0:
98,135,38111,2,0,P|122:59|126:56,2,80
342,70,38555,1,0,0:0:0:0:
383,253,38777,2,0,P|131:263|126:258,1,240
115,187,39333,2,0,P|366:151|371:153,1,240
315,129,39888,1,0,0:0:0:0:
182,95,40111,1,0,0:0:0:0:
91,113,40444,2,0,L|254:78,1,160
340,69,40888,1,0,0:0:0:0:
431,187,41111,1,0,0:0:0:0:
72,59,42111,2,0,P|208:270|221:269,1,240
265,291,42666,1,0,0:0:0:0:
386,229,42888,1,0,0:0:0:0:
316,111,43111,2,0,P|82:82|73:93,1,240
406,65,44111,2,0,P|297:301|283:303,1,240
175,94,44666,1,0,0:0:0:0:
172,278,44888,1,0,0:0:0:0:
359,300,45111,2,0,L|349:129,1,160
239,90,46333,2,0,P|125:204|131:213,2,160
371,96,47111,2,0,P|377:313|367:317,1,240
230,311,47666,1,0,0:0:0:0:
112,169,48111,2,0,L|146:97,1,80
204,57,48444,1,0,0:0:0:0:
307,119,48666,2,0,L|392:259,2,160
236,33,49333,1,0,0:0:0:0:
115,269,49444,1,0,0:0:0:0:
264,59,49555,1,0,0:0:0:0:
84,243,49666,1,0,0:0:0:0:
287,95,49777,1,0,0:0:0:0:
69,200,49888,1,0,0:0:0:0:
302,132,49999,1,0,0:0:0:0:
63,162,50111,1,0,0:0:0:0:
306,173,50222,1,0,0:0:0:0:
64,128,50333,1,0,0:0:0:0:
305,216,50444,1,0,0:0:0:0:
69,89,50555,1,0,0:0:0:0:
185,108,50666,2,0,L|167:194,1,80
143,272,50888,1,0,0:0:0:0:
366,59,50999,1,0,0:0:0:0:
236,171,51111,1,0,0:0:0:0:
360,70,51222,1,0,0:0:0:0:
253,155,51333,1,0,0:0:0:0:
328,104,51444,1,0,0:0:0:0:
282,134,51555,1,0,0:0:0:0:
96,144,51666,2,0,L|181:91,1,80
173,239,51888,2,0,L|272:260,1,80
373,194,52111,1,0,0:0:0:0:
171,93,52222,1,0,0:0:0:0:
171,238,52333,1,0,0:0:0:0:
261,297,52444,1,0,0:0:0:0:
254,157,52555,1,0,0:0:0:0:
93,188,52666,1,0,0:0:0:0:
335,52,52777,1,0,0:0:0:0:
427,155,52888,2,0,L|327:143,1,80
108,57,53111,2,0,L|113:137,1,80
237,308,53333,2,0,L|209:219,1,80
278,78,53555,1,0,0:0:0:0:
222,133,53666,1,0,0:0:0:0:
151,186,53777,1,0,0:0:0:0:
130,261,53888,1,0,0:0:0:0:
162,333,53999,1,0,0:0:0:0:
241,334,54111,1,0,0:0:0:0:
296,278,54222,1,0,0:0:0:0:
295,198,54333,1,0,0:0:0:0:
227,136,54444,1,0,0:0:0:0:
268,51,54555,2,0,L|357:60,1,80
406,128,54777,2,0,L|404:222,1,80
405,296,54999,2,0,L|331:343,1,80
80,162,55222,1,0,0:0:0:0:
159,153,55333,1,0,0:0:0:0:
342,203,55444,1,0,0:0:0:0:
416,204,55555,1,0,0:0:0:0:
90,325,55666,1,0,0:0:0:0:
168,317,55777,1,0,0:0:0:0:
241,39,55888,2,0,L|243:142,1,80
255,341,56111,2,0,L|256:239,1,80
93,190,56333,2,0,L|176:187,1,80
395,186,56555,2,0,L|311:189,1,80
302,188,56777,2,0,L|397:185,1,80
101,69,56999,2,0,L|176:144,1,80
207,177,57222,1,0,0:0:0:0:
226,190,57333,1,0,0:0:0:0:
297,252,57444,2,0,L|379:300,1,80
373,84,57666,1,0,0:0:0:0:
111,263,57777,1,0,0:0:0:0:
137,88,57888,1,0,0:0:0:0:
208,285,57999,1,0,0:0:0:0:
258,56,58111,1,0,0:0:0:0:
299,166,58222,1,0,0:0:0:0:
190,178,58333,1,0,0:0:0:0:
312,49,58444,1,0,0:0:0:0:
68,252,58555,1,0,0:0:0:0:
277,293,58666,1,0,0:0:0:0:
145,107,58777,1,0,0:0:0:0:
417,101,58888,6,0,L|321:117,1,80
423,256,59111,1,0,0:0:0:0:
222,225,59222,1,0,0:0:0:0:
243,72,59333,1,0,0:0:0:0:
318,190,59444,1,0,0:0:0:0:
156,61,59555,1,0,0:0:0:0:
121,224,59666,1,0,0:0:0:0:
81,152,59777,2,0,L|180:154,1,80
252,152,59999,1,0,0:0:0:0:
252,313,60111,1,0,0:0:0:0:
109,276,60222,1,0,0:0:0:0:
416,56,60333,1,0,0:0:0:0:
168,84,60444,1,0,0:0:0:0:
309,239,60555,1,0,0:0:0:0:
64,164,60666,2,0,L|179:165,1,80
236,164,60888,1,0,0:0:0:0:
396,151,60999,1,0,0:0:0:0:
166,283,61111,1,0,0:0:0:0:
298,64,61222,1,0,0:0:0:0:
295,266,61333,2,0,L|368:329,1,80
66,58,61555,1,0,0:0:0:0:
158,62,61666,1,0,0:0:0:0:
158,62,61749,1,0,0:0:0:0:
158,62,61833,1,0,0:0:0:0:
133,257,61999,1,0,0:0:0:0:
310,84,62111,1,0,0:0:0:0:
366,256,62222,1,0,0:0:0:0:
115,199,62333,1,0,0:0:0:0:
245,301,62444,1,0,0:0:0:0:
451,127,62555,1,0,0:0:0:0:
210,96,62666,1,0,0:0:0:0:
254,214,62777,1,0,0:0:0:0:
143,285,62888,1,0,0:0:0:0:
290,136,62999,2,0,L|354:77,1,80
447,47,63222,1,0,0:0:0:0:
87,195,63333,1,0,0:0:0:0:
340,322,63444,1,0,0:0:0:0:
214,48,63555,1,0,0:0:0:0:
123,308,63666,1,0,0:0:0:0:
397,190,63777,1,0,0:0:0:0:
47,33,63888,1,0,0:0:0:0:
202,271,63999,1,0,0:0:0:0:
117,276,67999,5,0,0:0:0:0:
227,79,68333,2,0,L|366:77,1,120
391,237,68666,1,0,0:0:0:0:
244,257,68833,2,0,P|51:97|51:81,1,240
228,115,69333,1,0,0:0:0:0:
398,83,69666,1,0,0:0:0:0:
106,75,70166,2,0,L|107:233,1,120
113,306,70499,1,0,0:0:0:0:
254,83,70666,1,0,0:0:0:0:
173,223,70833,2,0,L|381:230,1,120
379,160,71166,2,0,L|321:38,1,120
67,211,71499,2,0,P|427:295|466:261,1,360
256,192,72166,12,0,73166,0:0:0:0:
123,70,73999,5,0,0:0:0:0:
210,300,74111,1,0,0:0:0:0:
299,100,74222,5,0,0:0:0:0:
133,227,74333,1,0,0:0:0:0:
210,163,74444,1,0,0:0:0:0:
286,228,74555,1,0,0:0:0:0:
61,149,74666,1,0,0:0:0:0:
448,56,74777,1,0,0:0:0:0:
177,61,74916,1,0,0:0:0:0:
178,97,74999,1,0,0:0:0:0:
180,136,75083,1,0,0:0:0:0:
180,172,75166,1,0,0:0:0:0:
179,212,75249,1,0,0:0:0:0:
188,328,75333,1,0,0:0:0:0:
353,73,75444,1,0,0:0:0:0:
366,269,75555,1,0,0:0:0:0:
122,166,75666,1,0,0:0:0:0:
396,167,75777,1,0,0:0:0:0:
277,151,75888,2,0,L|95:79,1,160
369,53,76222,1,0,0:0:0:0:
238,243,76333,1,0,0:0:0:0:
106,74,76444,1,0,0:0:0:0:
120,210,76555,1,0,0:0:0:0:
351,116,76666,1,0,0:0:0:0:
203,187,76777,1,0,0:0:0:0:
386,301,76888,1,0,0:0:0:0:
222,65,76999,1,0,0:0:0:0:
116,259,77111,1,0,0:0:0:0:
51,111,77222,2,0,L|248:166,1,160
290,177,77583,1,0,0:0:0:0:
305,211,77666,1,0,0:0:0:0:
301,254,77749,1,0,0:0:0:0:
274,285,77833,1,0,0:0:0:0:
232,294,77916,1,0,0:0:0:0:
192,295,77999,1,0,0:0:0:0:
155,278,78083,1,0,0:0:0:0:
130,243,78166,1,0,0:0:0:0:
120,205,78249,1,0,0:0:0:0:
115,170,78333,1,0,0:0:0:0:
270,87,78444,1,0,0:0:0:0:
341,312,78555,1,0,0:0:0:0:
270,87,78666,1,0,0:0:0:0:
147,310,78777,1,0,0:0:0:0:
270,87,78888,1,0,0:0:0:0:
341,312,78999,1,0,0:0:0:0:
60,40,79111,1,0,0:0:0:0:
230,212,79222,1,0,0:0:0:0:
126,123,79333,1,0,0:0:0:0:
386,139,79444,1,0,0:0:0:0:
469,41,79555,1,0,0:0:0:0:
259,92,79666,1,0,0:0:0:0:
344,303,79777,1,0,0:0:0:0:
155,325,79888,1,0,0:0:0:0:
123,207,79999,2,0,L|321:210,1,160
404,85,80333,2,0,L|261:83,1,80
54,167,80555,2,0,L|156:167,1,80
286,180,80777,1,0,0:0:0:0:
132,309,80888,1,0,0:0:0:0:
287,307,80999,1,0,0:0:0:0:
155,116,81111,1,0,0:0:0:0:
314,93,81222,1,0,0:0:0:0:
227,208,81333,1,0,0:0:0:0:
380,169,81444,1,0,0:0:0:0:
205,311,81555,1,0,0:0:0:0:
57,117,81666,1,0,0:0:0:0:
212,45,81749,1,0,0:0:0:0:
197,84,81833,1,0,0:0:0:0:
183,114,81916,1,0,0:0:0:0:
156,141,81999,1,0,0:0:0:0:
123,174,82083,1,0,0:0:0:0:
92,198,82166,1,0,0:0:0:0:
62,219,82249,1,0,0:0:0:0:
348,56,82444,1,0,0:0:0:0:
394,127,82555,1,0,0:0:0:0:
403,211,82666,1,0,0:0:0:0:
361,284,82777,1,0,0:0:0:0:
291,327,82888,1,0,0:0:0:0:
209,324,82999,1,0,0:0:0:0:
134,293,83111,1,0,0:0:0:0:
89,226,83222,1,0,0:0:0:0:
64,151,83333,1,0,0:0:0:0:
81,72,83444,1,0,0:0:0:0:
179,146,83555,1,0,0:0:0:0:
319,213,83666,1,0,0:0:0:0:
424,107,83777,1,0,0:0:0:0:
112,238,83888,2,0,L|51:308,1,80
211,300,84111,2,0,L|140:366,1,80
128,90,84333,1,0,0:0:0:0:
243,202,84444,1,0,0:0:0:0:
373,86,84555,1,0,0:0:0:0:
59,192,84666,1,0,0:0:0:0:
104,293,84777,1,0,0:0:0:0:
384,243,84888,1,0,0:0:0:0:
203,275,84999,1,0,0:0:0:0:
237,347,85111,1,0,0:0:0:0:
247,153,85222,1,0,0:0:0:0:
68,78,85333,2,0,L|295:78,1,160
313,96,85666,1,0,0:0:0:0:
352,160,85749,1,0,0:0:0:0:
376,232,85833,1,0,0:0:0:0:
380,309,85916,1,0,0:0:0:0:
111,197,86083,1,0,0:0:0:0:
198,93,86222,1,0,0:0:0:0:
221,205,86333,1,0,0:0:0:0:
134,333,86444,1,0,0:0:0:0:
480,74,86555,1,0,0:0:0:0:
330,200,86666,1,0,0:0:0:0:
109,152,86777,1,0,0:0:0:0:
223,306,86888,1,0,0:0:0:0:
336,123,86999,1,0,0:0:0:0:
224,121,87111,1,0,0:0:0:0:
260,207,87222,1,0,0:0:0:0:
341,298,87333,1,0,0:0:0:0:
122,242,87444,2,0,L|339:85,1,240
117,65,87888,1,0,0:0:0:0:
226,289,87999,1,0,0:0:0:0:
265,56,88111,1,0,0:0:0:0:
336,284,88222,1,0,0:0:0:0:
396,78,88333,1,0,0:0:0:0:
134,310,88444,1,0,0:0:0:0:
346,172,88555,1,0,0:0:0:0:
114,186,88666,1,0,0:0:0:0:
301,280,88777,1,0,0:0:0:0:
163,57,88888,1,0,0:0:0:0:
238,282,88999,1,0,0:0:0:0:
305,50,89111,1,0,0:0:0:0:
122,261,89222,1,0,0:0:0:0:
381,111,89333,1,0,0:0:0:0:
125,173,89444,1,0,0:0:0:0:
386,243,89555,1,0,0:0:0:0:
105,251,89666,1,0,0:0:0:0:
144,201,89749,1,0,0:0:0:0:
191,160,89833,1,0,0:0:0:0:
246,127,89916,1,0,0:0:0:0:
305,152,89999,1,0,0:0:0:0:
344,200,90083,1,0,0:0:0:0:
376,242,90166,1,0,0:0:0:0:
399,298,90249,1,0,0:0:0:0:
219,305,90416,1,0,0:0:0:0:
143,89,90555,1,0,0:0:0:0:
316,32,90666,1,0,0:0:0:0:
84,244,90777,1,0,0:0:0:0:
282,170,90888,1,0,0:0:0:0:
399,298,90999,1,0,0:0:0:0:
71,104,91111,1,0,0:0:0:0:
141,334,91222,1,0,0:0:0:0:
382,181,91333,1,0,0:0:0:0:
299,84,91444,1,0,0:0:0:0:
271,290,91555,1,0,0:0:0:0:
98,272,91666,1,0,0:0:0:0:
253,190,91777,1,0,0:0:0:0:
86,91,91888,2,0,L|189:84,1,80
406,313,92111,2,0,L|290:313,1,80
276,104,92333,1,0,0:0:0:0:
192,257,92444,1,0,0:0:0:0:
414,190,92555,1,0,0:0:0:0:
96,151,92666,1,0,0:0:0:0:
398,44,92777,1,0,0:0:0:0:
386,147,92888,1,0,0:0:0:0:
350,243,92999,1,0,0:0:0:0:
277,314,93111,1,0,0:0:0:0:
181,327,93222,1,0,0:0:0:0:
103,283,93333,1,0,0:0:0:0:
61,206,93444,1,0,0:0:0:0:
46,121,93555,1,0,0:0:0:0:
70,36,93666,1,0,0:0:0:0:
174,75,93777,2,0,L|333:163,1,160
186,249,94111,1,0,0:0:0:0:
268,184,94222,2,0,L|361:161,1,80
314,60,94466,1,0,0:0:0:0:
328,73,94533,1,0,0:0:0:0:
346,96,94599,1,0,0:0:0:0:
364,124,94666,1,0,0:0:0:0:
384,155,94777,1,0,0:0:0:0:
87,147,94866,1,0,0:0:0:0:
96,175,94933,1,0,0:0:0:0:
116,216,94999,1,0,0:0:0:0:
136,250,95066,1,0,0:0:0:0:
152,282,95133,1,0,0:0:0:0:
370,77,95333,1,0,0:0:0:0:
90,146,95444,1,0,0:0:0:0:
201,258,95555,1,0,0:0:0:0:
356,295,95666,1,0,0:0:0:0:
269,83,95777,1,0,0:0:0:0:
94,268,95888,1,0,0:0:0:0:
371,200,95999,1,0,0:0:0:0:
221,187,96111,2,0,L|71:98,1,160
433,65,96444,1,0,0:0:0:0:
436,331,96555,1,0,0:0:0:0:
47,46,96666,1,0,0:0:0:0:
303,342,96777,1,0,0:0:0:0:
164,35,96888,1,0,0:0:0:0:
195,338,96999,1,0,0:0:0:0:
277,35,97111,1,0,0:0:0:0:
78,345,97222,1,0,0:0:0:0:
393,40,97333,1,0,0:0:0:0:
427,127,97444,2,0,L|326:129,1,80
423,223,97666,2,0,L|336:225,1,80
61,116,97888,2,0,L|144:116,1,80
64,208,98111,2,0,L|149:209,1,80
252,64,98333,2,0,L|252:326,1,240
