osu file format v14

[General]
AudioFilename: audio.mp3
AudioLeadIn: 0
PreviewTime: 167326
Countdown: 0
SampleSet: Normal
StackLeniency: 0.7
Mode: 1
LetterboxInBreaks: 0
WidescreenStoryboard: 0

[Editor]
Bookmarks: 8389,151389,281764
DistanceSpacing: 1
BeatDivisor: 4
GridSize: 32
TimelineZoom: 4.619998

[Metadata]
Title:The Importance of Stealth / Hell Yeahhhh / On a Mission
TitleUnicode:The Importance of Stealth / Hell Yeahhhh / On a Mission
Artist:drumcorps
ArtistUnicode:drumcorps
Creator:Invisible O
Version:The Self-Destructive Nature of Mankind
Source:
Tags:Metal Breakcore English alt alternative Better days electronic cybergrind neo crust hardcore punk d-beat
BeatmapID:3742362
BeatmapSetID:1823812

[Difficulty]
HPDrainRate:5
CircleSize:2
OverallDifficulty:7
ApproachRate:10
SliderMultiplier:1.4
SliderTickRate:1

[Events]
//Background and Video events
0,0,"Cat.jpg",0,0
//Break Periods
//Storyboard Layer 0 (Background)
//Storyboard Layer 1 (Fail)
//Storyboard Layer 2 (Pass)
//Storyboard Layer 3 (Foreground)
//Storyboard Layer 4 (Overlay)
//Storyboard Sound Samples

[TimingPoints]
8389,250,4,1,0,100,1,0
8389,-100,4,1,0,100,0,0
24388,-100,4,1,0,100,0,0
24763,-98.2681477082301,4,1,0,100,0,0
25138,-96.5662885400652,4,1,0,100,0,0
25388,-95.4481217239136,4,1,0,100,0,0
25513,-94.893903058907,4,1,0,100,0,0
25888,-93.2504808240314,4,1,0,100,0,0
26263,-91.6355202347939,4,1,0,100,0,0
26388,-91.1034394062302,4,1,0,100,0,0
26638,-90.0485283775324,4,1,0,100,0,0
27013,-88.489020875121,4,1,0,100,0,0
27263,-87.4643828960476,4,1,0,100,0,0
27388,-86.9565217391304,4,1,0,100,0,0
28389,-90.9090909090909,4,1,0,100,0,0
29513,-90.9090909090909,4,1,0,100,0,0
29575,-89.3127127000306,4,1,0,100,0,0
29638,-87.719298245614,4,1,0,100,0,0
29889,-90.9090909090909,4,1,0,100,0,0
30263,-91.8257405701195,4,1,0,100,0,0
30388,-92.2875256150507,4,1,0,100,0,0
30513,-92.7516329437599,4,1,0,100,0,0
30763,-93.6868612256351,4,1,0,100,0,0
30888,-94.1580057124853,4,1,0,100,0,0
31138,-95.1074146566996,4,1,0,100,0,0
31263,-95.5857030045838,4,1,0,100,0,0
31388,-96.0663966301697,4,1,0,100,0,0
31513,-96.5495076294255,4,1,0,100,0,0
31638,-97.0350481591498,4,1,0,100,0,0
31888,-98.0134667431826,4,1,0,100,0,0
32013,-98.5063694179974,4,1,0,100,0,0
32138,-99.0017508649128,4,1,0,100,0,0
32263,-99.4996235494953,4,1,0,100,0,0
32388,-100,4,1,0,100,0,0
32763,-98.2681477082301,4,1,0,100,0,0
33013,-97.1302746107625,4,1,0,100,0,0
33138,-96.5662885400652,4,1,0,100,0,0
33388,-95.4481217239136,4,1,0,100,0,0
33513,-94.893903058907,4,1,0,100,0,0
33763,-93.7951012403866,4,1,0,100,0,0
33888,-93.2504808240314,4,1,0,100,0,0
34263,-91.6355202347939,4,1,0,100,0,0
34388,-91.1034394062302,4,1,0,100,0,0
34513,-90.5744481002381,4,1,0,100,0,0
34638,-90.0485283775324,4,1,0,100,0,0
35013,-88.489020875121,4,1,0,100,0,0
35263,-87.4643828960476,4,1,0,100,0,0
35388,-86.9565217391304,4,1,0,100,0,0
36389,-90.9090909090909,4,1,0,100,0,0
37513,-90.9090909090909,4,1,0,100,0,0
37575,-90.8219861271237,4,1,0,100,0,0
37638,-90.7335619185928,4,1,0,100,0,0
37763,-90.5583718427862,4,1,0,100,0,0
37825,-90.4716031032049,4,1,0,100,0,0
37888,-90.3835200272884,4,1,0,100,0,0
37950,-90.2969188224289,4,1,0,100,0,0
38013,-90.2090058189797,4,1,0,100,0,0
38138,-90.0348285660021,4,1,0,100,0,0
38263,-89.8609876177556,4,1,0,100,0,0
38388,-89.6874823248968,4,1,0,100,0,0
38513,-89.5143120393359,4,1,0,100,0,0
38638,-89.3414761142346,4,1,0,100,0,0
38763,-89.1689739040032,4,1,0,100,0,0
38825,-89.0835364196716,4,1,0,100,0,0
38888,-88.9968047642989,4,1,0,100,0,0
39013,-88.8249680520227,4,1,0,100,0,0
39138,-88.6534631253175,4,1,0,100,0,0
39263,-88.4822893435655,4,1,0,100,0,0
39388,-88.3114460673857,4,1,0,100,0,0
39513,-88.1409326586317,4,1,0,100,0,0
39575,-88.0564801946939,4,1,0,100,0,0
39638,-87.9707484803892,4,1,0,100,0,0
39763,-87.8008928969738,4,1,0,100,0,0
39888,-87.6313652739284,4,1,0,100,0,0
39950,-87.547401053306,4,1,0,100,0,0
40013,-87.4621649780209,4,1,0,100,0,0
40075,-87.3783628771022,4,1,0,100,0,0
40138,-87.2932913772418,4,1,0,100,0,0
40263,-87.124743840802,4,1,0,100,0,0
40388,-86.9565217391304,4,1,0,100,0,0
40763,-86.0549066969484,4,1,0,100,0,0
41138,-85.1626401161356,4,1,0,100,0,0
41388,-84.5729414103353,4,1,0,100,0,0
41513,-84.2796250664881,4,1,0,100,0,0
41888,-83.4057656228299,4,1,0,100,0,0
42263,-82.540966854592,4,1,0,100,0,0
42388,-82.2546978161541,4,1,0,100,0,0
42638,-81.6851348154999,4,1,0,100,0,0
43013,-80.8381765333681,4,1,0,100,0,0
43263,-80.2784220680771,4,1,0,100,0,0
43388,-80,4,1,0,100,0,0
44389,-90.9090909090909,4,1,0,100,0,0
45513,-90.9090909090909,4,1,0,100,0,0
45575,-89.3127127000306,4,1,0,100,0,0
45638,-87.719298245614,4,1,0,100,0,0
45764,-90.7029480204989,4,1,0,100,0,0
47138,-90.9090909090909,4,1,0,100,0,0
47263,-91.7002007060032,4,1,0,100,0,0
47388,-92.4981949047341,4,1,0,100,0,0
47513,-93.3031334147783,4,1,0,100,0,0
47638,-94.1150766669759,4,1,0,100,0,0
47888,-95.7602217551752,4,1,0,100,0,0
48013,-96.5935471006104,4,1,0,100,0,0
48138,-97.4341242163382,4,1,0,100,0,0
48263,-98.2820162087705,4,1,0,100,0,0
48388,-99.1372867334842,4,1,0,100,0,0
48513,-100,4,1,0,100,0,0
48638,-99.9278230328567,4,1,0,100,0,0
48763,-99.8379108050896,4,1,0,100,0,0
48888,-99.7126075309046,4,1,0,100,0,0
49013,-99.5524805375373,4,1,0,100,0,0
49138,-99.3582500664853,4,1,0,100,0,0
49263,-99.1307826149655,4,1,0,100,0,0
49325,-99.0059326079574,4,1,0,100,0,0
49388,-98.8710830406743,4,1,0,100,0,0
49513,-98.5802855648243,4,1,0,100,0,0
49638,-98.2596438237565,4,1,0,100,0,0
49763,-97.910520130809,4,1,0,100,0,0
49888,-97.5343741174243,4,1,0,100,0,0
50013,-97.1327509256887,4,1,0,100,0,0
50138,-96.7072691237605,4,1,0,100,0,0
50263,-96.2596085112098,4,1,0,100,0,0
50388,-95.7914979735353,4,1,0,100,0,0
50513,-95.3047035344715,4,1,0,100,0,0
50638,-94.8010167416696,4,1,0,100,0,0
50763,-94.2822435064493,4,1,0,100,0,0
50888,-93.7501935021227,4,1,0,100,0,0
51013,-93.2066702084258,4,1,0,100,0,0
51138,-92.6534616723447,4,1,0,100,0,0
51200,-92.376022633501,4,1,0,100,0,0
51263,-92.0923320385599,4,1,0,100,0,0
51325,-91.8116091790721,4,1,0,100,0,0
51388,-91.5250138862504,4,1,0,100,0,0
51513,-90.953201393433,4,1,0,100,0,0
51638,-90.3785443356345,4,1,0,100,0,0
51700,-90.0929550783698,4,1,0,100,0,0
51763,-89.8026429127022,4,1,0,100,0,0
51825,-89.5170136358105,4,1,0,100,0,0
51888,-89.2270433860966,4,1,0,100,0,0
52013,-88.6532344991384,4,1,0,100,0,0
52138,-88.0826446444408,4,1,0,100,0,0
52200,-87.8012504660206,4,1,0,100,0,0
52263,-87.5166397361045,4,1,0,100,0,0
52325,-87.2380067567716,4,1,0,100,0,0
52388,-86.9565217391304,4,1,0,100,0,0
54763,-90.9090909090909,4,1,0,100,0,0
55138,-96.7741935483871,4,1,0,100,0,0
55388,-101.123595505618,4,1,0,100,0,0
55513,-103.448275862069,4,1,0,100,0,0
55888,-111.111111111111,4,1,0,100,0,0
56389,-100,4,1,0,100,0,0
59138,-100,4,1,0,100,0,0
59263,-101.290589497996,4,1,0,100,0,0
59388,-102.597835208515,4,1,0,100,0,0
59513,-103.921952094888,4,1,0,100,0,0
59638,-105.263157894737,4,1,0,100,0,0
59888,-105.263157894737,4,1,0,100,0,0
60013,-103.448275862069,4,1,0,100,0,0
60138,-101.694915254237,4,1,0,100,0,0
60263,-100,4,1,0,100,0,0
60388,-98.0392156862745,4,1,0,100,0,0
60513,-97.3069194735483,4,1,0,100,0,0
60638,-96.5800930898024,4,1,0,100,0,0
60700,-96.2216039303623,4,1,0,100,0,0
60763,-95.8586956785794,4,1,0,100,0,0
60825,-95.5028842257277,4,1,0,100,0,0
60888,-95.1426866885959,4,1,0,100,0,0
61138,-93.7266732794247,4,1,0,100,0,0
61200,-93.3787755372905,4,1,0,100,0,0
61263,-93.0265892631104,4,1,0,100,0,0
61325,-92.6812901158058,4,1,0,100,0,0
61388,-92.3317344693082,4,1,0,100,0,0
61513,-91.6420698387517,4,1,0,100,0,0
61575,-91.3019097960885,4,1,0,100,0,0
61638,-90.9575566039247,4,1,0,100,0,0
61763,-90.2781562868818,4,1,0,100,0,0
61825,-89.9430588633063,4,1,0,100,0,0
61888,-89.6038306970858,4,1,0,100,0,0
61950,-89.2712362573669,4,1,0,100,0,0
62013,-88.9345419292603,4,1,0,100,0,0
62075,-88.6044317775569,4,1,0,100,0,0
62138,-88.2702523612599,4,1,0,100,0,0
62200,-87.942607941378,4,1,0,100,0,0
62263,-87.6109246519544,4,1,0,100,0,0
62325,-87.285727546304,4,1,0,100,0,0
62388,-86.9565217391304,4,1,0,100,0,0
62513,-88.495575221239,4,1,0,100,0,0
62638,-89.2195686888418,4,1,0,100,0,0
62763,-89.9494852383594,4,1,0,100,0,0
62825,-90.3137363001042,4,1,0,100,0,0
62888,-90.6853733272724,4,1,0,100,0,0
63013,-91.427281809498,4,1,0,100,0,0
63138,-92.1752599386335,4,1,0,100,0,0
63263,-92.9293573712264,4,1,0,100,0,0
63388,-93.6896241700702,4,1,0,100,0,0
63450,-94.0690209502517,4,1,0,100,0,0
63513,-94.4561108075289,4,1,0,100,0,0
63575,-94.8386114806428,4,1,0,100,0,0
63638,-95.2288681688869,4,1,0,100,0,0
63763,-96.0079475557277,4,1,0,100,0,0
63825,-96.3967324024718,4,1,0,100,0,0
63888,-96.7934006893395,4,1,0,100,0,0
63950,-97.1853662339732,4,1,0,100,0,0
64013,-97.5852797141489,4,1,0,100,0,0
64075,-97.9804519783631,4,1,0,100,0,0
64138,-98.3836372011828,4,1,0,100,0,0
64263,-99.1885261515579,4,1,0,100,0,0
64388,-100,4,1,0,100,0,0
67138,-100,4,1,0,100,0,0
67263,-98.7876547423074,4,1,0,100,0,0
67388,-97.5900072948533,4,1,0,100,0,0
67513,-96.4068794694323,4,1,0,100,0,0
67638,-95.2380952380952,4,1,0,100,0,0
67888,-95.2380952380952,4,1,0,100,0,0
68013,-96.799653029986,4,1,0,100,0,0
68138,-98.3868146806197,4,1,0,100,0,0
68263,-100,4,1,0,100,0,0
68388,-98.0392156862745,4,1,0,100,0,0
68513,-97.5879223044546,4,1,0,100,0,0
68638,-97.1387063129427,4,1,0,100,0,0
68700,-96.9166629560828,4,1,0,100,0,0
68763,-96.6915581491114,4,1,0,100,0,0
68825,-96.4705369005653,4,1,0,100,0,0
68888,-96.2464682943518,4,1,0,100,0,0
69138,-95.3624256564905,4,1,0,100,0,0
69200,-95.1444425896495,4,1,0,100,0,0
69263,-94.9234540544452,4,1,0,100,0,0
69325,-94.7064744056214,4,1,0,100,0,0
69388,-94.4865031231838,4,1,0,100,0,0
69513,-94.0515635611697,4,1,0,100,0,0
69575,-93.8365769128632,4,1,0,100,0,0
69638,-93.6186261096829,4,1,0,100,0,0
69763,-93.1876815526235,4,1,0,100,0,0
69825,-92.9746695987349,4,1,0,100,0,0
69888,-92.7587207163148,4,1,0,100,0,0
69950,-92.5466892974535,4,1,0,100,0,0
70013,-92.3317344693082,4,1,0,100,0,0
70075,-92.1206790718828,4,1,0,100,0,0
70138,-91.906713722189,4,1,0,100,0,0
70200,-91.696629853385,4,1,0,100,0,0
70263,-91.4836494273831,4,1,0,100,0,0
70388,-91.0625325789637,4,1,0,100,0,0
70513,-90.6433542124603,4,1,0,100,0,0
70638,-90.2261054046675,4,1,0,100,0,0
70763,-89.8107772734551,4,1,0,100,0,0
70825,-89.605484376062,4,1,0,100,0,0
70888,-89.397360977579,4,1,0,100,0,0
71013,-88.9858477164933,4,1,0,100,0,0
71138,-88.5762287301624,4,1,0,100,0,0
71263,-88.168495298875,4,1,0,100,0,0
71388,-87.7626387430583,4,1,0,100,0,0
71450,-87.5620275587729,4,1,0,100,0,0
71513,-87.3586504230932,4,1,0,100,0,0
71575,-87.1589626907056,4,1,0,100,0,0
71638,-86.9565217391304,4,1,0,100,0,0
72138,-100,4,1,0,100,0,0
72200,-98.7972949444324,4,1,0,100,0,0
72263,-97.5900072948533,4,1,0,100,0,0
72325,-96.4162873433893,4,1,0,100,0,0
72388,-95.2380952380952,4,1,0,100,0,0
72764,-100,4,1,0,100,0,0
72888,-98.3606557377049,4,1,0,100,0,0
73013,-96.7741935483871,4,1,0,100,0,0
73138,-95.2380952380952,4,1,0,100,0,0
73389,-100,4,1,0,100,0,0
73638,-98.3606557377049,4,1,0,100,0,0
73763,-96.7741935483871,4,1,0,100,0,0
73888,-95.2380952380952,4,1,0,100,0,0
74263,-100,4,1,0,100,0,0
74388,-98.3606557377049,4,1,0,100,0,0
74513,-96.7741935483871,4,1,0,100,0,0
74638,-95.2380952380952,4,1,0,100,0,0
75013,-100,4,1,0,100,0,0
75138,-98.3606557377049,4,1,0,100,0,0
75263,-96.7741935483871,4,1,0,100,0,0
75388,-95.2380952380952,4,1,0,100,0,0
75763,-97.5609756097561,4,1,0,100,0,0
76138,-100,4,1,0,100,0,0
76389,-95.2380952380952,4,1,0,100,0,0
77513,-95.2380952380952,4,1,0,100,0,0
77575,-95.1617936458622,4,1,0,100,0,0
77638,-94.9300321518166,4,1,0,100,0,0
77763,-94.0382159983608,4,1,0,100,0,0
77825,-93.4054832039101,4,1,0,100,0,0
77888,-92.6535619065393,4,1,0,100,0,0
77950,-91.8239234150901,4,1,0,100,0,0
78013,-90.9090909090909,4,1,0,100,0,0
78075,-89.9575907178945,4,1,0,100,0,0
78138,-88.9586249000224,4,1,0,100,0,0
78200,-87.9628500865713,4,1,0,100,0,0
78263,-86.9565217391304,4,1,0,100,0,0
78389,-95.2380952380952,4,1,0,100,0,0
79138,-95.2380952380952,4,1,0,100,0,0
79263,-93.0965454009249,4,1,0,100,0,0
79388,-91.003151038658,4,1,0,100,0,0
79513,-88.9568293141254,4,1,0,100,0,0
79638,-86.9565217391304,4,1,0,100,0,0
79888,-86.9565217391304,4,1,0,100,0,0
80013,-88.9568293141254,4,1,0,100,0,0
80138,-91.003151038658,4,1,0,100,0,0
80263,-93.0965454009249,4,1,0,100,0,0
80388,-95.2380952380952,4,1,0,100,0,0
80763,-95.2380952380952,4,1,0,100,0,0
80888,-93.75,4,1,0,100,0,0
81013,-92.3076923076923,4,1,0,100,0,0
81138,-90.9090909090909,4,1,0,100,0,0
81389,-95.2380952380952,4,1,0,100,0,0
81639,-93.75,4,1,0,100,0,0
81764,-92.3076923076923,4,1,0,100,0,0
81889,-90.9090909090909,4,1,0,100,0,0
82264,-95.2380952380952,4,1,0,100,0,0
82389,-93.75,4,1,0,100,0,0
82514,-92.3076923076923,4,1,0,100,0,0
82639,-90.9090909090909,4,1,0,100,0,0
83014,-95.2380952380952,4,1,0,100,0,0
83139,-93.75,4,1,0,100,0,0
83264,-92.3076923076923,4,1,0,100,0,0
83389,-90.9090909090909,4,1,0,100,0,0
83763,-95.2380952380952,4,1,0,100,0,0
84106,-97.5540588443814,4,1,0,100,0,0
84389,-90.9090909090909,4,1,0,100,0,0
84513,-90.2522978744226,4,1,0,100,0,0
84763,-88.952912966687,4,1,0,100,0,0
84888,-88.3102527765372,4,1,0,100,0,0
85013,-87.6722356284895,4,1,0,100,0,0
85263,-86.4099965222719,4,1,0,100,0,0
85388,-85.7857082000149,4,1,0,100,0,0
85513,-85.1659301881964,4,1,0,100,0,0
85575,-84.8601835878892,4,1,0,100,0,0
85638,-84.5506299010712,4,1,0,100,0,0
85763,-83.9419121967598,4,1,0,100,0,0
85825,-84.136601922346,4,1,0,100,0,0
85888,-84.3348943453416,4,1,0,100,0,0
85950,-84.5304955296337,4,1,0,100,0,0
86013,-84.7297162777103,4,1,0,100,0,0
86075,-84.9262331877901,4,1,0,100,0,0
86138,-85.1263866069909,4,1,0,100,0,0
86263,-85.5249139866317,4,1,0,100,0,0
86388,-85.9253071105929,4,1,0,100,0,0
86513,-86.3275747135362,4,1,0,100,0,0
86638,-86.7317255710155,4,1,0,100,0,0
86763,-87.1377684996684,4,1,0,100,0,0
86825,-87.3398704984605,4,1,0,100,0,0
86888,-87.5457123574084,4,1,0,100,0,0
87013,-87.9555660436181,4,1,0,100,0,0
87138,-88.3673384993435,4,1,0,100,0,0
87263,-88.7810387074889,4,1,0,100,0,0
87388,-89.1966756930129,4,1,0,100,0,0
87513,-89.6142585231256,4,1,0,100,0,0
87575,-89.8221043410714,4,1,0,100,0,0
87638,-90.0337963074856,4,1,0,100,0,0
87763,-90.4552981983998,4,1,0,100,0,0
87888,-90.8787733910222,4,1,0,100,0,0
87950,-91.089552047239,4,1,0,100,0,0
88013,-91.3042311235546,4,1,0,100,0,0
88075,-91.5159965603561,4,1,0,100,0,0
88138,-91.7316806774489,4,1,0,100,0,0
88263,-92.1611313776086,4,1,0,100,0,0
88388,-92.5925925925926,4,1,0,100,0,0
88763,-90.9090909090909,4,1,0,100,0,0
88888,-89.5522388059701,4,1,0,100,0,0
89013,-88.2352941176471,4,1,0,100,0,0
89138,-86.9565217391304,4,1,0,100,0,0
89389,-90.9090909090909,4,1,0,100,0,0
89639,-89.5522388059701,4,1,0,100,0,0
89764,-88.2352941176471,4,1,0,100,0,0
89889,-86.9565217391304,4,1,0,100,0,0
90264,-90.9090909090909,4,1,0,100,0,0
90389,-89.5522388059701,4,1,0,100,0,0
90514,-88.2352941176471,4,1,0,100,0,0
90639,-86.9565217391304,4,1,0,100,0,0
91014,-90.9090909090909,4,1,0,100,0,0
91139,-89.5522388059701,4,1,0,100,0,0
91264,-88.2352941176471,4,1,0,100,0,0
91389,-86.9565217391304,4,1,0,100,0,0
91763,-93.4579439252336,4,1,0,100,0,0
92138,-96.6183574879227,4,1,0,100,0,0
92389,-100,4,1,0,100,0,0
95638,-100,4,1,0,100,0,0
95700,-99.8738743442593,4,1,0,100,0,0
95763,-99.4914864710838,4,1,0,100,0,0
95825,-98.8769521809679,4,1,0,100,0,0
95888,-98.0299711301228,4,1,0,100,0,0
95950,-97.0024835549027,4,1,0,100,0,0
96013,-95.7914979735353,4,1,0,100,0,0
96075,-94.4678479431563,4,1,0,100,0,0
96138,-93.0232558139535,4,1,0,100,0,0
96200,-91.5371695373331,4,1,0,100,0,0
96263,-89.9946517158383,4,1,0,100,0,0
96325,-88.4747996051128,4,1,0,100,0,0
96388,-86.9565217391304,4,1,0,100,0,0
100388,-86.9565217391304,4,1,0,100,0,0
100513,-87.7194246869063,4,1,0,100,0,0
100763,-89.2653690261424,4,1,0,100,0,0
100888,-90.0485283775324,4,1,0,100,0,0
101138,-91.6355202347939,4,1,0,100,0,0
101263,-92.4394738326371,4,1,0,100,0,0
101388,-93.2504808240314,4,1,0,100,0,0
101513,-94.0686030911063,4,1,0,100,0,0
101575,-94.4770508078091,4,1,0,100,0,0
101638,-94.893903058907,4,1,0,100,0,0
101888,-96.5662885400652,4,1,0,100,0,0
101950,-96.9855812558979,4,1,0,100,0,0
102013,-97.4135016611696,4,1,0,100,0,0
102075,-97.8364729929645,4,1,0,100,0,0
102138,-98.2681477082301,4,1,0,100,0,0
102200,-98.6948299298972,4,1,0,100,0,0
102263,-99.1302918931595,4,1,0,100,0,0
102325,-99.5607175617604,4,1,0,100,0,0
102388,-100,4,1,0,100,0,0
102763,-123.53634864011,4,1,0,100,0,0
102888,-122.089835482647,4,1,0,100,0,0
103138,-119.247423425438,4,1,0,100,0,0
103388,-116.47118646193,4,1,0,100,0,0
103513,-115.107400778306,4,1,0,100,0,0
103856,-111.446644015395,4,1,0,100,0,0
104388,-125,4,1,0,100,0,0
104513,-124.274781689179,4,1,0,100,0,0
104763,-122.029642501524,4,1,0,100,0,0
104888,-120.728565214685,4,1,0,100,0,0
105013,-119.355950259881,4,1,0,100,0,0
105138,-117.931731285318,4,1,0,100,0,0
105263,-116.470398062621,4,1,0,100,0,0
105325,-115.735325993051,4,1,0,100,0,0
105388,-114.983027647238,4,1,0,100,0,0
105513,-113.478365691556,4,1,0,100,0,0
105638,-111.963467488362,4,1,0,100,0,0
105763,-110.444108884966,4,1,0,100,0,0
105888,-108.925065833261,4,1,0,100,0,0
106013,-107.410313671107,4,1,0,100,0,0
106138,-105.903174603302,4,1,0,100,0,0
106263,-104.406430215189,4,1,0,100,0,0
106325,-103.668636004671,4,1,0,100,0,0
106388,-102.922409472635,4,1,0,100,0,0
106450,-102.191669877729,4,1,0,100,0,0
106513,-101.453058975013,4,1,0,100,0,0
106638,-100,4,1,0,100,0,0
107138,-111.111111111111,4,1,0,100,0,0
107200,-111.088950345323,4,1,0,100,0,0
107263,-111.021170074578,4,1,0,100,0,0
107388,-110.753522657546,4,1,0,100,0,0
107513,-110.314593690595,4,1,0,100,0,0
107575,-110.036399062471,4,1,0,100,0,0
107638,-109.714759489288,4,1,0,100,0,0
107763,-108.9678807781,4,1,0,100,0,0
107888,-108.090705483154,4,1,0,100,0,0
107950,-107.613070055875,4,1,0,100,0,0
108013,-107.102188815044,4,1,0,100,0,0
108075,-106.57684953696,4,1,0,100,0,0
108138,-106.022780388938,4,1,0,100,0,0
108263,-104.873725015316,4,1,0,100,0,0
108388,-103.676416392379,4,1,0,100,0,0
108450,-103.07115404087,4,1,0,100,0,0
108513,-102.451832843441,4,1,0,100,0,0
108638,-101.220073159383,4,1,0,100,0,0
108700,-100.612336039145,4,1,0,100,0,0
108763,-100,4,1,0,100,0,0
108888,-100,4,1,0,100,0,0
109013,-100,4,1,0,100,0,0
109138,-99.9178958967543,4,1,0,100,0,0
109263,-99.6732849372068,4,1,0,100,0,0
109388,-99.2711982588486,4,1,0,100,0,0
109513,-98.7197839386939,4,1,0,100,0,0
109638,-98.0299711301228,4,1,0,100,0,0
109763,-97.2150370060938,4,1,0,100,0,0
109950,-95.795574087322,4,1,0,100,0,0
110013,-95.2716300310629,4,1,0,100,0,0
110075,-94.7370606891764,4,1,0,100,0,0
110138,-94.176837785833,4,1,0,100,0,0
110325,-92.434645113232,4,1,0,100,0,0
110388,-91.8282496525943,4,1,0,100,0,0
110450,-91.2253814397118,4,1,0,100,0,0
110513,-90.60864492873,4,1,0,100,0,0
110700,-88.7726737003306,4,1,0,100,0,0
110763,-88.1584875514461,4,1,0,100,0,0
110825,-87.5590144411557,4,1,0,100,0,0
110888,-86.9565217391304,4,1,0,100,0,0
111389,-83.3333333333333,4,1,0,100,0,0
111451,-86.9565217391304,4,1,0,100,0,0
111764,-83.3333333333333,4,1,0,100,0,0
111889,-86.9565217391304,4,1,0,100,0,0
112264,-83.3333333333333,4,1,0,100,0,0
112326,-86.9565217391304,4,1,0,100,0,0
112639,-83.3333333333333,4,1,0,100,0,0
112764,-86.9565217391304,4,1,0,100,0,0
113264,-83.3333333333333,4,1,0,100,0,0
113326,-86.9565217391304,4,1,0,100,0,0
116138,-86.9565217391304,4,1,0,100,0,0
116200,-86.5169787641066,4,1,0,100,0,0
116263,-86.0726221433139,4,1,0,100,0,0
116325,-85.6375470546567,4,1,0,100,0,0
116388,-85.1977072501955,4,1,0,100,0,0
116450,-84.7670546325309,4,1,0,100,0,0
116513,-84.3316857316617,4,1,0,100,0,0
116575,-83.905410631256,4,1,0,100,0,0
116638,-83.4744671879351,4,1,0,100,0,0
116700,-83.0525251080025,4,1,0,100,0,0
116763,-82.6259621381383,4,1,0,100,0,0
116825,-82.2083090341957,4,1,0,100,0,0
116888,-81.7860820109531,4,1,0,100,0,0
116950,-81.3726742862227,4,1,0,100,0,0
117013,-80.9547391353748,4,1,0,100,0,0
117075,-80.5455336362335,4,1,0,100,0,0
117138,-80.1318467315611,4,1,0,100,0,0
117200,-79.7268007430358,4,1,0,100,0,0
117263,-79.3173189017734,4,1,0,100,0,0
117325,-78.9163901430819,4,1,0,100,0,0
117388,-78.5110706214103,4,1,0,100,0,0
117450,-78.114217241548,4,1,0,100,0,0
117513,-77.7130177301324,4,1,0,100,0,0
117575,-77.3201983035038,4,1,0,100,0,0
117638,-76.9230769230769,4,1,0,100,0,0
118388,-100,4,1,0,100,0,0
118513,-98.6073153305685,4,1,0,100,0,0
118638,-97.2340263670216,4,1,0,100,0,0
118763,-95.8798629883371,4,1,0,100,0,0
118888,-94.5445588354266,4,1,0,100,0,0
118950,-93.8891636820427,4,1,0,100,0,0
119013,-93.2278512587439,4,1,0,100,0,0
119138,-91.9294812666229,4,1,0,100,0,0
119200,-91.2922141703735,4,1,0,100,0,0
119263,-90.6491934743348,4,1,0,100,0,0
119325,-90.0208014992381,4,1,0,100,0,0
119388,-89.3867360538543,4,1,0,100,0,0
119450,-88.7670955974588,4,1,0,100,0,0
119513,-88.1418606843271,4,1,0,100,0,0
119638,-86.9143225032248,4,1,0,100,0,0
119700,-86.3118211384724,4,1,0,100,0,0
119763,-85.7038800581821,4,1,0,100,0,0
119825,-85.1097696375697,4,1,0,100,0,0
119888,-84.5102952595038,4,1,0,100,0,0
119950,-83.9244589236388,4,1,0,100,0,0
120013,-83.3333333333333,4,1,0,100,0,0
120264,-90.9090909090909,4,1,0,100,0,0
120389,-86.9565217391304,4,1,0,100,0,0
120639,-90.9090909090909,4,1,0,100,0,0
120764,-86.9565217391304,4,1,0,100,0,0
121014,-83.3333333333333,4,1,0,100,0,0
121264,-86.9565217391304,4,1,0,100,0,0
121389,-83.3333333333333,4,1,0,100,0,0
121639,-86.9565217391304,4,1,0,100,0,0
121764,-83.3333333333333,4,1,0,100,0,0
122014,-95.2380952380952,4,1,0,100,0,0
122201,-90.9090909090909,4,1,0,100,0,0
124388,-90.9090909090909,4,1,0,100,0,0
124513,-90.7169379531471,4,1,0,100,0,0
124638,-90.329082514602,4,1,0,100,0,0
124763,-89.8058827108415,4,1,0,100,0,0
124888,-89.1733309623056,4,1,0,100,0,0
125013,-88.4487108340558,4,1,0,100,0,0
125138,-87.645249346222,4,1,0,100,0,0
125200,-87.220904206914,4,1,0,100,0,0
125263,-86.7738172603996,4,1,0,100,0,0
125325,-86.3192897640394,4,1,0,100,0,0
125388,-85.8437206198689,4,1,0,100,0,0
125450,-85.3631849203551,4,1,0,100,0,0
125513,-84.863124632103,4,1,0,100,0,0
125638,-83.8393035876195,4,1,0,100,0,0
125700,-83.3174962287896,4,1,0,100,0,0
125763,-82.7787995847838,4,1,0,100,0,0
125825,-82.2410285242638,4,1,0,100,0,0
125888,-81.6875298856009,4,1,0,100,0,0
126013,-80.570863757708,4,1,0,100,0,0
126044,-80.2905762047169,4,1,0,100,0,0
126388,-90.9090909090909,4,1,0,100,0,0
126513,-90.0900900900901,4,1,0,100,0,0
126638,-89.2857142857143,4,1,0,100,0,0
126888,-87.719298245614,4,1,0,100,0,0
127013,-86.9565217391304,4,1,0,100,0,0
127138,-86.2068965517241,4,1,0,100,0,0
127388,-84.7457627118644,4,1,0,100,0,0
127638,-83.3333333333333,4,1,0,100,0,0
127888,-81.9672131147541,4,1,0,100,0,0
128013,-81.3008130081301,4,1,0,100,0,0
128263,-80,4,1,0,100,0,0
128388,-80,4,1,0,100,0,0
128513,-80.7453416149068,4,1,0,100,0,0
128638,-81.5047021943574,4,1,0,100,0,0
128763,-82.2784810126582,4,1,0,100,0,0
128888,-83.0670926517572,4,1,0,100,0,0
129013,-83.8709677419355,4,1,0,100,0,0
129138,-84.6905537459283,4,1,0,100,0,0
129200,-85.1030401424494,4,1,0,100,0,0
129263,-85.5263157894737,4,1,0,100,0,0
129388,-86.3787375415282,4,1,0,100,0,0
129513,-87.248322147651,4,1,0,100,0,0
129575,-87.6861644722642,4,1,0,100,0,0
129638,-88.135593220339,4,1,0,100,0,0
129763,-89.041095890411,4,1,0,100,0,0
129888,-89.9653979238754,4,1,0,100,0,0
129950,-90.4310080970533,4,1,0,100,0,0
130013,-90.9090909090909,4,1,0,100,0,0
130138,-90.9090909090909,4,1,0,100,0,0
130200,-89.8957209636821,4,1,0,100,0,0
130263,-88.8888888888889,4,1,0,100,0,0
130325,-87.9198171267804,4,1,0,100,0,0
130388,-86.9565217391304,4,1,0,100,0,0
132451,-100,4,1,0,100,0,0
134389,-100,4,1,0,100,0,0
136513,-100,4,1,0,100,0,0
136575,-97.6640239447431,4,1,0,100,0,0
136638,-95.3462589245592,4,1,0,100,0,0
136700,-93.1189931464982,4,1,0,100,0,0
136763,-90.9090909090909,4,1,0,100,0,0
136889,-95.2380952380952,4,1,0,100,0,0
136951,-100,4,1,0,100,0,0
137263,-100,4,1,0,100,0,0
137325,-97.6090548833716,4,1,0,100,0,0
137388,-95.2380952380952,4,1,0,100,0,0
137514,-100,4,1,0,100,0,0
138014,-100,4,1,0,100,0,0
138076,-97.6090548833716,4,1,0,100,0,0
138139,-95.2380952380952,4,1,0,100,0,0
138264,-100,4,1,0,100,0,0
138388,-100,4,1,0,100,0,0
138513,-98.8669580916978,4,1,0,100,0,0
138638,-97.7467540230552,4,1,0,100,0,0
138700,-97.1958507820932,4,1,0,100,0,0
138763,-96.6392423359689,4,1,0,100,0,0
138825,-96.0945810596012,4,1,0,100,0,0
138888,-95.5442792204367,4,1,0,100,0,0
139138,-93.3914315927013,4,1,0,100,0,0
139200,-92.8650750619221,4,1,0,100,0,0
139263,-92.3332675339926,4,1,0,100,0,0
139325,-91.8128748432942,4,1,0,100,0,0
139388,-91.2870929175277,4,1,0,100,0,0
139513,-90.2527718979013,4,1,0,100,0,0
139575,-89.7441049345704,4,1,0,100,0,0
139638,-89.2301701688937,4,1,0,100,0,0
139763,-88.2191549460307,4,1,0,100,0,0
139825,-87.7219495005871,4,1,0,100,0,0
139888,-87.2195949493421,4,1,0,100,0,0
139950,-86.7280230499657,4,1,0,100,0,0
140013,-86.2313603863146,4,1,0,100,0,0
140075,-85.7453582025676,4,1,0,100,0,0
140138,-85.2543229350386,4,1,0,100,0,0
140200,-84.7738273597087,4,1,0,100,0,0
140263,-84.2883557275453,4,1,0,100,0,0
140388,-83.3333333333333,4,1,0,100,0,0
140513,-84.2883557275453,4,1,0,100,0,0
140638,-85.2543229350386,4,1,0,100,0,0
140763,-86.2313603863146,4,1,0,100,0,0
140825,-86.7201172162321,4,1,0,100,0,0
140888,-87.2195949493421,4,1,0,100,0,0
141013,-88.2191549460307,4,1,0,100,0,0
141138,-89.2301701688937,4,1,0,100,0,0
141263,-90.2527718979013,4,1,0,100,0,0
141388,-91.2870929175277,4,1,0,100,0,0
141450,-91.8045054916407,4,1,0,100,0,0
141513,-92.3332675339926,4,1,0,100,0,0
141575,-92.8566097952496,4,1,0,100,0,0
141638,-93.3914315927013,4,1,0,100,0,0
141763,-94.4617224958838,4,1,0,100,0,0
141825,-94.9971287776449,4,1,0,100,0,0
141888,-95.5442792204367,4,1,0,100,0,0
141950,-96.0858214020667,4,1,0,100,0,0
142013,-96.639242335969,4,1,0,100,0,0
142075,-97.1869907365294,4,1,0,100,0,0
142138,-97.7467540230552,4,1,0,100,0,0
142263,-98.8669580916978,4,1,0,100,0,0
142388,-100,4,1,0,100,0,0
145264,-100,4,1,0,100,0,0
145326,-97.6090548833716,4,1,0,100,0,0
145389,-95.2380952380952,4,1,0,100,0,0
145514,-100,4,1,0,100,0,0
146014,-100,4,1,0,100,0,0
146076,-97.6090548833716,4,1,0,100,0,0
146139,-95.2380952380952,4,1,0,100,0,0
146264,-100,4,1,0,100,0,0
148388,-100,4,1,0,100,0,0
148763,-100.767043445452,4,1,0,100,0,0
148888,-101.357938893652,4,1,0,100,0,0
149138,-103.017307066006,4,1,0,100,0,0
149388,-105.263157894737,4,1,0,100,0,0
149513,-106.579317868761,4,1,0,100,0,0
149888,-111.111111111111,4,1,0,100,0,0
149951,-100,4,1,0,5,0,0
151389,-100,4,1,0,100,0,0
153014,-100,4,1,0,100,0,0
154264,-100,4,1,0,100,0,0
154388,-98.1933044561913,4,1,0,100,0,0
154638,-94.6772480999074,4,1,0,100,0,0
154763,-92.9667184774856,4,1,0,100,0,0
155013,-89.6378130777142,4,1,0,100,0,0
155138,-88.0183307032715,4,1,0,100,0,0
155263,-86.4281074447207,4,1,0,100,0,0
155388,-84.8666146789187,4,1,0,100,0,0
155513,-83.3333333333333,4,1,0,100,0,0
155639,-100,4,1,0,100,0,0
156264,-100,4,1,0,100,0,0
157014,-100,4,1,0,100,0,0
157264,-100,4,1,0,100,0,0
158139,-100,4,1,0,100,0,0
158200,-99.1812655631626,4,1,0,100,0,0
158263,-98.3561917376879,4,1,0,100,0,0
158325,-97.5509157251696,4,1,0,100,0,0
158388,-96.7394045314082,4,1,0,100,0,0
158638,-93.5851238909145,4,1,0,100,0,0
158763,-92.0467638921006,4,1,0,100,0,0
159014,-89.0454912796494,4,1,0,100,0,0
159138,-87.5817541367781,4,1,0,100,0,0
159200,-86.8646921552741,4,1,0,100,0,0
159263,-86.1420780259999,4,1,0,100,0,0
159325,-85.4368031685937,4,1,0,100,0,0
159388,-84.7260674300811,4,1,0,100,0,0
159513,-83.3333333333333,4,1,0,100,0,0
159639,-100,4,1,0,100,0,0
161014,-100,4,1,0,100,0,0
162389,-100,4,1,0,100,0,0
162638,-96.0293894267264,4,1,0,100,0,0
162763,-94.1036028881028,4,1,0,100,0,0
163014,-90.3671152819964,4,1,0,100,0,0
163075,-89.4636581509582,4,1,0,100,0,0
163138,-88.5548807652176,4,1,0,100,0,0
163200,-87.669541687325,4,1,0,100,0,0
163263,-86.7789890478471,4,1,0,100,0,0
163325,-85.9114046811789,4,1,0,100,0,0
163388,-85.038711306404,4,1,0,100,0,0
163513,-83.3333333333333,4,1,0,100,0,0
163639,-100,4,1,0,100,0,0
165014,-100,4,1,0,100,0,0
165264,-100,4,1,0,100,0,0
166139,-100,4,1,0,100,0,0
166889,-100,4,1,0,100,0,0
167389,-90.9090909090909,4,1,0,100,0,1
183389,-83.3333333333333,4,1,0,100,0,0
183513,-86.4281074447207,4,1,0,100,0,0
183763,-92.9667184774856,4,1,0,100,0,0
184013,-100,4,1,0,100,0,0
184264,-83.3333333333333,4,1,0,100,0,0
184388,-87.2195949493421,4,1,0,100,0,0
184513,-91.2870929175277,4,1,0,100,0,0
184763,-100,4,1,0,100,0,0
185013,-100,4,1,0,100,0,0
185075,-103.758206329926,4,1,0,100,0,0
185138,-107.721734501594,4,1,0,100,0,0
185200,-111.770139546339,4,1,0,100,0,0
185263,-116.03972084032,4,1,0,100,0,0
185388,-125,4,1,0,100,0,0
185514,-90.702947845805,4,1,0,100,0,0
185576,-100,4,1,0,100,0,0
185889,-83.3333333333333,4,1,0,100,0,0
186013,-87.2195949493421,4,1,0,100,0,0
186138,-91.2870929175277,4,1,0,100,0,0
186263,-95.5442792204367,4,1,0,100,0,0
186388,-100,4,1,0,100,0,0
186514,-90.702947845805,4,1,0,100,0,0
186764,-100,4,1,0,100,0,0
186889,-90.9090909090909,4,1,0,100,0,0
187138,-91.2870929175277,4,1,0,100,0,0
187263,-95.5442792204367,4,1,0,100,0,0
187388,-100,4,1,0,100,0,0
187514,-90.4977375565611,4,1,0,100,0,0
187764,-91.1161731207289,4,1,0,100,0,0
187889,-83.3333333333333,4,1,0,100,0,0
188013,-91.2870929175277,4,1,0,100,0,0
188138,-100,4,1,0,100,0,0
188264,-83.3333333333333,4,1,0,100,0,0
188514,-83.3333333333333,4,1,0,100,0,0
188638,-85.9044434072037,4,1,0,100,0,0
188763,-88.5548807652176,4,1,0,100,0,0
188825,-89.8996813358868,4,1,0,100,0,0
188888,-91.2870929175277,4,1,0,100,0,0
189013,-94.1036028881028,4,1,0,100,0,0
189138,-97.00701154458,4,1,0,100,0,0
189263,-100,4,1,0,100,0,0
189513,-100,4,1,0,100,0,0
189638,-102.669009608034,4,1,0,100,0,0
189763,-105.409255338946,4,1,0,100,0,0
189888,-108.2226384917,4,1,0,100,0,0
190013,-111.111111111111,4,1,0,100,0,0
190263,-111.111111111111,4,1,0,100,0,0
190388,-105.409255338946,4,1,0,100,0,0
190513,-100,4,1,0,100,0,0
190763,-100,4,1,0,100,0,0
191013,-105.263157894737,4,1,0,100,0,0
191263,-100,4,1,0,100,0,0
191325,-97.5800156128025,4,1,0,100,0,0
191388,-95.2380952380952,4,1,0,100,0,0
191514,-100,4,1,0,100,0,0
191763,-100,4,1,0,100,0,0
191888,-98.4240471709767,4,1,0,100,0,0
192013,-96.8729306151464,4,1,0,100,0,0
192138,-95.3462589245592,4,1,0,100,0,0
192263,-93.8436468596697,4,1,0,100,0,0
192325,-93.1071603144004,4,1,0,100,0,0
192388,-92.3647152521261,4,1,0,100,0,0
192513,-90.9090909090909,4,1,0,100,0,0
192763,-100,4,1,0,100,0,0
192888,-97.6454089676311,4,1,0,100,0,0
193013,-95.3462589245592,4,1,0,100,0,0
193138,-93.1012444622223,4,1,0,100,0,0
193263,-90.9090909090909,4,1,0,100,0,0
193513,-90.9090909090909,4,1,0,100,0,0
193638,-90.4846046863808,4,1,0,100,0,0
193763,-90.0621005377568,4,1,0,100,0,0
193825,-89.8532709868793,4,1,0,100,0,0
193888,-89.6415692082241,4,1,0,100,0,0
194013,-89.2230014860031,4,1,0,100,0,0
194138,-88.806388202327,4,1,0,100,0,0
194263,-88.3917202312412,4,1,0,100,0,0
194388,-87.9789884894033,4,1,0,100,0,0
194513,-87.5681839358844,4,1,0,100,0,0
194575,-87.3651371002754,4,1,0,100,0,0
194638,-87.1592975719707,4,1,0,100,0,0
194763,-86.7523204409664,4,1,0,100,0,0
194888,-86.3472436279979,4,1,0,100,0,0
194950,-86.1470278213636,4,1,0,100,0,0
195013,-85.9440582598181,4,1,0,100,0,0
195138,-85.5427555046122,4,1,0,100,0,0
195200,-85.3444050874424,4,1,0,100,0,0
195263,-85.1433265718042,4,1,0,100,0,0
195325,-84.9459023218474,4,1,0,100,0,0
195388,-84.7457627118644,4,1,0,100,0,0
195514,-83.3333333333333,4,1,0,100,0,0
196013,-83.3333333333333,4,1,0,100,0,0
196138,-87.2195949493421,4,1,0,100,0,0
196263,-91.2870929175277,4,1,0,100,0,0
196388,-95.5442792204367,4,1,0,100,0,0
196513,-100,4,1,0,100,0,0
196639,-83.3333333333333,4,1,0,100,0,0
196888,-83.3333333333333,4,1,0,100,0,0
197013,-91.2870929175277,4,1,0,100,0,0
197138,-100,4,1,0,100,0,0
197264,-83.3333333333333,4,1,0,100,0,0
197513,-83.3333333333333,4,1,0,100,0,0
197638,-84.6091225416443,4,1,0,100,0,0
197763,-85.9044434072037,4,1,0,100,0,0
197888,-87.2195949493421,4,1,0,100,0,0
198013,-88.5548807652176,4,1,0,100,0,0
198075,-89.224747472495,4,1,0,100,0,0
198138,-89.9106090998999,4,1,0,100,0,0
198263,-91.2870929175277,4,1,0,100,0,0
198388,-92.6846499735548,4,1,0,100,0,0
198513,-94.1036028881028,4,1,0,100,0,0
198763,-97.00701154458,4,1,0,100,0,0
198825,-97.7408137567752,4,1,0,100,0,0
198888,-98.4921375260889,4,1,0,100,0,0
198950,-99.2371738616042,4,1,0,100,0,0
199013,-100,4,1,0,100,0,0
199077,-91.116173120729,4,1,0,100,0,0
199389,-86.9565217391304,4,1,0,100,0,1
202388,-86.9565217391304,4,1,0,100,0,1
202513,-86.4951455722145,4,1,0,100,0,1
202575,-86.2672120253791,4,1,0,100,0,1
202638,-86.0362173869237,4,1,0,100,0,1
202763,-85.5797241946936,4,1,0,100,0,1
202888,-85.1256530758749,4,1,0,100,0,1
202950,-84.9013284400366,4,1,0,100,0,1
203013,-84.6739911793677,4,1,0,100,0,1
203075,-84.4508567709966,4,1,0,100,0,1
203138,-84.2247257222579,4,1,0,100,0,1
203263,-83.7778439894552,4,1,0,100,0,1
203325,-83.5570711241063,4,1,0,100,0,1
203388,-83.3333333333333,4,1,0,100,0,1
203514,-86.9565217391304,4,1,0,100,0,1
206388,-86.9565217391304,4,1,0,100,0,1
206450,-86.6946860725531,4,1,0,100,0,1
206513,-86.42943483015,4,1,0,100,0,1
206575,-86.1691862803225,4,1,0,100,0,1
206638,-85.9055428581803,4,1,0,100,0,1
206763,-85.3848264571122,4,1,0,100,0,1
206825,-85.1277233381758,4,1,0,100,0,1
206888,-84.8672663782245,4,1,0,100,0,1
207013,-84.3528434894719,4,1,0,100,0,1
207075,-84.0988477849402,4,1,0,100,0,1
207138,-83.8415387747783,4,1,0,100,0,1
207200,-83.5890826650708,4,1,0,100,0,1
207263,-83.3333333333333,4,1,0,100,0,1
207389,-86.9565217391304,4,1,0,100,0,1
210388,-86.9565217391304,4,1,0,100,0,1
210513,-86.42943483015,4,1,0,100,0,1
210575,-86.1691862803225,4,1,0,100,0,1
210638,-85.9055428581803,4,1,0,100,0,1
210763,-85.3848264571122,4,1,0,100,0,1
210888,-84.8672663782245,4,1,0,100,0,1
210950,-84.611721689703,4,1,0,100,0,1
211013,-84.3528434894719,4,1,0,100,0,1
211075,-84.0988477849402,4,1,0,100,0,1
211138,-83.8415387747783,4,1,0,100,0,1
211263,-83.3333333333333,4,1,0,100,0,1
211389,-86.9565217391304,4,1,0,100,0,1
211450,-86.8367281621598,4,1,0,100,0,1
211513,-86.7151714743776,4,1,0,100,0,1
211638,-86.4744910840532,4,1,0,100,0,1
211763,-86.234478708902,4,1,0,100,0,1
211888,-85.995132494829,4,1,0,100,0,1
212013,-85.7564505928856,4,1,0,100,0,1
212138,-85.5184311592548,4,1,0,100,0,1
212200,-85.4006187334517,4,1,0,100,0,1
212263,-85.2810723552372,4,1,0,100,0,1
212388,-85.0443723472367,4,1,0,100,0,1
212513,-84.8083293067467,4,1,0,100,0,1
212638,-84.5729414103353,4,1,0,100,0,1
212763,-84.3382068396318,4,1,0,100,0,1
212888,-84.1041237813123,4,1,0,100,0,1
213013,-83.8706904270859,4,1,0,100,0,1
213138,-83.6379049736807,4,1,0,100,0,1
213263,-83.4057656228299,4,1,0,100,0,1
213325,-83.2908636602847,4,1,0,100,0,1
213388,-83.1742705812576,4,1,0,100,0,1
213513,-82.9434180606654,4,1,0,100,0,1
213575,-82.8291530402054,4,1,0,100,0,1
213638,-82.7132062777183,4,1,0,100,0,1
213763,-82.483633454031,4,1,0,100,0,1
213888,-82.2546978161541,4,1,0,100,0,1
214013,-82.0263975955605,4,1,0,100,0,1
214138,-81.7987310286319,4,1,0,100,0,1
214263,-81.5716963566445,4,1,0,100,0,1
214388,-81.3452918257564,4,1,0,100,0,1
214450,-81.2332284257648,4,1,0,100,0,1
214513,-81.1195156869932,4,1,0,100,0,1
214575,-81.007763322111,4,1,0,100,0,1
214638,-80.8943661962349,4,1,0,100,0,1
214763,-80.6698416142024,4,1,0,100,0,1
214888,-80.4459402064442,4,1,0,100,0,1
214950,-80.335115776748,4,1,0,100,0,1
215013,-80.2226602433224,4,1,0,100,0,1
215075,-80.1121434099389,4,1,0,100,0,1
215138,-80,4,1,0,100,0,1
215263,-81.6496580927726,4,1,0,100,0,1
215388,-83.3333333333333,4,1,0,100,0,1
215513,-83.3333333333333,4,1,0,100,0,1
215554,-85.7459076618134,4,1,0,100,0,1
215596,-88.2897644957235,4,1,0,100,0,1
215638,-90.9090909090909,4,1,0,100,0,1
215763,-90.9090909090909,4,1,0,100,0,1
215888,-93.1012444622223,4,1,0,100,0,1
216013,-95.3462589245592,4,1,0,100,0,1
216075,-96.4797901950893,4,1,0,100,0,1
216138,-97.6454089676311,4,1,0,100,0,1
216263,-100,4,1,0,100,0,1
216388,-99.8770347965218,4,1,0,100,0,1
216513,-99.5129489604135,4,1,0,100,0,1
216763,-98.1259609056395,4,1,0,100,0,1
217013,-96.0410464277229,4,1,0,100,0,1
217263,-93.5367682722768,4,1,0,100,0,1
217388,-92.2205889544347,4,1,0,100,0,1
217513,-90.9090909090909,4,1,0,100,0,1
217700,-90.9073128570816,4,1,0,100,0,1
217763,-90.9018644881087,4,1,0,100,0,1
217825,-90.8929215997496,4,1,0,100,0,1
217888,-90.8802005377095,4,1,0,100,0,1
218013,-90.8441449291947,4,1,0,100,0,1
218200,-90.7635103676156,4,1,0,100,0,1
218263,-90.7291936954371,4,1,0,100,0,1
218388,-90.6505401704878,4,1,0,100,0,1
218450,-90.606356475919,4,1,0,100,0,1
218513,-90.5579781504018,4,1,0,100,0,1
218575,-90.5069657598737,4,1,0,100,0,1
218638,-90.4517007597939,4,1,0,100,0,1
218700,-90.3939657132522,4,1,0,100,0,1
218763,-90.3319286028889,4,1,0,100,0,1
218825,-90.2675902348298,4,1,0,100,0,1
218888,-90.1989088423934,4,1,0,100,0,1
219013,-90.0529141783888,4,1,0,100,0,1
219138,-89.8942417351715,4,1,0,100,0,1
219200,-89.810934662294,4,1,0,100,0,1
219263,-89.7232118645445,4,1,0,100,0,1
219325,-89.6339011894566,4,1,0,100,0,1
219388,-89.5401668745426,4,1,0,100,0,1
219513,-89.3454696929416,4,1,0,100,0,1
219700,-89.0332842640827,4,1,0,100,0,1
219763,-88.9226651663863,4,1,0,100,0,1
219804,-88.849245026082,4,1,0,100,0,1
219846,-88.7728836128819,4,1,0,100,0,1
219888,-88.69537402758,4,1,0,100,0,1
220013,-88.4580601354206,4,1,0,100,0,1
220200,-88.0852960323725,4,1,0,100,0,1
220263,-87.9551533686325,4,1,0,100,0,1
220388,-87.6904830484033,4,1,0,100,0,1
220513,-87.417632050152,4,1,0,100,0,1
220575,-87.2794115209784,4,1,0,100,0,1
220638,-87.1370827681136,4,1,0,100,0,1
220700,-86.9952247034849,4,1,0,100,0,1
220763,-86.8493233793297,4,1,0,100,0,1
220825,-86.7040716168593,4,1,0,100,0,1
220888,-86.5548464111699,4,1,0,100,0,1
220950,-86.4064464269434,4,1,0,100,0,1
221013,-86.2541473490492,4,1,0,100,0,1
221200,-85.7937665004558,4,1,0,100,0,1
221263,-85.6360716490858,4,1,0,100,0,1
221325,-85.4797062851684,4,1,0,100,0,1
221388,-85.3196889180608,4,1,0,100,0,1
221513,-84.9990694888534,4,1,0,100,0,1
221575,-84.8386221724161,4,1,0,100,0,1
221638,-84.6747045364948,4,1,0,100,0,1
221700,-84.5125803924073,4,1,0,100,0,1
221762,-84.3497136151193,4,1,0,100,0,1
221888,-84.0166804466238,4,1,0,100,0,1
222013,-83.6839784656627,4,1,0,100,0,1
222075,-83.5182493311051,4,1,0,100,0,1
222138,-83.3494435184137,4,1,0,100,0,1
222200,-83.1829766740751,4,1,0,100,0,1
222263,-83.0135363187832,4,1,0,100,0,1
222388,-82.6767090998018,4,1,0,100,0,1
222513,-82.3394049802028,4,1,0,100,0,1
222575,-82.1720593868608,4,1,0,100,0,1
222638,-82.0020573992682,4,1,0,100,0,1
222700,-81.8348479344713,4,1,0,100,0,1
222763,-81.6650896184567,4,1,0,100,0,1
222888,-81.3289142879877,4,1,0,100,0,1
222950,-81.1625897519098,4,1,0,100,0,1
223013,-80.9939330762614,4,1,0,100,0,1
223075,-80.8283463701582,4,1,0,100,0,1
223138,-80.6605363597373,4,1,0,100,0,1
223200,-80.4958768408902,4,1,0,100,0,1
223263,-80.3291029706794,4,1,0,100,0,1
223325,-80.1655541939801,4,1,0,100,0,1
223388,-80,4,1,0,100,0,1
223514,-86.9565217391304,4,1,0,100,0,1
226388,-86.9565217391304,4,1,0,100,0,1
226450,-86.4988268505955,4,1,0,100,0,1
226513,-86.0362173869237,4,1,0,100,0,1
226575,-85.5833665122646,4,1,0,100,0,1
226638,-85.1256530758749,4,1,0,100,0,1
226700,-84.6775949484706,4,1,0,100,0,1
226763,-84.2247257222579,4,1,0,100,0,1
226825,-83.7814096180676,4,1,0,100,0,1
226888,-83.3333333333333,4,1,0,100,0,1
227014,-86.9565217391304,4,1,0,100,0,1
227513,-86.9565217391304,4,1,0,100,0,1
227575,-86.043541035087,4,1,0,100,0,1
227638,-85.1256530758749,4,1,0,100,0,1
227700,-84.2318951710851,4,1,0,100,0,1
227763,-83.3333333333333,4,1,0,100,0,1
227889,-86.9565217391304,4,1,0,100,0,1
228513,-86.9565217391304,4,1,0,100,0,1
228575,-86.3467978648686,4,1,0,100,0,1
228638,-85.7316188362423,4,1,0,100,0,1
228700,-85.1304837662312,4,1,0,100,0,1
228763,-84.5239703852514,4,1,0,100,0,1
228825,-83.9313031343016,4,1,0,100,0,1
228888,-83.3333333333333,4,1,0,100,0,1
229014,-86.9565217391304,4,1,0,100,0,1
230388,-86.9565217391304,4,1,0,100,0,1
230450,-88.4766543418901,4,1,0,100,0,1
230513,-90.0485283775324,4,1,0,100,0,1
230575,-91.6227139714303,4,1,0,100,0,1
230638,-93.2504808240314,4,1,0,100,0,1
230700,-94.880641429453,4,1,0,100,0,1
230763,-96.5662885400652,4,1,0,100,0,1
230825,-98.2544145207436,4,1,0,100,0,1
230888,-100,4,1,0,100,0,1
231389,-142.857142857143,4,1,0,100,0,0
231513,-142.857142857143,4,1,0,100,0,0
231638,-142.469959206753,4,1,0,100,0,0
231763,-142.083824934618,4,1,0,100,0,0
231888,-141.698737196622,4,1,0,100,0,0
232013,-141.314693156358,4,1,0,100,0,0
232138,-140.931689985109,4,1,0,100,0,0
232263,-140.549724861821,4,1,0,100,0,0
232388,-140.168794973088,4,1,0,100,0,0
232513,-139.78889751313,4,1,0,100,0,0
232638,-139.410029683768,4,1,0,100,0,0
232763,-139.032188694411,4,1,0,100,0,0
232888,-138.655371762029,4,1,0,100,0,0
233013,-138.279576111135,4,1,0,100,0,0
233138,-137.904798973763,4,1,0,100,0,0
233263,-137.531037589453,4,1,0,100,0,0
233325,-137.34602794527,4,1,0,100,0,0
233388,-137.158289205223,4,1,0,100,0,0
233513,-136.786551075554,4,1,0,100,0,0
233575,-136.602542930286,4,1,0,100,0,0
233638,-136.415820462366,4,1,0,100,0,0
233763,-136.046094635004,4,1,0,100,0,0
233888,-135.67737087021,4,1,0,100,0,0
234013,-135.309646452109,4,1,0,100,0,0
234138,-134.942918672185,4,1,0,100,0,0
234263,-134.577184829265,4,1,0,100,0,0
234388,-134.212442229496,4,1,0,100,0,0
234513,-133.848688186325,4,1,0,100,0,0
234763,-133.124135059959,4,1,0,100,0,0
234888,-132.763330639987,4,1,0,100,0,0
235013,-132.403504103021,4,1,0,100,0,0
235263,-131.686774083926,4,1,0,100,0,0
235388,-131.329865322641,4,1,0,100,0,0
235513,-130.973923886015,4,1,0,100,0,0
235638,-130.618947152323,4,1,0,100,0,0
235763,-130.264932506944,4,1,0,100,0,0
235888,-129.911877342344,4,1,0,100,0,0
236013,-129.559779058055,4,1,0,100,0,0
236138,-129.20863506066,4,1,0,100,0,0
236200,-129.034820887387,4,1,0,100,0,0
236263,-128.858442763768,4,1,0,100,0,0
236388,-128.509199587998,4,1,0,100,0,0
236513,-128.160902960962,4,1,0,100,0,0
236638,-127.813550317243,4,1,0,100,0,0
236763,-127.467139098376,4,1,0,100,0,0
236888,-127.12166675283,4,1,0,100,0,0
237013,-126.777130735991,4,1,0,100,0,0
237138,-126.433528510142,4,1,0,100,0,0
237263,-126.09085754444,4,1,0,100,0,0
237325,-125.921237471053,4,1,0,100,0,0
237388,-125.749115314907,4,1,0,100,0,0
237513,-125.408299304401,4,1,0,100,0,0
237575,-125.239597422712,4,1,0,100,0,0
237638,-125.068407002604,4,1,0,100,0,0
237763,-124.729435906003,4,1,0,100,0,0
237888,-124.391383517867,4,1,0,100,0,0
238013,-124.054247348235,4,1,0,100,0,0
238138,-123.718024913893,4,1,0,100,0,0
238263,-123.382713738357,4,1,0,100,0,0
238388,-123.048311351856,4,1,0,100,0,0
238513,-122.714815291311,4,1,0,100,0,0
238638,-122.382223100322,4,1,0,100,0,0
238763,-122.050532329143,4,1,0,100,0,0
238888,-121.719740534669,4,1,0,100,0,0
239013,-121.389845280416,4,1,0,100,0,0
239138,-121.060844136505,4,1,0,100,0,0
239263,-120.732734679641,4,1,0,100,0,0
239388,-120.405514493097,4,1,0,100,0,0
239450,-120.243542462751,4,1,0,100,0,0
239513,-120.079181166698,4,1,0,100,0,0
239638,-119.753732296799,4,1,0,100,0,0
239763,-119.42916548627,4,1,0,100,0,0
239888,-119.105478344478,4,1,0,100,0,0
240013,-118.782668487271,4,1,0,100,0,0
240138,-118.460733536956,4,1,0,100,0,0
240200,-118.301377666852,4,1,0,100,0,0
240263,-118.139671122285,4,1,0,100,0,0
240388,-117.819478878439,4,1,0,100,0,0
240513,-117.500154447005,4,1,0,100,0,0
240638,-117.181695475964,4,1,0,100,0,0
240763,-116.864099619672,4,1,0,100,0,0
240888,-116.54736453884,4,1,0,100,0,0
241013,-116.231487900522,4,1,0,100,0,0
241138,-115.916467378094,4,1,0,100,0,0
241263,-115.602300651236,4,1,0,100,0,0
241325,-115.446790005166,4,1,0,100,0,0
241388,-115.288985405919,4,1,0,100,0,0
241513,-114.976519334385,4,1,0,100,0,0
241575,-114.821850502503,4,1,0,100,0,0
241638,-114.66490013513,4,1,0,100,0,0
241763,-114.354125512889,4,1,0,100,0,0
241888,-114.044193178617,4,1,0,100,0,0
242013,-113.735100849473,4,1,0,100,0,0
242138,-113.426846248802,4,1,0,100,0,0
242263,-113.119427106123,4,1,0,100,0,0
242388,-112.812841157105,4,1,0,100,0,0
242513,-112.507086143555,4,1,0,100,0,0
242763,-111.898059920674,4,1,0,100,0,0
242888,-111.594784225493,4,1,0,100,0,0
243013,-111.292330494047,4,1,0,100,0,0
243263,-110.689880017372,4,1,0,100,0,0
243388,-110.389878834728,4,1,0,100,0,0
243450,-110.241380048108,4,1,0,100,0,0
243513,-110.090690740955,4,1,0,100,0,0
243638,-109.792313532351,4,1,0,100,0,0
243763,-109.494745011183,4,1,0,100,0,0
243888,-109.19798298568,4,1,0,100,0,0
244013,-108.902025270007,4,1,0,100,0,0
244138,-108.606869684256,4,1,0,100,0,0
244200,-108.460769439043,4,1,0,100,0,0
244263,-108.312514054424,4,1,0,100,0,0
244388,-108.018956212402,4,1,0,100,0,0
244513,-107.726193995959,4,1,0,100,0,0
244638,-107.434225248722,4,1,0,100,0,0
244763,-107.143047820162,4,1,0,100,0,0
244888,-106.85265956558,4,1,0,100,0,0
245013,-106.563058346089,4,1,0,100,0,0
245138,-106.2742420286,4,1,0,100,0,0
245263,-105.986208485803,4,1,0,100,0,0
245325,-105.84363360915,4,1,0,100,0,0
245388,-105.698955596155,4,1,0,100,0,0
245513,-105.412481243865,4,1,0,100,0,0
245575,-105.270678157164,4,1,0,100,0,0
245638,-105.126783318872,4,1,0,100,0,0
245763,-104.841859716839,4,1,0,100,0,0
245888,-104.557708339127,4,1,0,100,0,0
246013,-104.27432709279,4,1,0,100,0,0
246138,-103.99171389055,4,1,0,100,0,0
246263,-103.709866650789,4,1,0,100,0,0
246388,-103.42878329753,4,1,0,100,0,0
246513,-103.148461760423,4,1,0,100,0,0
246763,-102.590095881302,4,1,0,100,0,0
246888,-102.312047426582,4,1,0,100,0,0
247013,-102.034752562572,4,1,0,100,0,0
247263,-101.482415442432,4,1,0,100,0,0
247388,-101.207369118003,4,1,0,100,0,0
247450,-101.071222836572,4,1,0,100,0,0
247513,-100.933068247653,4,1,0,100,0,0
247638,-100.659510810989,4,1,0,100,0,0
247763,-100.386694793094,4,1,0,100,0,0
247888,-100.11461818451,4,1,0,100,0,0
248013,-99.8432789812281,4,1,0,100,0,0
248138,-99.5726751846685,4,1,0,100,0,0
248200,-99.4387279278954,4,1,0,100,0,0
248263,-99.3028048016692,4,1,0,100,0,0
248388,-99.0336658444701,4,1,0,100,0,0
248513,-98.7652563306984,4,1,0,100,0,0
248638,-98.497574283354,4,1,0,100,0,0
248763,-98.2306177307953,4,1,0,100,0,0
248888,-97.9643847067242,4,1,0,100,0,0
249013,-97.6988732501719,4,1,0,100,0,0
249138,-97.4340814054844,4,1,0,100,0,0
249263,-97.170007222308,4,1,0,100,0,0
249325,-97.0392920850083,4,1,0,100,0,0
249388,-96.9066487555751,4,1,0,100,0,0
249513,-96.6440040654898,4,1,0,100,0,0
249575,-96.5139965186991,4,1,0,100,0,0
249638,-96.3820712175135,4,1,0,100,0,0
249763,-96.1208482823509,4,1,0,100,0,0
249888,-95.8603333359355,4,1,0,100,0,0
250013,-95.6005244594156,4,1,0,100,0,0
250138,-95.3414197391402,4,1,0,100,0,0
250263,-95.0830172666449,4,1,0,100,0,0
250388,-94.8253151386375,4,1,0,100,0,0
250513,-94.5683114569846,4,1,0,100,0,0
250763,-94.0563918659164,4,1,0,100,0,0
250888,-93.8014721859006,4,1,0,100,0,0
251013,-93.5472434110108,4,1,0,100,0,0
251263,-93.040851091483,4,1,0,100,0,0
251388,-92.7886838169565,4,1,0,100,0,0
251450,-92.6638625280454,4,1,0,100,0,0
251513,-92.5371999877509,4,1,0,100,0,0
251638,-92.2863977515344,4,1,0,100,0,0
251763,-92.0362752609953,4,1,0,100,0,0
251888,-91.7868306738288,4,1,0,100,0,0
252013,-91.538062152723,4,1,0,100,0,0
252138,-91.289967865346,4,1,0,100,0,0
252200,-91.1671626806525,4,1,0,100,0,0
252263,-91.0425459843317,4,1,0,100,0,0
252388,-90.795794687267,4,1,0,100,0,0
252513,-90.5497121566778,4,1,0,100,0,0
252638,-90.3042965800161,4,1,0,100,0,0
252763,-90.0595461496462,4,1,0,100,0,0
252888,-89.8154590628318,4,1,0,100,0,0
253013,-89.5720335217224,4,1,0,100,0,0
253138,-89.3292677333402,4,1,0,100,0,0
253263,-89.0871599095669,4,1,0,100,0,0
253325,-88.9673179884629,4,1,0,100,0,0
253388,-88.8457082671306,4,1,0,100,0,0
253513,-88.6049110275925,4,1,0,100,0,0
253575,-88.4857178378267,4,1,0,100,0,0
253638,-88.3647664173339,4,1,0,100,0,0
253763,-88.125272667543,4,1,0,100,0,0
253888,-87.8864280142021,4,1,0,100,0,0
254013,-87.6482306980746,4,1,0,100,0,0
254138,-87.4106789646916,4,1,0,100,0,0
254263,-87.1737710643396,4,1,0,100,0,0
254388,-86.9375052520473,4,1,0,100,0,0
254513,-86.7018797875727,4,1,0,100,0,0
254763,-86.2325429646784,4,1,0,100,0,0
254888,-85.9988281493064,4,1,0,100,0,0
255013,-85.765746767822,4,1,0,100,0,0
255263,-85.3014774440219,4,1,0,100,0,0
255388,-85.0702860820792,4,1,0,100,0,0
255450,-84.9558477441269,4,1,0,100,0,0
255513,-84.8397213147447,4,1,0,100,0,0
255638,-84.6097814437681,4,1,0,100,0,0
255763,-84.3804647755018,4,1,0,100,0,0
255888,-84.1517696208884,4,1,0,100,0,0
256013,-83.9236942954486,4,1,0,100,0,0
256138,-83.6962371192683,4,1,0,100,0,0
256200,-83.5836471808784,4,1,0,100,0,0
256263,-83.4693964169864,4,1,0,100,0,0
256388,-83.2431705177827,4,1,0,100,0,0
256513,-83.0175577553653,4,1,0,100,0,0
256638,-82.7925564679583,4,1,0,100,0,0
256763,-82.56816499829,4,1,0,100,0,0
256888,-82.34438169358,4,1,0,100,0,0
257013,-82.1212049055278,4,1,0,100,0,0
257138,-81.8986329902999,4,1,0,100,0,0
257263,-81.6766643085183,4,1,0,100,0,0
257325,-81.5667911419471,4,1,0,100,0,0
257388,-81.4552972252481,4,1,0,100,0,0
257513,-81.2345301099855,4,1,0,100,0,0
257575,-81.1252517116367,4,1,0,100,0,0
257638,-81.0143613366459,4,1,0,100,0,0
257763,-80.7947892835519,4,1,0,100,0,0
257888,-80.5758123334212,4,1,0,100,0,0
258013,-80.3574288733548,4,1,0,100,0,0
258138,-80.1396372948251,4,1,0,100,0,0
258263,-79.9224359936643,4,1,0,100,0,0
258388,-79.705823370052,4,1,0,100,0,0
258513,-79.489797828504,4,1,0,100,0,0
258763,-79.0595016312733,4,1,0,100,0,0
258888,-78.8452278061964,4,1,0,100,0,0
259013,-78.6315347243719,4,1,0,100,0,0
259263,-78.2058844988259,4,1,0,100,0,0
259388,-77.9939242199306,4,1,0,100,0,0
259450,-77.8890051527783,4,1,0,100,0,0
259513,-77.7825384139169,4,1,0,100,0,0
259638,-77.5717255237994,4,1,0,100,0,0
259763,-77.3614839968122,4,1,0,100,0,0
259888,-77.1518122843982,4,1,0,100,0,0
260013,-76.9427088421972,4,1,0,100,0,0
260138,-76.7341721300346,4,1,0,100,0,0
260200,-76.6309477078875,4,1,0,100,0,0
260263,-76.5262006119102,4,1,0,100,0,0
260388,-76.3187927559867,4,1,0,100,0,0
260513,-76.1119470345787,4,1,0,100,0,0
260638,-75.905661924141,4,1,0,100,0,0
260763,-75.699935905258,4,1,0,100,0,0
260888,-75.4947674626317,4,1,0,100,0,0
261013,-75.2901550850713,4,1,0,100,0,0
261138,-75.0860972654818,4,1,0,100,0,0
261263,-74.8825925008525,4,1,0,100,0,0
261325,-74.7818588625632,4,1,0,100,0,0
261388,-74.6796392922468,4,1,0,100,0,0
261513,-74.4772361447903,4,1,0,100,0,0
261575,-74.3770478003962,4,1,0,100,0,0
261638,-74.2753815676601,4,1,0,100,0,0
261763,-72.8597449908925,4,1,0,100,0,0
261888,-71.4285714285714,4,1,0,100,0,0
262013,-73.011851166163,4,1,0,100,0,0
262138,-74.6302257499391,4,1,0,100,0,0
262263,-76.2844730893238,4,1,0,100,0,0
262388,-77.9753883368162,4,1,0,100,0,0
262513,-79.7037842701994,4,1,0,100,0,0
262763,-83.276359784932,4,1,0,100,0,0
262888,-85.1222566078821,4,1,0,100,0,0
262950,-86.0529455303261,4,1,0,100,0,0
263013,-87.0090694253567,4,1,0,100,0,0
263263,-83.3333333333333,4,1,0,100,0,0
263763,-83.3333333333333,4,1,0,100,0,0
263888,-83.9265404909016,4,1,0,100,0,0
264013,-84.5239703852514,4,1,0,100,0,0
264075,-84.8218715523958,4,1,0,100,0,0
264138,-85.1256530758749,4,1,0,100,0,0
264263,-85.7316188362423,4,1,0,100,0,0
264388,-86.3418981553252,4,1,0,100,0,0
264514,-86.9565217391304,4,1,0,100,0,0
265263,-86.9565217391304,4,1,0,100,0,0
265388,-85.1256530758749,4,1,0,100,0,0
265514,-83.3333333333333,4,1,0,100,0,1
265700,-83.0120620418445,4,1,0,100,0,1
265763,-82.9041054254247,4,1,0,100,0,1
265888,-82.6903212492502,4,1,0,100,0,1
266013,-82.4770883566792,4,1,0,100,0,1
266200,-82.1591181083442,4,1,0,100,0,1
266263,-82.0522707396505,4,1,0,100,0,1
266388,-81.8406831829992,4,1,0,100,0,1
266450,-81.735938271769,4,1,0,100,0,1
266513,-81.6296412455457,4,1,0,100,0,1
266575,-81.5251664392089,4,1,0,100,0,1
266638,-81.4191435203058,4,1,0,100,0,1
266700,-81.314938122345,4,1,0,100,0,1
266763,-81.2091886039238,4,1,0,100,0,1
266825,-81.1052519196176,4,1,0,100,0,1
266888,-80.9997750966626,4,1,0,100,0,1
267013,-80.7909016023948,4,1,0,100,0,1
267200,-80.4794320348146,4,1,0,100,0,1
267263,-80.3747690863206,4,1,0,100,0,1
267325,-80.2719003451804,4,1,0,100,0,1
267388,-80.1675072902231,4,1,0,100,0,1
267513,-79.9607799585179,4,1,0,100,0,1
267700,-79.6525107219692,4,1,0,100,0,1
267763,-79.5489231789619,4,1,0,100,0,1
267888,-79.3437909853255,4,1,0,100,0,1
268013,-79.139187764492,4,1,0,100,0,1
268200,-78.8340859757663,4,1,0,100,0,1
268263,-78.7315627885191,4,1,0,100,0,1
268388,-78.528538315807,4,1,0,100,0,1
268513,-78.3260373807341,4,1,0,100,0,1
268700,-78.0240704944959,4,1,0,100,0,1
268762,-77.9242103269129,4,1,0,100,0,1
268888,-77.7216623183242,4,1,0,100,0,1
269013,-77.5212420681523,4,1,0,100,0,1
269200,-77.2223778734677,4,1,0,100,0,1
269263,-77.1219507015357,4,1,0,100,0,1
269325,-77.0232451242366,4,1,0,100,0,1
269388,-76.9230769230769,4,1,0,100,0,1
269513,-76.9230769230769,4,1,0,100,0,1
269700,-77.5396057351574,4,1,0,100,0,1
269763,-77.7484241388819,4,1,0,100,0,1
269888,-78.1644126724304,4,1,0,100,0,1
270013,-78.5826269290333,4,1,0,100,0,1
270200,-79.2124568262327,4,1,0,100,0,1
270263,-79.425780309538,4,1,0,100,0,1
270388,-79.8507434421398,4,1,0,100,0,1
270513,-80.2779803158791,4,1,0,100,0,1
270575,-80.4907371341155,4,1,0,100,0,1
270638,-80.7075030962789,4,1,0,100,0,1
270700,-80.9213982578039,4,1,0,100,0,1
270763,-81.1393240139532,4,1,0,100,0,1
270888,-81.5734553649551,4,1,0,100,0,1
270950,-81.7896455175686,4,1,0,100,0,1
271013,-82.009909511127,4,1,0,100,0,1
271075,-82.22725637689,4,1,0,100,0,1
271138,-82.4486988804529,4,1,0,100,0,1
271200,-82.6672086482935,4,1,0,100,0,1
271263,-82.8898359674116,4,1,0,100,0,1
271325,-83.1095148593714,4,1,0,100,0,1
271388,-83.3333333333333,4,1,0,100,0,1
271513,-83.1429732114521,4,1,0,100,0,1
271700,-82.859006019101,4,1,0,100,0,1
271763,-82.7635565055029,4,1,0,100,0,1
271888,-82.5744979370583,4,1,0,100,0,1
272013,-82.3858712391593,4,1,0,100,0,1
272200,-82.1044898590914,4,1,0,100,0,1
272263,-82.009909511127,4,1,0,100,0,1
272388,-81.8225725146869,4,1,0,100,0,1
272513,-81.6356634561685,4,1,0,100,0,1
272700,-81.3568443419132,4,1,0,100,0,1
272763,-81.2631252449387,4,1,0,100,0,1
272888,-81.0774941438258,4,1,0,100,0,1
273013,-80.8922870838213,4,1,0,100,0,1
273200,-80.6160069033226,4,1,0,100,0,1
273263,-80.5231412147652,4,1,0,100,0,1
273325,-80.4318540285263,4,1,0,100,0,1
273388,-80.3392004750544,4,1,0,100,0,1
273513,-80.1556799151231,4,1,0,100,0,1
273700,-79.8819155487875,4,1,0,100,0,1
273763,-79.789895497489,4,1,0,100,0,1
273888,-79.6076297267075,4,1,0,100,0,1
274013,-79.4257803095381,4,1,0,100,0,1
274200,-79.1545088482994,4,1,0,100,0,1
274263,-79.063326733866,4,1,0,100,0,1
274388,-78.8827206797053,4,1,0,100,0,1
274450,-78.7932931995413,4,1,0,100,0,1
274513,-78.7025271878303,4,1,0,100,0,1
274575,-78.6133039887786,4,1,0,100,0,1
274638,-78.5227453158163,4,1,0,100,0,1
274700,-78.4337259312331,4,1,0,100,0,1
274763,-78.343374123391,4,1,0,100,0,1
274888,-78.1644126724304,4,1,0,100,0,1
275013,-77.9858600269532,4,1,0,100,0,1
275200,-77.7195064812529,4,1,0,100,0,1
275263,-77.6299774192097,4,1,0,100,0,1
275325,-77.541970144537,4,1,0,100,0,1
275388,-77.4526455956517,4,1,0,100,0,1
275450,-77.3648393578855,4,1,0,100,0,1
275513,-77.2757188549844,4,1,0,100,0,1
275575,-77.1881131948916,4,1,0,100,0,1
275638,-77.099196271868,4,1,0,100,0,1
275700,-77.0117907312648,4,1,0,100,0,1
275764,-76.9230769230769,4,1,0,100,0,0
276013,-80.0640769025436,4,1,0,100,0,0
276263,-83.3333333333333,4,1,0,100,0,0
276389,-77.0712908578234,4,1,0,100,0,1
276764,-76.9230769230769,4,1,0,100,0,0
277013,-79.425780309538,4,1,0,100,0,0
277263,-82.009909511127,4,1,0,100,0,0
277388,-83.3333333333333,4,1,0,100,0,0
277514,-83.3333333333333,4,1,0,100,0,1
277575,-83.2912217670626,4,1,0,100,0,1
277638,-83.1626882179114,4,1,0,100,0,1
277700,-82.9533572748377,4,1,0,100,0,1
277763,-82.6590629168453,4,1,0,100,0,1
277825,-82.2926034274511,4,1,0,100,0,1
277888,-81.8465434575654,4,1,0,100,0,1
277950,-81.3400717151617,4,1,0,100,0,1
278013,-80.7626187223751,4,1,0,100,0,1
278075,-80.1386575172231,4,1,0,100,0,1
278138,-79.4547090843974,4,1,0,100,0,1
278200,-78.7392361353007,4,1,0,100,0,1
278263,-77.9761782274616,4,1,0,100,0,1
278325,-77.1966403338888,4,1,0,100,0,1
278388,-76.3824128241956,4,1,0,100,0,1
278450,-75.565957062522,4,1,0,100,0,1
278513,-74.7274353528703,4,1,0,100,0,1
278575,-73.8995209507573,4,1,0,100,0,1
278639,-73.061330010766,4,1,0,100,0,0
278764,-74.3494423791822,4,1,0,100,0,0
279013,-77.8205204527036,4,1,0,100,0,0
279138,-79.6163637674129,4,1,0,100,0,0
279388,-83.3333333333333,4,1,0,100,0,0
279514,-76.9230769230769,4,1,0,100,0,1
279575,-75.8021295893799,4,1,0,100,0,1
279638,-74.6798332638251,4,1,0,100,0,1
279700,-73.5915751841109,4,1,0,100,0,1
279763,-72.5020074520654,4,1,0,100,0,1
279825,-71.4454853368315,4,1,0,100,0,1
279889,-20,4,1,0,100,0,0
279951,-40,4,1,0,100,0,0
280389,-100,4,1,0,100,0,0
280514,500,4,1,0,5,1,8
281764,333.333333333333,4,1,0,100,1,0
281764,-62.5,4,1,0,100,0,0
281846,-71.2591454280577,4,1,0,100,0,0
282013,-70.9194689263845,4,1,0,100,0,0
282096,-70.751250498682,4,1,0,100,0,0
282263,-70.4139950192059,4,1,0,100,0,0
282346,-70.2469755574177,4,1,0,100,0,0
282429,-70.0803522597814,4,1,0,100,0,0
282513,-69.9121238444603,4,1,0,100,0,0
282596,-69.7462948030349,4,1,0,100,0,0
282651,-69.6366248293992,4,1,0,100,0,0
282707,-69.5251380326244,4,1,0,100,0,0
282763,-69.4138297239065,4,1,0,100,0,0
282929,-69.0849260495022,4,1,0,100,0,0
282985,-68.9743225110689,4,1,0,100,0,0
283040,-68.8658663966231,4,1,0,100,0,0
283096,-68.7556135681655,4,1,0,100,0,0
283179,-68.5925277274894,4,1,0,100,0,0
283263,-68.4278708462042,4,1,0,100,0,0
283346,-68.2655623994682,4,1,0,100,0,0
283429,-68.1036389425259,4,1,0,100,0,0
283513,-67.9401556424644,4,1,0,100,0,0
283596,-67.7790040386375,4,1,0,100,0,0
283679,-67.6182346806145,4,1,0,100,0,0
283763,-67.4559165971528,4,1,0,100,0,0
283846,-67.2959135909122,4,1,0,100,0,0
283929,-67.1362901060434,4,1,0,100,0,0
284013,-66.9751289341759,4,1,0,100,0,0
284096,-66.816266338967,4,1,0,100,0,0
284263,-66.4977680540304,4,1,0,100,0,0
284346,-66.3400377416476,4,1,0,100,0,0
284429,-66.1826815598886,4,1,0,100,0,0
284430,-66.1807879795995,4,1,0,100,0,0
284513,-66.0238095325442,4,1,0,100,0,0
284596,-65.8672034327153,4,1,0,100,0,0
284679,-65.7109687969185,4,1,0,100,0,0
284763,-65.5532291196272,4,1,0,100,0,0
284929,-65.2426181360196,4,1,0,100,0,0
285013,-65.0860027380299,4,1,0,100,0,0
285096,-64.9316210821633,4,1,0,100,0,0
285179,-64.7776056140278,4,1,0,100,0,0
285263,-64.6221064821121,4,1,0,100,0,0
285513,-64.1615166166193,4,1,0,100,0,0
285596,-64.0093278085578,4,1,0,100,0,0
285679,-63.8574999868713,4,1,0,100,0,0
285763,-63.7042095754685,4,1,0,100,0,0
285818,-63.6040402545841,4,1,0,100,0,0
285874,-63.5022115010037,4,1,0,100,0,0
285929,-63.4023598044973,4,1,0,100,0,0
286013,-63.2501619605425,4,1,0,100,0,0
286068,-63.1507065899848,4,1,0,100,0,0
286124,-63.0496036142298,4,1,0,100,0,0
286179,-62.9504636042029,4,1,0,100,0,0
286263,-62.7993505404928,4,1,0,100,0,0
286318,-62.7006040316271,4,1,0,100,0,0
286374,-62.6002216607633,4,1,0,100,0,0
286429,-62.5017882647168,4,1,0,100,0,0
287096,-62.5,4,1,0,100,0,0
287179,-71.4229199996983,4,1,0,100,0,0
287346,-71.3773700866088,4,1,0,100,0,0
287429,-71.3378379635322,4,1,0,100,0,0
287513,-71.2865114490038,4,1,0,100,0,0
287596,-71.224717170668,4,1,0,100,0,0
287679,-71.1520365557661,4,1,0,100,0,0
287846,-70.9734297803808,4,1,0,100,0,0
287929,-70.8689321950674,4,1,0,100,0,0
288013,-70.7528194077381,4,1,0,100,0,0
288179,-70.4936517066106,4,1,0,100,0,0
288263,-70.3479911310203,4,1,0,100,0,0
288346,-70.1948510919878,4,1,0,100,0,0
288429,-70.0328456108683,4,1,0,100,0,0
288430,-70.0308409234936,4,1,0,100,0,0
288596,-69.6812691324896,4,1,0,100,0,0
288763,-69.2976853413794,4,1,0,100,0,0
288929,-68.8874485574175,4,1,0,100,0,0
289013,-68.6697752659296,4,1,0,100,0,0
289096,-68.4485324815874,4,1,0,100,0,0
289179,-68.2215410006064,4,1,0,100,0,0
289263,-67.9863472989957,4,1,0,100,0,0
289346,-67.7489346952693,4,1,0,100,0,0
289513,-67.257681318887,4,1,0,100,0,0
289596,-67.007549883919,4,1,0,100,0,0
289763,-66.4941749479655,4,1,0,100,0,0
289846,-66.234762017571,4,1,0,100,0,0
289929,-65.9730151333435,4,1,0,100,0,0
290013,-65.706112112598,4,1,0,100,0,0
290096,-65.4407718219494,4,1,0,100,0,0
290179,-65.1741825381534,4,1,0,100,0,0
290263,-64.9034656544222,4,1,0,100,0,0
290346,-64.635411638157,4,1,0,100,0,0
290429,-64.3671364751106,4,1,0,100,0,0
290513,-64.0957375969653,4,1,0,100,0,0
290596,-63.8279984934103,4,1,0,100,0,0
290679,-63.5609970073989,4,1,0,100,0,0
290763,-63.2918378712406,4,1,0,100,0,0
290846,-63.0272253603232,4,1,0,100,0,0
290929,-62.7642321675674,4,1,0,100,0,0
291013,-62.5,4,1,0,100,0,0
291097,-20,4,1,0,100,0,0
291264,-66.6666666666667,4,1,0,100,0,0
292430,-58.8235294117647,4,1,0,100,0,0
292679,-71.3765020610269,4,1,0,100,0,0
292763,-71.2147510863996,4,1,0,100,0,0
292846,-71.0552857567081,4,1,0,100,0,0
292929,-70.8961775046021,4,1,0,100,0,0
293179,-70.4190852679583,4,1,0,100,0,0
293263,-70.2595039583458,4,1,0,100,0,0
293346,-70.102177634912,4,1,0,100,0,0
293429,-69.9452035993631,4,1,0,100,0,0
293485,-69.83949203737,4,1,0,100,0,0
293540,-69.7358236962266,4,1,0,100,0,0
293596,-69.6304285801865,4,1,0,100,0,0
293763,-69.3170701458164,4,1,0,100,0,0
293818,-69.21417727725,4,1,0,100,0,0
293874,-69.1095705506194,4,1,0,100,0,0
293929,-69.0069856902902,4,1,0,100,0,0
294013,-68.8506044321844,4,1,0,100,0,0
294096,-68.6964329414785,4,1,0,100,0,0
294179,-68.5426066743003,4,1,0,100,0,0
294263,-68.3872777759524,4,1,0,100,0,0
294318,-68.2857650725302,4,1,0,100,0,0
294374,-68.1825615000729,4,1,0,100,0,0
294429,-68.0813526733844,4,1,0,100,0,0
294513,-67.9270690529928,4,1,0,100,0,0
294596,-67.7749655590358,4,1,0,100,0,0
294679,-67.6232026579118,4,1,0,100,0,0
294763,-67.4699572813313,4,1,0,100,0,0
294818,-67.3698062300517,4,1,0,100,0,0
294874,-67.2679869904004,4,1,0,100,0,0
294929,-67.1681357397695,4,1,0,100,0,0
294985,-67.0666212944634,4,1,0,100,0,0
295040,-66.9670689470327,4,1,0,100,0,0
295096,-66.8658583836746,4,1,0,100,0,0
295179,-66.7161311714103,4,1,0,100,0,0
295263,-66.5649413690422,4,1,0,100,0,0
295346,-66.4158879754772,4,1,0,100,0,0
295429,-66.2671683449064,4,1,0,100,0,0
295513,-66.1169959666577,4,1,0,100,0,0
295596,-65.9689456203573,4,1,0,100,0,0
295763,-65.6720649901765,4,1,0,100,0,0
295846,-65.5250109411849,4,1,0,100,0,0
295929,-65.3782861782197,4,1,0,100,0,0
296013,-65.2301281541722,4,1,0,100,0,0
296096,-65.0840636979571,4,1,0,100,0,0
296151,-64.9874542192566,4,1,0,100,0,0
296207,-64.8892355431795,4,1,0,100,0,0
296263,-64.791165309728,4,1,0,100,0,0
296318,-64.69499060352,4,1,0,100,0,0
296374,-64.5972139418207,4,1,0,100,0,0
296429,-64.5013271331329,4,1,0,100,0,0
296430,-64.4995850547093,4,1,0,100,0,0
296596,-64.2110512394271,4,1,0,100,0,0
296679,-64.0672687182566,4,1,0,100,0,0
296763,-63.9220816768963,4,1,0,100,0,0
296846,-63.7789462214791,4,1,0,100,0,0
296929,-63.6361312775042,4,1,0,100,0,0
297096,-63.3497490323694,4,1,0,100,0,0
297151,-63.2557139355717,4,1,0,100,0,0
297207,-63.160112522165,4,1,0,100,0,0
297263,-63.0646555957885,4,1,0,100,0,0
297318,-62.9710436859697,4,1,0,100,0,0
297374,-62.8758725084504,4,1,0,100,0,0
297429,-62.7825408244598,4,1,0,100,0,0
297485,-62.6876545404129,4,1,0,100,0,0
297540,-62.5946022433987,4,1,0,100,0,0
297596,-62.5,4,1,0,100,0,0
297680,-58.8235294117647,4,1,0,100,0,0
298013,-71.4285714285714,4,1,0,100,0,0
298096,-71.2130123161619,4,1,0,100,0,0
298179,-70.9981037239855,4,1,0,100,0,0
298263,-70.7812661887118,4,1,0,100,0,0
298318,-70.6396481231662,4,1,0,100,0,0
298374,-70.495746301897,4,1,0,100,0,0
298429,-70.3546995001366,4,1,0,100,0,0
298513,-70.1398270058818,4,1,0,100,0,0
298596,-69.9281571019265,4,1,0,100,0,0
298763,-69.5042007202692,4,1,0,100,0,0
298846,-69.2944490268452,4,1,0,100,0,0
299013,-68.8743346538103,4,1,0,100,0,0
299096,-68.6664837875695,4,1,0,100,0,0
299263,-68.2501766058247,4,1,0,100,0,0
299429,-67.8388636497695,4,1,0,100,0,0
299485,-67.7006673776842,4,1,0,100,0,0
299540,-67.5652129267196,4,1,0,100,0,0
299596,-67.4275741154724,4,1,0,100,0,0
299651,-67.2926660652942,4,1,0,100,0,0
299707,-67.1555824661804,4,1,0,100,0,0
299763,-67.018778123548,4,1,0,100,0,0
299804,-66.9187945458921,4,1,0,100,0,0
299846,-66.8165270069688,4,1,0,100,0,0
299929,-66.614886249386,4,1,0,100,0,0
300096,-66.2110173743971,4,1,0,100,0,0
300263,-65.8095970522372,4,1,0,100,0,0
300429,-65.412992365678,4,1,0,100,0,0
300430,-65.4106104379621,4,1,0,100,0,0
300513,-65.2132124941677,4,1,0,100,0,0
300596,-65.016410263331,4,1,0,100,0,0
300679,-64.8202019476932,4,1,0,100,0,0
300763,-64.6222325359899,4,1,0,100,0,0
300929,-64.2327835585201,4,1,0,100,0,0
301013,-64.0366081997422,4,1,0,100,0,0
301096,-63.8433567577887,4,1,0,100,0,0
301179,-63.6506885153653,4,1,0,100,0,0
301263,-63.4562909513147,4,1,0,100,0,0
301429,-63.0738685766119,4,1,0,100,0,0
301485,-62.9453791970096,4,1,0,100,0,0
301540,-62.8194390532836,4,1,0,100,0,0
301596,-62.6914679785253,4,1,0,100,0,0
301638,-62.5956607813819,4,1,0,100,0,0
301679,-62.5022759378218,4,1,0,100,0,0
301764,-20,4,1,0,100,0,0
301930,-71.4285714285714,4,1,0,100,0,0
303179,-73.2077870754886,4,1,0,100,0,0
303263,-75.053566212018,4,1,0,100,0,0
303346,-76.9230769230769,4,1,0,100,0,0
303389,-62.5,4,1,0,100,0,0
303514,-71.4285714285714,4,1,0,100,0,0
303680,-73.2077870754886,4,1,0,100,0,0
303764,-75.053566212018,4,1,0,100,0,0
303847,-76.9230769230769,4,1,0,100,0,0
303889,-62.5,4,1,0,100,0,0
304016,-71.4285714285714,4,1,0,100,0,0
304179,-72.0903202654184,4,1,0,100,0,0
304263,-72.7662842147148,4,1,0,100,0,0
304346,-73.4404262698855,4,1,0,100,0,0
304429,-74.1208139031484,4,1,0,100,0,0
304430,-74.1290496578331,4,1,0,100,0,0
304513,-74.8158170312601,4,1,0,100,0,0
304596,-75.5089469498348,4,1,0,100,0,0
304679,-76.208498359253,4,1,0,100,0,0
304763,-76.9230769230769,4,1,0,100,0,0
304889,-62.5,4,1,0,100,0,0
305014,-66.6666666666667,4,1,0,100,0,0
305264,-71.4285714285714,4,1,0,100,0,0
305389,-62.5,4,1,0,100,0,0
305514,-76.9230769230769,4,1,0,100,0,0
305929,-76.1438157078382,4,1,0,100,0,0
306096,-75.3678256866148,4,1,0,100,0,0
306346,-74.2209195471023,4,1,0,100,0,0
306429,-73.8440189334633,4,1,0,100,0,0
306513,-73.4645259726646,4,1,0,100,0,0
306596,-73.0914663947349,4,1,0,100,0,0
306929,-71.6136836794267,4,1,0,100,0,0
307013,-71.2456526696614,4,1,0,100,0,0
307096,-70.8838607331809,4,1,0,100,0,0
307429,-69.4507119765245,4,1,0,100,0,0
307596,-68.7429321133845,4,1,0,100,0,0
307929,-67.3530692212086,4,1,0,100,0,0
308096,-66.6666666666667,4,1,0,100,0,0
308429,-66.6666666666667,4,1,0,100,0,0
308430,-66.6666666666667,4,1,0,100,0,0
308485,-66.6386846363717,4,1,0,100,0,0
308540,-66.5549964612496,4,1,0,100,0,0
308596,-66.4133488523603,4,1,0,100,0,0
308651,-66.2200881308212,4,1,0,100,0,0
308707,-65.9699984573501,4,1,0,100,0,0
308763,-65.6684048663303,4,1,0,100,0,0
308818,-65.3247008083858,4,1,0,100,0,0
308874,-64.929437183819,4,1,0,100,0,0
308929,-64.5000083751374,4,1,0,100,0,0
308985,-64.0244068550825,4,1,0,100,0,0
309040,-63.5233281252216,4,1,0,100,0,0
309096,-62.9824846000065,4,1,0,100,0,0
309179,-62.1326381403874,4,1,0,100,0,0
309263,-61.2260320853688,4,1,0,100,0,0
309346,-60.297461983631,4,1,0,100,0,0
309429,-59.3489400116179,4,1,0,100,0,0
309485,-58.7036865671263,4,1,0,100,0,0
309540,-58.0696566889606,4,1,0,100,0,0
309596,-57.4269437276228,4,1,0,100,0,0
309651,-56.801371199233,4,1,0,100,0,0
309707,-56.1729151750439,4,1,0,100,0,0
309762,-55.5664687319467,4,1,0,100,0,0
309763,-55.5555555555556,4,1,0,100,0,0
309929,-58.8235294117647,4,1,0,100,0,0
310013,-59.6439860443496,4,1,0,100,0,0
310096,-60.4758862113957,4,1,0,100,0,0
310179,-61.3193895246067,4,1,0,100,0,0
310263,-62.1850346551999,4,1,0,100,0,0
310429,-63.9318163576127,4,1,0,100,0,0
310512,-64.8235221645973,4,1,0,100,0,0
310596,-65.7386350961631,4,1,0,100,0,0
310679,-66.6555419822524,4,1,0,100,0,0
310762,-66.6533359994668,4,1,0,100,0,0
310818,-65.659846649883,4,1,0,100,0,0
310874,-64.6635070652461,4,1,0,100,0,0
310929,-63.6996767540886,4,1,0,100,0,0
310985,-62.7330812970949,4,1,0,100,0,0
311040,-61.798024601122,4,1,0,100,0,0
311096,-60.8602853083274,4,1,0,100,0,0
311151,-59.9531432371948,4,1,0,100,0,0
311207,-59.0433986538859,4,1,0,100,0,0
311262,-58.1633378610348,4,1,0,100,0,0
311318,-57.2807522498535,4,1,0,100,0,0
311374,-56.4115592222086,4,1,0,100,0,0
311429,-55.5707268401486,4,1,0,100,0,0
311596,-58.8235294117647,4,1,0,100,0,0
311679,-60.4151360138671,4,1,0,100,0,0
311762,-62.049807212759,4,1,0,100,0,0
311846,-63.7492104595149,4,1,0,100,0,0
311929,-65.4740927516999,4,1,0,100,0,0
312096,-69.0873511815958,4,1,0,100,0,0
312179,-70.9566692140565,4,1,0,100,0,0
312262,-72.8765659681894,4,1,0,100,0,0
312346,-74.8724895396214,4,1,0,100,0,0
312429,-76.8983378669622,4,1,0,100,0,0
312430,-76.9299207007817,4,1,0,100,0,0
312596,-75.7954076849278,4,1,0,100,0,0
312762,-74.6842697396173,4,1,0,100,0,0
313013,-73.035033539541,4,1,0,100,0,0
313096,-72.4977212156723,4,1,0,100,0,0
313179,-71.9643618513545,4,1,0,100,0,0
313262,-71.4349263650116,4,1,0,100,0,0
313929,-71.4285714285714,4,1,0,100,0,0
313985,-71.424810649481,4,1,0,100,0,0
314040,-71.4135320735569,4,1,0,100,0,0
314096,-71.3943360525578,4,1,0,100,0,0
314262,-71.2919410805913,4,1,0,100,0,0
314318,-71.2421682568873,4,1,0,100,0,0
314374,-71.1847901594386,4,1,0,100,0,0
314429,-71.1210907246862,4,1,0,100,0,0
314596,-70.8837490296948,4,1,0,100,0,0
314679,-70.741692080778,4,1,0,100,0,0
314762,-70.5840412967702,4,1,0,100,0,0
314846,-70.4089654353141,4,1,0,100,0,0
314929,-70.2210098357817,4,1,0,100,0,0
315096,-69.7994181874152,4,1,0,100,0,0
315179,-69.5691907657493,4,1,0,100,0,0
315262,-69.3258476413952,4,1,0,100,0,0
315346,-69.0667226032367,4,1,0,100,0,0
315429,-68.7985007473105,4,1,0,100,0,0
315512,-68.5186981244467,4,1,0,100,0,0
315596,-68.2242846731458,4,1,0,100,0,0
315679,-67.9228261670028,4,1,0,100,0,0
315762,-67.6114425714042,4,1,0,100,0,0
315846,-67.2867812665764,4,1,0,100,0,0
315929,-66.9571494867188,4,1,0,100,0,0
315985,-66.7300761172063,4,1,0,100,0,0
316040,-66.5035926978032,4,1,0,100,0,0
316096,-66.2696376255617,4,1,0,100,0,0
316179,-65.9170329425973,4,1,0,100,0,0
316262,-65.5579523010151,4,1,0,100,0,0
316346,-65.1885329910817,4,1,0,100,0,0
316430,-64.8130144533022,4,1,0,100,0,0
316485,-64.5389922093583,4,1,0,100,0,0
316540,-64.2661285011006,4,1,0,100,0,0
316596,-63.9894888951591,4,1,0,100,0,0
316651,-63.7189484260299,4,1,0,100,0,0
316707,-63.4446642082825,4,1,0,100,0,0
316762,-63.1764271975638,4,1,0,100,0,0
316818,-62.9044783135661,4,1,0,100,0,0
316874,-62.6337000591655,4,1,0,100,0,0
316929,-62.3688917150159,4,1,0,100,0,0
316985,-62.1004189435971,4,1,0,100,0,0
317040,-61.8378652529175,4,1,0,100,0,0
317096,-61.5716783349436,4,1,0,100,0,0
317151,-61.3113601009739,4,1,0,100,0,0
317207,-61.0474395740391,4,1,0,100,0,0
317262,-60.7893377634658,4,1,0,100,0,0
317318,-60.5276643308732,4,1,0,100,0,0
317374,-60.2671172962286,4,1,0,100,0,0
317429,-60.0123146017876,4,1,0,100,0,0
317485,-59.7539859386134,4,1,0,100,0,0
317540,-59.5013527066983,4,1,0,100,0,0
317596,-59.2452235271496,4,1,0,100,0,0
317651,-58.9947412863403,4,1,0,100,0,0
317707,-58.7407928633885,4,1,0,100,0,0
317762,-58.4924432995356,4,1,0,100,0,0
317763,-58.4879375853529,4,1,0,100,0,0
317818,-58.2406570655996,4,1,0,100,0,0
317874,-57.9899546692335,4,1,0,100,0,0
317929,-57.744779566074,4,1,0,100,0,0
317985,-57.4962117211312,4,1,0,100,0,0
318040,-57.2531241084504,4,1,0,100,0,0
318096,-57.0066726407538,4,1,0,100,0,0
318151,-56.7656547450647,4,1,0,100,0,0
318207,-56.5213016351771,4,1,0,100,0,0
318262,-56.2823358343214,4,1,0,100,0,0
318318,-56.0400632162283,4,1,0,100,0,0
318374,-55.7988334834492,4,1,0,100,0,0
318429,-55.5659978223267,4,1,0,100,0,0
318485,-55.3274526340346,4,1,0,100,0,0
318540,-55.0941640154542,4,1,0,100,0,0
318596,-54.8576444127489,4,1,0,100,0,0
318762,-62.7401586670122,4,1,0,100,0,0
318846,-64.8203723552164,4,1,0,100,0,0
318929,-66.9435576047956,4,1,0,100,0,0
319096,-71.4285714285714,4,1,0,100,0,0
319389,-77.0712909441233,4,1,0,100,0,0
321222,-66.6666666666667,4,1,0,100,0,0
321596,-66.6666666666667,4,1,0,100,0,0
321651,-66.6445648846153,4,1,0,100,0,0
321707,-66.5768127233129,4,1,0,100,0,0
321762,-66.4663204579785,4,1,0,100,0,0
321763,-66.4639128956987,4,1,0,100,0,1
321818,-66.3098996591751,4,1,0,100,0,1
321874,-66.110318510514,4,1,0,100,0,1
321929,-65.8737047143719,4,1,0,100,0,1
321985,-65.5931690546477,4,1,0,100,0,1
322040,-65.2806465725415,4,1,0,100,0,1
322096,-64.9269541729025,4,1,0,100,0,1
322151,-64.5470370024096,4,1,0,100,0,1
322207,-64.12960545919,4,1,0,100,0,1
322262,-63.6921539929221,4,1,0,100,0,1
322318,-63.221515356999,4,1,0,100,0,1
322374,-62.7282408414997,4,1,0,100,0,1
322429,-62.2245200382249,4,1,0,100,0,1
322485,-61.6948656889691,4,1,0,100,0,1
322540,-61.1609322912474,4,1,0,100,0,1
322596,-60.6060606060606,4,1,0,100,0,1
322651,-60.0526914175421,4,1,0,100,0,1
322707,-59.4833035466797,4,1,0,100,0,1
322762,-58.9206731990309,4,1,0,100,0,1
322818,-58.3467284506525,4,1,0,100,0,1
322874,-57.7739743605133,4,1,0,100,0,1
322929,-57.2147050465685,4,1,0,100,0,1
322985,-56.6505863194218,4,1,0,100,0,1
323040,-56.1035890305862,4,1,0,100,0,1
323096,-55.5555555555556,4,1,0,100,0,1
323262,-58.8235294117647,4,1,0,100,0,1
323429,-59.880192560043,4,1,0,100,0,1
323485,-60.2409220796038,4,1,0,100,0,1
323540,-60.5973251655818,4,1,0,100,0,1
323596,-60.962374826565,4,1,0,100,0,1
323679,-61.507479662222,4,1,0,100,0,1
323762,-62.0574586400479,4,1,0,100,0,1
323846,-62.6190710065914,4,1,0,100,0,1
323929,-63.1789894564083,4,1,0,100,0,1
324012,-63.7439145066969,4,1,0,100,0,1
324096,-64.3207890913702,4,1,0,100,0,1
324151,-64.7013298754972,4,1,0,100,0,1
324207,-65.0911028311792,4,1,0,100,0,1
324262,-65.4762010188877,4,1,0,100,0,1
324346,-66.0687525833949,4,1,0,100,0,1
324430,-66.6595169133852,4,1,0,100,0,0
324513,-100,4,1,0,100,0,0
327097,-66.4451827242525,4,1,0,100,0,1
337762,-66.4451827242525,4,1,0,100,0,1
337846,-66.4441787461997,4,1,0,100,0,1
337929,-66.4411671488441,4,1,0,100,0,1
338012,-66.4361489423469,4,1,0,100,0,1
338096,-66.4290289789926,4,1,0,100,0,1
338151,-66.4232557680967,4,1,0,100,0,1
338207,-66.4164750003854,4,1,0,100,0,1
338262,-66.4089298404692,4,1,0,100,0,1
338346,-66.3957153878584,4,1,0,100,0,1
338429,-66.380654847645,4,1,0,100,0,1
338512,-66.3636079530929,4,1,0,100,0,1
338596,-66.3443390977264,4,1,0,100,0,1
338651,-66.3306267021828,4,1,0,100,0,1
338707,-66.3157763653605,4,1,0,100,0,1
338762,-66.300320620225,4,1,0,100,0,1
338846,-66.2750556285806,4,1,0,100,0,1
338929,-66.2481284208645,4,1,0,100,0,1
339012,-66.2192589362336,4,1,0,100,0,1
339096,-66.1880738719914,4,1,0,100,0,1
339179,-66.1553260054656,4,1,0,100,0,1
339262,-66.1206664974997,4,1,0,100,0,1
339346,-66.0836547254773,4,1,0,100,0,1
339429,-66.0451840355776,4,1,0,100,0,1
339512,-66.0048378186309,4,1,0,100,0,1
339596,-65.9621094015204,4,1,0,100,0,1
339679,-65.9180300013176,4,1,0,100,0,1
339762,-65.8721164366124,4,1,0,100,0,1
339846,-65.8237974318411,4,1,0,100,0,1
339929,-65.7742389861099,4,1,0,100,0,1
339985,-65.7397909243433,4,1,0,100,0,1
340040,-65.7051706807918,4,1,0,100,0,1
340096,-65.6691243909077,4,1,0,100,0,1
340179,-65.614231302802,4,1,0,100,0,1
340262,-65.5576014496476,4,1,0,100,0,1
340320,-65.528289288454,4,1,0,100,0,1
340375,-65.4985393655857,4,1,0,100,0,1
340429,-65.4384698854093,4,1,0,100,0,1
340512,-65.3767190779752,4,1,0,100,0,1
340596,-65.3125322002433,4,1,0,100,0,1
340679,-65.2474574664967,4,1,0,100,0,1
340762,-65.1807609000103,4,1,0,100,0,1
340818,-65.1348548932195,4,1,0,100,0,1
340874,-65.0882263890638,4,1,0,100,0,1
340929,-65.0417335719063,4,1,0,100,0,1
341012,-64.9702779657584,4,1,0,100,0,1
341096,-64.8963967643121,4,1,0,100,0,1
341179,-64.8218713656963,4,1,0,100,0,1
341262,-64.7458538885851,4,1,0,100,0,1
341318,-64.6937334828142,4,1,0,100,0,1
341374,-64.6409512904978,4,1,0,100,0,1
341429,-64.5884743787527,4,1,0,100,0,1
341512,-64.5081015426315,4,1,0,100,0,1
341596,-64.4253362023734,4,1,0,100,0,1
341679,-64.3421731545967,4,1,0,100,0,1
341762,-64.2576596884794,4,1,0,100,0,1
341763,-64.2566333206534,4,1,0,100,0,1
341818,-64.1998879340991,4,1,0,100,0,1
341874,-64.1415201454162,4,1,0,100,0,1
341929,-64.0836218454575,4,1,0,100,0,1
341985,-64.0240951897012,4,1,0,100,0,1
342041,-63.963995346369,4,1,0,100,0,1
342097,-63.9033300594233,4,1,0,100,0,1
342152,-63.8432052231216,4,1,0,100,0,1
342207,-63.7825498712706,4,1,0,100,0,1
342263,-63.7202543129796,4,1,0,100,0,1
342319,-63.6574243698478,4,1,0,100,0,1
342374,-63.5952038930725,4,1,0,100,0,1
342429,-63.5324831087395,4,1,0,100,0,1
342512,-63.4369012803057,4,1,0,100,0,1
342596,-63.3390519628364,4,1,0,100,0,1
342679,-63.2412913304009,4,1,0,100,0,1
342762,-63.1424873218774,4,1,0,100,0,1
342846,-63.0414575276563,4,1,0,100,0,1
342929,-62.9406341024747,4,1,0,100,0,1
342985,-62.8720625178722,4,1,0,100,0,1
343040,-62.8042962397266,4,1,0,100,0,1
343096,-62.7348790709503,4,1,0,100,0,1
343262,-62.5267030589254,4,1,0,100,0,1
343429,-62.313813360572,4,1,0,100,0,1
343485,-62.2416859510308,4,1,0,100,0,1
343540,-62.1704982773905,4,1,0,100,0,1
343596,-62.0976697264435,4,1,0,100,0,1
343679,-61.9891014893245,4,1,0,100,0,1
343762,-61.8798093476814,4,1,0,100,0,1
343846,-61.768490396572,4,1,0,100,0,1
343929,-61.6578217019447,4,1,0,100,0,1
343985,-61.5827879176982,4,1,0,100,0,1
344040,-61.5088162132262,4,1,0,100,0,1
344096,-61.4332246182352,4,1,0,100,0,1
344179,-61.3206937689057,4,1,0,100,0,1
344262,-61.2075969520983,4,1,0,100,0,1
344346,-61.0925877349055,4,1,0,100,0,1
344429,-60.9784304423919,4,1,0,100,0,1
344430,-60.9770520243334,4,1,0,100,0,1
344512,-60.8637847377813,4,1,0,100,0,1
344596,-60.7472865330277,4,1,0,100,0,1
344679,-60.6317351841585,4,1,0,100,0,1
344762,-60.5157717235642,4,1,0,100,0,1
344846,-60.3980170969925,4,1,0,100,0,1
344929,-60.281300084409,4,1,0,100,0,1
345012,-60.1642457974873,4,1,0,100,0,1
345096,-60.0454628576116,4,1,0,100,0,1
345179,-59.9278039750172,4,1,0,100,0,1
345262,-59.8098810060632,4,1,0,100,0,1
345318,-59.7301813722547,4,1,0,100,0,1
345374,-59.650379696904,4,1,0,100,0,1
345429,-59.571910738136,4,1,0,100,0,1
345512,-59.45333592762,4,1,0,100,0,1
345596,-59.333160081616,4,1,0,100,0,1
345651,-59.2543909592477,4,1,0,100,0,1
345707,-59.1741306291461,4,1,0,100,0,1
345762,-59.0952522392029,4,1,0,100,0,1
345763,-59.0938176575769,4,1,0,100,0,1
345929,-58.8555048709814,4,1,0,100,0,1
346096,-58.6155306949514,4,1,0,100,0,1
346151,-58.5364778636806,4,1,0,100,0,1
346207,-58.455988654335,4,1,0,100,0,1
346262,-58.3769439608111,4,1,0,100,0,1
346346,-58.2562489243629,4,1,0,100,0,1
346429,-58.1370424042964,4,1,0,100,0,1
346512,-58.0179079491451,4,1,0,100,0,1
346596,-57.8974323260715,4,1,0,100,0,1
346651,-57.8186107628981,4,1,0,100,0,1
346707,-57.7384129429067,4,1,0,100,0,1
346762,-57.6597088954777,4,1,0,100,0,1
346846,-57.5396372407024,4,1,0,100,0,1
346929,-57.4211676946845,4,1,0,100,0,1
347096,-57.183398522023,4,1,0,100,0,1
347179,-57.0655602071193,4,1,0,100,0,1
347262,-56.9479684064023,4,1,0,100,0,1
347346,-56.8292291920542,4,1,0,100,0,1
347429,-56.7121875651943,4,1,0,100,0,1
347512,-56.5954457621444,4,1,0,100,0,1
347596,-56.4776202355983,4,1,0,100,0,1
347679,-56.3615334144005,4,1,0,100,0,1
347762,-56.2457972883851,4,1,0,100,0,1
347820,-56.129040523781,4,1,0,100,0,1
347875,-56.0721936649691,4,1,0,100,0,1
347929,-56.0140592878782,4,1,0,100,0,1
348012,-55.8994771890679,4,1,0,100,0,1
348096,-55.7839368560268,4,1,0,100,0,1
348179,-55.670204685364,4,1,0,100,0,1
348262,-55.556917684527,4,1,0,100,0,1
348430,-20,4,1,0,100,0,0
348513,-100,4,1,0,100,0,0

[HitObjects]
256,192,8389,5,0,0:0:0:0:
256,192,8514,1,0,0:0:0:0:
256,192,8764,1,0,0:0:0:0:
256,192,8889,1,8,0:0:0:0:
256,192,9139,1,0,0:0:0:0:
256,192,9264,1,0,0:0:0:0:
256,192,9514,1,0,0:0:0:0:
256,192,9576,1,0,0:0:0:0:
256,192,9639,1,8,0:0:0:0:
256,192,9889,1,0,0:0:0:0:
256,192,10014,1,0,0:0:0:0:
256,192,10264,1,8,0:0:0:0:
256,192,10389,1,0,0:0:0:0:
256,192,10514,1,0,0:0:0:0:
256,192,10764,1,0,0:0:0:0:
256,192,10889,1,8,0:0:0:0:
256,192,11139,1,0,0:0:0:0:
256,192,11264,1,8,0:0:0:0:
256,192,11389,1,0,0:0:0:0:
256,192,11514,1,0,0:0:0:0:
256,192,11639,1,8,0:0:0:0:
256,192,11889,1,8,0:0:0:0:
256,192,12014,1,0,0:0:0:0:
256,192,12139,1,8,0:0:0:0:
256,192,12264,1,8,0:0:0:0:
256,192,12389,1,0,0:0:0:0:
256,192,12514,1,0,0:0:0:0:
256,192,12764,1,0,0:0:0:0:
256,192,12889,1,8,0:0:0:0:
256,192,13139,1,0,0:0:0:0:
256,192,13264,1,0,0:0:0:0:
256,192,13514,1,0,0:0:0:0:
256,192,13576,1,0,0:0:0:0:
256,192,13639,1,8,0:0:0:0:
256,192,13889,1,0,0:0:0:0:
256,192,14014,1,8,0:0:0:0:
256,192,14264,1,8,0:0:0:0:
256,192,14389,1,0,0:0:0:0:
256,192,14514,1,8,0:0:0:0:
256,192,14639,1,0,0:0:0:0:
256,192,14764,1,0,0:0:0:0:
256,192,14826,1,0,0:0:0:0:
256,192,14889,1,8,0:0:0:0:
256,192,15014,1,0,0:0:0:0:
256,192,15139,1,8,0:0:0:0:
256,192,15264,1,0,0:0:0:0:
256,192,15389,1,8,0:0:0:0:
256,192,15514,1,0,0:0:0:0:
256,192,15639,1,8,0:0:0:0:
256,192,15889,1,0,0:0:0:0:
256,192,16014,1,8,0:0:0:0:
256,192,16264,1,8,0:0:0:0:
256,192,16389,1,0,0:0:0:0:
256,192,16514,1,0,0:0:0:0:
256,192,16764,1,0,0:0:0:0:
256,192,16889,1,8,0:0:0:0:
256,192,17139,1,0,0:0:0:0:
256,192,17264,1,0,0:0:0:0:
256,192,17514,1,0,0:0:0:0:
256,192,17576,1,0,0:0:0:0:
256,192,17639,1,8,0:0:0:0:
256,192,18014,1,0,0:0:0:0:
256,192,18264,1,0,0:0:0:0:
256,192,18514,1,0,0:0:0:0:
256,192,18764,1,0,0:0:0:0:
256,192,18889,1,8,0:0:0:0:
256,192,19139,1,0,0:0:0:0:
256,192,19264,1,8,0:0:0:0:
256,192,19389,1,0,0:0:0:0:
256,192,19514,1,0,0:0:0:0:
256,192,19639,1,8,0:0:0:0:
256,192,19889,1,0,0:0:0:0:
256,192,20014,1,0,0:0:0:0:
256,192,20139,1,8,0:0:0:0:
256,192,20264,1,8,0:0:0:0:
256,192,20389,1,0,0:0:0:0:
256,192,20514,1,8,0:0:0:0:
256,192,20576,1,8,0:0:0:0:
256,192,20639,1,0,0:0:0:0:
256,192,20764,1,0,0:0:0:0:
256,192,20889,1,8,0:0:0:0:
256,192,21139,1,0,0:0:0:0:
256,192,21264,1,0,0:0:0:0:
256,192,21514,1,0,0:0:0:0:
256,192,21576,1,0,0:0:0:0:
256,192,21639,1,8,0:0:0:0:
256,192,21889,1,0,0:0:0:0:
256,192,22014,1,8,0:0:0:0:
256,192,22264,1,8,0:0:0:0:
256,192,22389,1,0,0:0:0:0:
256,192,22514,1,8,0:0:0:0:
256,192,22639,1,0,0:0:0:0:
256,192,22764,1,0,0:0:0:0:
256,192,22826,1,0,0:0:0:0:
256,192,22889,1,8,0:0:0:0:
256,192,23014,1,0,0:0:0:0:
256,192,23139,1,8,0:0:0:0:
256,192,23264,1,0,0:0:0:0:
256,192,23389,1,8,0:0:0:0:
256,192,23514,1,0,0:0:0:0:
256,192,23576,1,0,0:0:0:0:
256,192,23639,1,8,0:0:0:0:
256,192,23889,1,0,0:0:0:0:
256,192,24139,1,0,0:0:0:0:
256,192,24389,1,12,0:0:0:0:
256,192,24764,1,12,0:0:0:0:
256,192,25139,1,12,0:0:0:0:
256,192,25514,1,12,0:0:0:0:
256,192,25889,1,12,0:0:0:0:
256,192,26264,1,12,0:0:0:0:
256,192,26639,1,12,0:0:0:0:
256,192,27014,1,12,0:0:0:0:
256,192,27264,1,0,0:0:0:0:
256,192,27389,1,12,0:0:0:0:
256,192,28389,1,0,0:0:0:0:
256,192,28514,1,0,0:0:0:0:
256,192,28764,1,0,0:0:0:0:
256,192,28889,1,8,0:0:0:0:
256,192,29139,1,0,0:0:0:0:
256,192,29264,1,0,0:0:0:0:
256,192,29514,1,0,0:0:0:0:
256,192,29576,1,0,0:0:0:0:
256,192,29639,1,8,0:0:0:0:
256,192,30014,1,0,0:0:0:0:
256,192,30264,1,8,0:0:0:0:
256,192,30514,1,0,0:0:0:0:
256,192,30764,1,0,0:0:0:0:
256,192,30889,1,8,0:0:0:0:
256,192,31139,1,0,0:0:0:0:
256,192,31264,1,0,0:0:0:0:
256,192,31389,1,8,0:0:0:0:
256,192,31514,1,0,0:0:0:0:
256,192,31639,1,8,0:0:0:0:
256,192,31889,1,8,0:0:0:0:
256,192,32014,1,0,0:0:0:0:
256,192,32139,1,8,0:0:0:0:
256,192,32264,1,0,0:0:0:0:
256,192,32389,1,12,0:0:0:0:
256,192,32764,1,12,0:0:0:0:
256,192,33014,1,0,0:0:0:0:
256,192,33139,1,12,0:0:0:0:
256,192,33514,1,12,0:0:0:0:
256,192,33764,1,0,0:0:0:0:
256,192,33889,1,12,0:0:0:0:
256,192,34264,1,12,0:0:0:0:
256,192,34514,1,0,0:0:0:0:
256,192,34639,1,12,0:0:0:0:
256,192,35014,1,12,0:0:0:0:
256,192,35264,1,0,0:0:0:0:
256,192,35389,1,12,0:0:0:0:
256,192,36389,1,0,0:0:0:0:
256,192,36514,1,0,0:0:0:0:
256,192,36764,1,0,0:0:0:0:
256,192,36889,1,8,0:0:0:0:
256,192,37014,1,0,0:0:0:0:
256,192,37264,1,0,0:0:0:0:
256,192,37514,1,0,0:0:0:0:
256,192,37576,1,0,0:0:0:0:
256,192,37639,1,8,0:0:0:0:
256,192,37764,1,0,0:0:0:0:
256,192,37826,1,0,0:0:0:0:
256,192,37889,1,8,0:0:0:0:
256,192,37951,1,8,0:0:0:0:
256,192,38014,1,0,0:0:0:0:
256,192,38139,1,0,0:0:0:0:
256,192,38264,1,8,0:0:0:0:
256,192,38389,1,0,0:0:0:0:
256,192,38514,1,8,0:0:0:0:
256,192,38639,1,0,0:0:0:0:
256,192,38764,1,0,0:0:0:0:
256,192,38826,1,0,0:0:0:0:
256,192,38889,1,8,0:0:0:0:
256,192,39014,1,0,0:0:0:0:
256,192,39139,1,8,0:0:0:0:
256,192,39264,1,0,0:0:0:0:
256,192,39389,1,8,0:0:0:0:
256,192,39514,1,0,0:0:0:0:
256,192,39576,1,0,0:0:0:0:
256,192,39639,1,8,0:0:0:0:
256,192,39764,1,0,0:0:0:0:
256,192,39889,1,0,0:0:0:0:
256,192,39951,1,0,0:0:0:0:
256,192,40014,1,0,0:0:0:0:
256,192,40076,1,0,0:0:0:0:
256,192,40139,1,8,0:0:0:0:
256,192,40264,1,0,0:0:0:0:
256,192,40389,1,12,0:0:0:0:
256,192,40764,1,12,0:0:0:0:
256,192,41139,1,12,0:0:0:0:
256,192,41514,1,12,0:0:0:0:
256,192,41889,1,12,0:0:0:0:
256,192,42264,1,12,0:0:0:0:
256,192,42639,1,12,0:0:0:0:
256,192,43014,1,12,0:0:0:0:
256,192,43264,1,0,0:0:0:0:
256,192,43389,1,12,0:0:0:0:
256,192,44389,1,0,0:0:0:0:
256,192,44514,1,0,0:0:0:0:
256,192,44764,1,0,0:0:0:0:
256,192,44889,1,8,0:0:0:0:
256,192,45139,1,0,0:0:0:0:
256,192,45264,1,0,0:0:0:0:
256,192,45514,1,0,0:0:0:0:
256,192,45576,1,0,0:0:0:0:
256,192,45639,1,8,0:0:0:0:
256,192,46014,1,0,0:0:0:0:
256,192,46264,1,8,0:0:0:0:
256,192,46514,1,0,0:0:0:0:
256,192,46764,1,0,0:0:0:0:
256,192,46889,1,8,0:0:0:0:
256,192,47139,1,0,0:0:0:0:
256,192,47264,1,0,0:0:0:0:
256,192,47389,1,8,0:0:0:0:
256,192,47514,1,0,0:0:0:0:
256,192,47639,1,8,0:0:0:0:
256,192,47889,1,0,0:0:0:0:
256,192,48014,1,0,0:0:0:0:
256,192,48139,1,8,0:0:0:0:
256,192,48264,1,0,0:0:0:0:
256,192,48389,1,8,0:0:0:0:
256,192,48514,1,8,0:0:0:0:
256,192,48639,1,0,0:0:0:0:
256,192,48764,1,8,0:0:0:0:
256,192,48889,1,0,0:0:0:0:
256,192,49014,1,0,0:0:0:0:
256,192,49139,1,8,0:0:0:0:
256,192,49264,1,8,0:0:0:0:
256,192,49326,1,8,0:0:0:0:
256,192,49389,1,0,0:0:0:0:
256,192,49514,1,8,0:0:0:0:
256,192,49639,1,0,0:0:0:0:
256,192,49764,1,0,0:0:0:0:
256,192,49889,1,8,0:0:0:0:
256,192,50014,1,8,0:0:0:0:
256,192,50139,1,0,0:0:0:0:
256,192,50264,1,0,0:0:0:0:
256,192,50389,1,8,0:0:0:0:
256,192,50451,1,0,0:0:0:0:
256,192,50514,1,8,0:0:0:0:
256,192,50639,1,0,0:0:0:0:
256,192,50764,1,8,0:0:0:0:
256,192,50826,1,8,0:0:0:0:
256,192,50889,1,0,0:0:0:0:
256,192,51014,1,0,0:0:0:0:
256,192,51139,1,8,0:0:0:0:
256,192,51201,1,8,0:0:0:0:
256,192,51264,1,0,0:0:0:0:
256,192,51326,1,8,0:0:0:0:
256,192,51389,1,0,0:0:0:0:
256,192,51514,1,8,0:0:0:0:
256,192,51639,1,0,0:0:0:0:
256,192,51701,1,0,0:0:0:0:
256,192,51764,1,0,0:0:0:0:
256,192,51826,1,0,0:0:0:0:
256,192,51889,1,8,0:0:0:0:
256,192,52014,1,0,0:0:0:0:
256,192,52139,1,8,0:0:0:0:
256,192,52201,1,8,0:0:0:0:
256,192,52264,1,8,0:0:0:0:
256,192,52326,1,8,0:0:0:0:
256,192,52389,1,0,0:0:0:0:
256,192,52514,1,0,0:0:0:0:
256,192,52764,1,0,0:0:0:0:
256,192,52889,1,8,0:0:0:0:
256,192,53139,1,0,0:0:0:0:
256,192,53264,1,0,0:0:0:0:
256,192,53514,1,0,0:0:0:0:
256,192,53576,1,0,0:0:0:0:
256,192,53639,1,8,0:0:0:0:
256,192,53889,1,8,0:0:0:0:
256,192,53951,1,0,0:0:0:0:
256,192,54014,1,8,0:0:0:0:
256,192,54076,1,0,0:0:0:0:
256,192,54139,1,8,0:0:0:0:
256,192,54201,1,0,0:0:0:0:
256,192,54264,1,8,0:0:0:0:
256,192,54326,1,0,0:0:0:0:
256,192,54389,1,8,0:0:0:0:
256,192,54764,1,8,0:0:0:0:
256,192,55139,1,8,0:0:0:0:
256,192,55514,1,8,0:0:0:0:
256,192,55889,1,4,0:0:0:0:
256,192,56389,1,0,0:0:0:0:
256,192,56514,1,0,0:0:0:0:
256,192,56764,1,0,0:0:0:0:
256,192,56889,1,8,0:0:0:0:
256,192,57139,1,0,0:0:0:0:
256,192,57264,1,0,0:0:0:0:
256,192,57514,1,0,0:0:0:0:
256,192,57576,1,0,0:0:0:0:
256,192,57639,1,8,0:0:0:0:
256,192,57889,1,0,0:0:0:0:
256,192,58014,1,0,0:0:0:0:
256,192,58264,1,0,0:0:0:0:
256,192,58514,1,0,0:0:0:0:
256,192,58764,1,0,0:0:0:0:
256,192,58889,1,8,0:0:0:0:
256,192,59139,1,0,0:0:0:0:
256,192,59264,1,8,0:0:0:0:
256,192,59389,1,0,0:0:0:0:
256,192,59514,1,0,0:0:0:0:
256,192,59639,1,8,0:0:0:0:
256,192,59889,1,8,0:0:0:0:
256,192,60014,1,0,0:0:0:0:
256,192,60139,1,8,0:0:0:0:
256,192,60264,1,8,0:0:0:0:
256,192,60389,1,0,0:0:0:0:
256,192,60514,1,0,0:0:0:0:
256,192,60639,1,0,0:0:0:0:
256,192,60701,1,0,0:0:0:0:
256,192,60764,1,0,0:0:0:0:
256,192,60826,1,0,0:0:0:0:
256,192,60889,1,8,0:0:0:0:
256,192,61139,1,0,0:0:0:0:
256,192,61201,1,0,0:0:0:0:
256,192,61264,1,8,0:0:0:0:
256,192,61326,1,8,0:0:0:0:
256,192,61389,1,0,0:0:0:0:
256,192,61514,1,0,0:0:0:0:
256,192,61576,1,0,0:0:0:0:
256,192,61639,1,8,0:0:0:0:
256,192,61764,1,8,0:0:0:0:
256,192,61826,1,8,0:0:0:0:
256,192,61889,1,0,0:0:0:0:
256,192,61951,1,0,0:0:0:0:
256,192,62014,1,8,0:0:0:0:
256,192,62076,1,8,0:0:0:0:
256,192,62139,1,0,0:0:0:0:
256,192,62201,1,0,0:0:0:0:
256,192,62264,1,8,0:0:0:0:
256,192,62389,1,0,0:0:0:0:
256,192,62514,1,8,0:0:0:0:
256,192,62639,1,0,0:0:0:0:
256,192,62764,1,0,0:0:0:0:
256,192,62826,1,0,0:0:0:0:
256,192,62889,1,8,0:0:0:0:
256,192,63014,1,0,0:0:0:0:
256,192,63139,1,8,0:0:0:0:
256,192,63264,1,0,0:0:0:0:
256,192,63389,1,8,0:0:0:0:
256,192,63451,1,8,0:0:0:0:
256,192,63514,1,0,0:0:0:0:
256,192,63576,1,0,0:0:0:0:
256,192,63639,1,8,0:0:0:0:
256,192,63764,1,0,0:0:0:0:
256,192,63826,1,0,0:0:0:0:
256,192,63889,1,8,0:0:0:0:
256,192,63951,1,8,0:0:0:0:
256,192,64014,1,0,0:0:0:0:
256,192,64076,1,8,0:0:0:0:
256,192,64139,1,0,0:0:0:0:
256,192,64264,1,8,0:0:0:0:
256,192,64389,1,0,0:0:0:0:
256,192,64514,1,0,0:0:0:0:
256,192,64764,1,0,0:0:0:0:
256,192,64889,1,8,0:0:0:0:
256,192,65139,1,0,0:0:0:0:
256,192,65264,1,0,0:0:0:0:
256,192,65514,1,0,0:0:0:0:
256,192,65576,1,0,0:0:0:0:
256,192,65639,1,8,0:0:0:0:
256,192,65889,1,0,0:0:0:0:
256,192,66014,1,0,0:0:0:0:
256,192,66264,1,0,0:0:0:0:
256,192,66514,1,0,0:0:0:0:
256,192,66764,1,0,0:0:0:0:
256,192,66889,1,8,0:0:0:0:
256,192,67139,1,0,0:0:0:0:
256,192,67264,1,8,0:0:0:0:
256,192,67389,1,0,0:0:0:0:
256,192,67514,1,0,0:0:0:0:
256,192,67639,1,8,0:0:0:0:
256,192,67889,1,8,0:0:0:0:
256,192,68014,1,0,0:0:0:0:
256,192,68139,1,8,0:0:0:0:
256,192,68264,1,8,0:0:0:0:
256,192,68389,1,0,0:0:0:0:
256,192,68514,1,0,0:0:0:0:
256,192,68639,1,0,0:0:0:0:
256,192,68701,1,0,0:0:0:0:
256,192,68764,1,0,0:0:0:0:
256,192,68826,1,0,0:0:0:0:
256,192,68889,1,8,0:0:0:0:
256,192,69139,1,0,0:0:0:0:
256,192,69201,1,0,0:0:0:0:
256,192,69264,1,8,0:0:0:0:
256,192,69326,1,8,0:0:0:0:
256,192,69389,1,0,0:0:0:0:
256,192,69514,1,0,0:0:0:0:
256,192,69576,1,0,0:0:0:0:
256,192,69639,1,8,0:0:0:0:
256,192,69764,1,0,0:0:0:0:
256,192,69826,1,8,0:0:0:0:
256,192,69889,1,0,0:0:0:0:
256,192,69951,1,0,0:0:0:0:
256,192,70014,1,8,0:0:0:0:
256,192,70076,1,8,0:0:0:0:
256,192,70139,1,0,0:0:0:0:
256,192,70201,1,0,0:0:0:0:
256,192,70264,1,8,0:0:0:0:
256,192,70389,1,0,0:0:0:0:
256,192,70514,1,8,0:0:0:0:
256,192,70639,1,0,0:0:0:0:
256,192,70764,1,0,0:0:0:0:
256,192,70826,1,0,0:0:0:0:
256,192,70889,1,8,0:0:0:0:
256,192,71014,1,0,0:0:0:0:
256,192,71139,1,8,0:0:0:0:
256,192,71264,1,0,0:0:0:0:
256,192,71389,1,8,0:0:0:0:
256,192,71451,1,8,0:0:0:0:
256,192,71514,1,0,0:0:0:0:
256,192,71576,1,0,0:0:0:0:
256,192,71639,1,8,0:0:0:0:
256,192,72139,1,0,0:0:0:0:
256,192,72201,1,0,0:0:0:0:
256,192,72264,1,0,0:0:0:0:
256,192,72326,1,0,0:0:0:0:
256,192,72389,1,8,0:0:0:0:
256,192,72764,1,8,0:0:0:0:
256,192,72889,1,0,0:0:0:0:
256,192,73014,1,0,0:0:0:0:
256,192,73139,1,8,0:0:0:0:
256,192,73514,1,8,0:0:0:0:
256,192,73639,1,0,0:0:0:0:
256,192,73764,1,0,0:0:0:0:
256,192,73889,1,8,0:0:0:0:
256,192,74264,1,8,0:0:0:0:
256,192,74389,1,0,0:0:0:0:
256,192,74514,1,0,0:0:0:0:
256,192,74639,1,8,0:0:0:0:
256,192,75014,1,8,0:0:0:0:
256,192,75139,1,0,0:0:0:0:
256,192,75264,1,0,0:0:0:0:
256,192,75389,1,8,0:0:0:0:
256,192,75764,1,0,0:0:0:0:
256,192,76139,1,0,0:0:0:0:
256,192,76389,1,0,0:0:0:0:
256,192,76514,1,0,0:0:0:0:
256,192,76764,1,0,0:0:0:0:
256,192,76889,1,8,0:0:0:0:
256,192,77139,1,0,0:0:0:0:
256,192,77264,1,0,0:0:0:0:
256,192,77514,1,0,0:0:0:0:
256,192,77576,1,0,0:0:0:0:
256,192,77639,1,8,0:0:0:0:
256,192,77764,1,8,0:0:0:0:
256,192,77826,1,8,0:0:0:0:
256,192,77889,1,0,0:0:0:0:
256,192,77951,1,0,0:0:0:0:
256,192,78014,1,8,0:0:0:0:
256,192,78076,1,8,0:0:0:0:
256,192,78139,1,0,0:0:0:0:
256,192,78201,1,8,0:0:0:0:
256,192,78264,1,0,0:0:0:0:
256,192,78514,1,0,0:0:0:0:
256,192,78764,1,0,0:0:0:0:
256,192,78889,1,8,0:0:0:0:
256,192,79139,1,0,0:0:0:0:
256,192,79264,1,0,0:0:0:0:
256,192,79389,1,8,0:0:0:0:
256,192,79514,1,0,0:0:0:0:
256,192,79639,1,0,0:0:0:0:
256,192,79889,1,0,0:0:0:0:
256,192,80014,1,0,0:0:0:0:
256,192,80139,1,8,0:0:0:0:
256,192,80264,1,0,0:0:0:0:
256,192,80389,1,8,0:0:0:0:
256,192,80764,1,8,0:0:0:0:
256,192,80889,1,0,0:0:0:0:
256,192,81014,1,0,0:0:0:0:
256,192,81139,1,8,0:0:0:0:
256,192,81514,1,8,0:0:0:0:
256,192,81639,1,0,0:0:0:0:
256,192,81764,1,0,0:0:0:0:
256,192,81889,1,8,0:0:0:0:
256,192,82264,1,8,0:0:0:0:
256,192,82389,1,0,0:0:0:0:
256,192,82514,1,0,0:0:0:0:
256,192,82639,1,8,0:0:0:0:
256,192,83014,1,8,0:0:0:0:
256,192,83139,1,0,0:0:0:0:
256,192,83264,1,0,0:0:0:0:
256,192,83389,1,8,0:0:0:0:
256,192,83764,1,0,0:0:0:0:
256,192,84107,1,0,0:0:0:0:
256,192,84389,1,0,0:0:0:0:
256,192,84514,1,0,0:0:0:0:
256,192,84764,1,0,0:0:0:0:
256,192,84889,1,8,0:0:0:0:
256,192,85014,1,0,0:0:0:0:
256,192,85264,1,0,0:0:0:0:
256,192,85514,1,0,0:0:0:0:
256,192,85576,1,0,0:0:0:0:
256,192,85639,1,8,0:0:0:0:
256,192,85764,1,0,0:0:0:0:
256,192,85826,1,0,0:0:0:0:
256,192,85889,1,8,0:0:0:0:
256,192,85951,1,8,0:0:0:0:
256,192,86014,1,0,0:0:0:0:
256,192,86076,1,8,0:0:0:0:
256,192,86139,1,0,0:0:0:0:
256,192,86264,1,8,0:0:0:0:
256,192,86389,1,0,0:0:0:0:
256,192,86514,1,8,0:0:0:0:
256,192,86639,1,0,0:0:0:0:
256,192,86764,1,0,0:0:0:0:
256,192,86826,1,0,0:0:0:0:
256,192,86889,1,8,0:0:0:0:
256,192,87014,1,0,0:0:0:0:
256,192,87139,1,8,0:0:0:0:
256,192,87264,1,0,0:0:0:0:
256,192,87389,1,8,0:0:0:0:
256,192,87514,1,0,0:0:0:0:
256,192,87576,1,0,0:0:0:0:
256,192,87639,1,8,0:0:0:0:
256,192,87764,1,0,0:0:0:0:
256,192,87889,1,0,0:0:0:0:
256,192,87951,1,0,0:0:0:0:
256,192,88014,1,8,0:0:0:0:
256,192,88076,1,0,0:0:0:0:
256,192,88139,1,8,0:0:0:0:
256,192,88264,1,0,0:0:0:0:
256,192,88389,1,8,0:0:0:0:
256,192,88764,1,8,0:0:0:0:
256,192,88889,1,0,0:0:0:0:
256,192,89014,1,0,0:0:0:0:
256,192,89139,1,8,0:0:0:0:
256,192,89514,1,8,0:0:0:0:
256,192,89639,1,0,0:0:0:0:
256,192,89764,1,0,0:0:0:0:
256,192,89889,1,8,0:0:0:0:
256,192,90264,1,8,0:0:0:0:
256,192,90389,1,0,0:0:0:0:
256,192,90514,1,0,0:0:0:0:
256,192,90639,1,8,0:0:0:0:
256,192,91014,1,8,0:0:0:0:
256,192,91139,1,0,0:0:0:0:
256,192,91264,1,0,0:0:0:0:
256,192,91389,1,8,0:0:0:0:
256,192,91764,1,8,0:0:0:0:
256,192,92139,1,8,0:0:0:0:
256,192,92389,1,0,0:0:0:0:
256,192,92514,1,0,0:0:0:0:
256,192,92764,1,0,0:0:0:0:
256,192,92889,1,8,0:0:0:0:
256,192,93139,1,0,0:0:0:0:
256,192,93264,1,0,0:0:0:0:
256,192,93514,1,0,0:0:0:0:
256,192,93576,1,0,0:0:0:0:
256,192,93639,1,8,0:0:0:0:
256,192,94014,1,0,0:0:0:0:
256,192,94264,1,0,0:0:0:0:
256,192,94514,1,0,0:0:0:0:
256,192,94764,1,0,0:0:0:0:
256,192,94889,1,8,0:0:0:0:
256,192,95139,1,0,0:0:0:0:
256,192,95264,1,8,0:0:0:0:
256,192,95389,1,8,0:0:0:0:
256,192,95514,1,0,0:0:0:0:
256,192,95639,1,8,0:0:0:0:
256,192,95701,1,8,0:0:0:0:
256,192,95764,1,8,0:0:0:0:
256,192,95826,1,8,0:0:0:0:
256,192,95889,1,0,0:0:0:0:
256,192,95951,1,0,0:0:0:0:
256,192,96014,1,8,0:0:0:0:
256,192,96076,1,8,0:0:0:0:
256,192,96139,1,0,0:0:0:0:
256,192,96201,1,0,0:0:0:0:
256,192,96264,1,8,0:0:0:0:
256,192,96326,1,8,0:0:0:0:
256,192,96389,1,0,0:0:0:0:
256,192,96514,1,8,0:0:0:0:
256,192,96639,1,0,0:0:0:0:
256,192,96764,1,8,0:0:0:0:
256,192,96889,1,0,0:0:0:0:
256,192,97014,1,0,0:0:0:0:
256,192,97139,1,8,0:0:0:0:
256,192,97264,1,8,0:0:0:0:
256,192,97326,1,8,0:0:0:0:
256,192,97389,1,0,0:0:0:0:
256,192,97514,1,8,0:0:0:0:
256,192,97639,1,0,0:0:0:0:
256,192,97764,1,0,0:0:0:0:
256,192,97889,1,8,0:0:0:0:
256,192,98014,1,8,0:0:0:0:
256,192,98139,1,0,0:0:0:0:
256,192,98264,1,0,0:0:0:0:
256,192,98389,1,8,0:0:0:0:
256,192,98514,1,8,0:0:0:0:
256,192,98639,1,0,0:0:0:0:
256,192,98764,1,8,0:0:0:0:
256,192,98889,1,0,0:0:0:0:
256,192,99014,1,0,0:0:0:0:
256,192,99139,1,8,0:0:0:0:
256,192,99201,1,8,0:0:0:0:
256,192,99264,1,0,0:0:0:0:
256,192,99326,1,8,0:0:0:0:
256,192,99389,1,0,0:0:0:0:
256,192,99514,1,8,0:0:0:0:
256,192,99639,1,0,0:0:0:0:
256,192,99701,1,0,0:0:0:0:
256,192,99764,1,0,0:0:0:0:
256,192,99826,1,0,0:0:0:0:
256,192,99889,1,8,0:0:0:0:
256,192,100014,1,0,0:0:0:0:
256,192,100139,1,8,0:0:0:0:
256,192,100201,1,0,0:0:0:0:
256,192,100264,1,8,0:0:0:0:
256,192,100326,1,8,0:0:0:0:
256,192,100389,1,0,0:0:0:0:
256,192,100514,1,0,0:0:0:0:
256,192,100764,1,0,0:0:0:0:
256,192,100889,1,8,0:0:0:0:
256,192,101139,1,0,0:0:0:0:
256,192,101264,1,0,0:0:0:0:
256,192,101514,1,0,0:0:0:0:
256,192,101576,1,0,0:0:0:0:
256,192,101639,1,8,0:0:0:0:
256,192,101889,1,0,0:0:0:0:
256,192,101951,1,8,0:0:0:0:
256,192,102014,1,0,0:0:0:0:
256,192,102076,1,8,0:0:0:0:
256,192,102139,1,0,0:0:0:0:
256,192,102201,1,8,0:0:0:0:
256,192,102264,1,0,0:0:0:0:
256,192,102326,1,8,0:0:0:0:
256,192,102389,1,0,0:0:0:0:
256,192,102764,1,0,0:0:0:0:
256,192,102889,1,8,0:0:0:0:
256,192,103139,1,0,0:0:0:0:
256,192,103389,1,8,0:0:0:0:
256,192,103514,1,0,0:0:0:0:
256,192,103857,1,12,0:0:0:0:
256,192,104389,1,0,0:0:0:0:
256,192,104514,1,0,0:0:0:0:
256,192,104764,1,8,0:0:0:0:
256,192,104889,1,0,0:0:0:0:
256,192,105014,1,8,0:0:0:0:
256,192,105139,1,0,0:0:0:0:
256,192,105264,1,8,0:0:0:0:
256,192,105326,1,8,0:0:0:0:
256,192,105389,1,0,0:0:0:0:
256,192,105514,1,0,0:0:0:0:
256,192,105639,1,8,0:0:0:0:
256,192,105764,1,0,0:0:0:0:
256,192,105889,1,0,0:0:0:0:
256,192,106014,1,8,0:0:0:0:
256,192,106139,1,0,0:0:0:0:
256,192,106264,1,8,0:0:0:0:
256,192,106326,1,8,0:0:0:0:
256,192,106389,1,0,0:0:0:0:
256,192,106451,1,0,0:0:0:0:
256,192,106514,1,8,0:0:0:0:
256,192,106639,1,0,0:0:0:0:
256,192,107139,1,0,0:0:0:0:
256,192,107201,1,0,0:0:0:0:
256,192,107264,1,8,0:0:0:0:
256,192,107389,1,0,0:0:0:0:
256,192,107514,1,8,0:0:0:0:
256,192,107576,1,8,0:0:0:0:
256,192,107639,1,0,0:0:0:0:
256,192,107764,1,0,0:0:0:0:
256,192,107889,1,8,0:0:0:0:
256,192,107951,1,8,0:0:0:0:
256,192,108014,1,0,0:0:0:0:
256,192,108076,1,8,0:0:0:0:
256,192,108139,1,0,0:0:0:0:
256,192,108264,1,8,0:0:0:0:
256,192,108389,1,0,0:0:0:0:
256,192,108451,1,0,0:0:0:0:
256,192,108514,1,0,0:0:0:0:
256,192,108639,1,8,0:0:0:0:
256,192,108701,1,8,0:0:0:0:
256,192,108764,1,0,0:0:0:0:
256,192,108889,1,0,0:0:0:0:
256,192,109014,1,8,0:0:0:0:
256,192,109139,1,0,0:0:0:0:
256,192,109264,1,0,0:0:0:0:
256,192,109389,1,8,0:0:0:0:
256,192,109514,1,0,0:0:0:0:
256,192,109639,1,0,0:0:0:0:
256,192,109764,1,8,0:0:0:0:
256,192,109951,1,8,0:0:0:0:
256,192,110014,1,0,0:0:0:0:
256,192,110076,1,8,0:0:0:0:
256,192,110139,1,0,0:0:0:0:
256,192,110326,1,8,0:0:0:0:
256,192,110389,1,0,0:0:0:0:
256,192,110451,1,8,0:0:0:0:
256,192,110514,1,0,0:0:0:0:
256,192,110701,1,8,0:0:0:0:
256,192,110764,1,0,0:0:0:0:
256,192,110826,1,8,0:0:0:0:
256,192,110889,1,0,0:0:0:0:
256,192,111139,1,0,0:0:0:0:
256,192,111264,1,0,0:0:0:0:
256,192,111389,1,8,0:0:0:0:
256,192,111514,1,0,0:0:0:0:
256,192,111576,1,0,0:0:0:0:
256,192,111639,1,0,0:0:0:0:
256,192,111764,1,8,0:0:0:0:
256,192,111805,1,8,0:0:0:0:
256,192,112014,1,0,0:0:0:0:
256,192,112139,1,0,0:0:0:0:
256,192,112264,1,8,0:0:0:0:
256,192,112389,1,0,0:0:0:0:
256,192,112514,1,0,0:0:0:0:
256,192,112639,1,8,0:0:0:0:
256,192,112680,1,8,0:0:0:0:
256,192,112826,1,0,0:0:0:0:
256,192,112889,1,0,0:0:0:0:
256,192,112951,1,0,0:0:0:0:
256,192,113014,1,8,0:0:0:0:
256,192,113264,1,8,0:0:0:0:
256,192,113389,1,0,0:0:0:0:
256,192,113576,1,8,0:0:0:0:
256,192,113639,1,0,0:0:0:0:
256,192,113701,1,0,0:0:0:0:
256,192,113764,1,0,0:0:0:0:
256,192,114014,1,8,0:0:0:0:
256,192,114139,1,0,0:0:0:0:
256,192,114264,1,0,0:0:0:0:
256,192,114389,1,8,0:0:0:0:
256,192,114451,1,8,0:0:0:0:
256,192,114514,1,0,0:0:0:0:
256,192,114639,1,8,0:0:0:0:
256,192,114764,1,0,0:0:0:0:
256,192,114826,1,0,0:0:0:0:
256,192,114889,1,8,0:0:0:0:
256,192,114951,1,8,0:0:0:0:
256,192,115014,1,0,0:0:0:0:
256,192,115139,1,8,0:0:0:0:
256,192,115201,1,8,0:0:0:0:
256,192,115264,1,0,0:0:0:0:
256,192,115326,1,8,0:0:0:0:
256,192,115389,1,0,0:0:0:0:
256,192,115514,1,8,0:0:0:0:
256,192,115576,1,8,0:0:0:0:
256,192,115639,1,0,0:0:0:0:
256,192,115764,1,8,0:0:0:0:
256,192,115889,1,0,0:0:0:0:
256,192,116014,1,8,0:0:0:0:
256,192,116139,1,0,0:0:0:0:
256,192,116201,1,0,0:0:0:0:
256,192,116264,1,0,0:0:0:0:
256,192,116326,1,0,0:0:0:0:
256,192,116389,1,0,0:0:0:0:
256,192,116451,1,0,0:0:0:0:
256,192,116514,1,0,0:0:0:0:
256,192,116576,1,0,0:0:0:0:
256,192,116639,1,8,0:0:0:0:
256,192,116701,1,8,0:0:0:0:
256,192,116764,1,8,0:0:0:0:
256,192,116826,1,8,0:0:0:0:
256,192,116889,1,8,0:0:0:0:
256,192,116951,1,8,0:0:0:0:
256,192,117014,1,8,0:0:0:0:
256,192,117076,1,8,0:0:0:0:
256,192,117139,1,0,0:0:0:0:
256,192,117201,1,8,0:0:0:0:
256,192,117264,1,0,0:0:0:0:
256,192,117326,1,8,0:0:0:0:
256,192,117389,1,0,0:0:0:0:
256,192,117451,1,8,0:0:0:0:
256,192,117514,1,0,0:0:0:0:
256,192,117576,1,8,0:0:0:0:
256,192,117639,1,0,0:0:0:0:
256,192,118389,1,0,0:0:0:0:
256,192,118514,1,0,0:0:0:0:
256,192,118639,1,8,0:0:0:0:
256,192,118764,1,8,0:0:0:0:
256,192,118889,1,0,0:0:0:0:
256,192,118951,1,8,0:0:0:0:
256,192,119014,1,0,0:0:0:0:
256,192,119139,1,0,0:0:0:0:
256,192,119201,1,0,0:0:0:0:
256,192,119264,1,8,0:0:0:0:
256,192,119326,1,8,0:0:0:0:
256,192,119389,1,0,0:0:0:0:
256,192,119451,1,8,0:0:0:0:
256,192,119514,1,0,0:0:0:0:
256,192,119639,1,8,0:0:0:0:
256,192,119701,1,8,0:0:0:0:
256,192,119764,1,0,0:0:0:0:
256,192,119826,1,8,0:0:0:0:
256,192,119889,1,0,0:0:0:0:
256,192,119951,1,0,0:0:0:0:
256,192,120014,1,8,0:0:0:0:
256,192,120264,1,8,0:0:0:0:
256,192,120389,1,0,0:0:0:0:
256,192,120639,1,8,0:0:0:0:
256,192,120764,1,0,0:0:0:0:
256,192,121014,1,8,0:0:0:0:
256,192,121055,1,8,0:0:0:0:
256,192,121097,1,8,0:0:0:0:
256,192,121264,1,0,0:0:0:0:
256,192,121389,1,8,0:0:0:0:
256,192,121430,1,8,0:0:0:0:
256,192,121472,1,8,0:0:0:0:
256,192,121639,1,0,0:0:0:0:
256,192,121764,1,8,0:0:0:0:
256,192,121805,1,8,0:0:0:0:
256,192,121847,1,8,0:0:0:0:
256,192,122014,1,0,0:0:0:0:
256,192,122201,1,8,0:0:0:0:
256,192,122264,1,0,0:0:0:0:
256,192,122326,1,8,0:0:0:0:
256,192,122389,1,0,0:0:0:0:
256,192,122514,1,0,0:0:0:0:
256,192,122639,1,8,0:0:0:0:
256,192,122764,1,0,0:0:0:0:
256,192,122889,1,0,0:0:0:0:
256,192,123014,1,0,0:0:0:0:
256,192,123139,1,8,0:0:0:0:
256,192,123264,1,0,0:0:0:0:
256,192,123389,1,0,0:0:0:0:
256,192,123514,1,0,0:0:0:0:
256,192,123639,1,8,0:0:0:0:
256,192,123764,1,8,0:0:0:0:
256,192,123889,1,0,0:0:0:0:
256,192,124014,1,8,0:0:0:0:
256,192,124139,1,0,0:0:0:0:
256,192,124264,1,8,0:0:0:0:
256,192,124389,1,0,0:0:0:0:
256,192,124514,1,0,0:0:0:0:
256,192,124639,1,8,0:0:0:0:
256,192,124764,1,0,0:0:0:0:
256,192,124889,1,0,0:0:0:0:
256,192,125014,1,8,0:0:0:0:
256,192,125139,1,8,0:0:0:0:
256,192,125201,1,8,0:0:0:0:
256,192,125264,1,0,0:0:0:0:
256,192,125326,1,8,0:0:0:0:
256,192,125389,1,0,0:0:0:0:
256,192,125451,1,8,0:0:0:0:
256,192,125514,1,0,0:0:0:0:
256,192,125639,1,8,0:0:0:0:
256,192,125701,1,0,0:0:0:0:
256,192,125764,1,8,0:0:0:0:
256,192,125826,1,8,0:0:0:0:
256,192,125889,1,0,0:0:0:0:
256,192,126014,1,8,0:0:0:0:
256,192,126055,1,8,0:0:0:0:
256,192,126389,1,0,0:0:0:0:
256,192,126514,1,0,0:0:0:0:
256,192,126639,1,8,0:0:0:0:
256,192,126889,1,8,0:0:0:0:
256,192,127014,1,0,0:0:0:0:
256,192,127139,1,8,0:0:0:0:
256,192,127389,1,0,0:0:0:0:
256,192,127639,1,8,0:0:0:0:
256,192,127889,1,0,0:0:0:0:
256,192,128014,1,8,0:0:0:0:
256,192,128264,1,8,0:0:0:0:
256,192,128389,1,0,0:0:0:0:
256,192,128514,1,0,0:0:0:0:
256,192,128639,1,8,0:0:0:0:
256,192,128764,1,0,0:0:0:0:
256,192,128889,1,0,0:0:0:0:
256,192,129014,1,8,0:0:0:0:
256,192,129139,1,0,0:0:0:0:
256,192,129201,1,8,0:0:0:0:
256,192,129264,1,0,0:0:0:0:
256,192,129389,1,8,0:0:0:0:
256,192,129514,1,0,0:0:0:0:
256,192,129576,1,8,0:0:0:0:
256,192,129639,1,0,0:0:0:0:
256,192,129764,1,8,0:0:0:0:
256,192,129889,1,0,0:0:0:0:
256,192,129951,1,8,0:0:0:0:
256,192,130014,1,0,0:0:0:0:
256,192,130139,1,8,0:0:0:0:
256,192,130201,1,8,0:0:0:0:
256,192,130264,1,8,0:0:0:0:
256,192,130326,1,8,0:0:0:0:
256,192,130389,1,0,0:0:0:0:
256,192,130451,1,0,0:0:0:0:
256,192,130514,1,0,0:0:0:0:
256,192,130576,1,0,0:0:0:0:
256,192,130639,1,8,0:0:0:0:
256,192,130764,1,0,0:0:0:0:
256,192,130889,1,0,0:0:0:0:
256,192,131014,1,8,0:0:0:0:
256,192,131139,1,0,0:0:0:0:
256,192,131264,1,0,0:0:0:0:
256,192,131389,1,8,0:0:0:0:
256,192,131514,1,0,0:0:0:0:
256,192,131639,1,0,0:0:0:0:
256,192,131764,1,8,0:0:0:0:
256,192,131889,1,0,0:0:0:0:
256,192,131951,1,0,0:0:0:0:
256,192,132014,1,8,0:0:0:0:
256,192,132139,1,0,0:0:0:0:
256,192,132264,1,8,0:0:0:0:
256,192,132389,8,0,134264,0:0:0:0:
256,192,134389,5,0,0:0:0:0:
256,192,134514,1,0,0:0:0:0:
256,192,134764,1,0,0:0:0:0:
256,192,134889,1,8,0:0:0:0:
256,192,135139,1,0,0:0:0:0:
256,192,135264,1,0,0:0:0:0:
256,192,135514,1,0,0:0:0:0:
256,192,135576,1,0,0:0:0:0:
256,192,135639,1,8,0:0:0:0:
256,192,135889,1,0,0:0:0:0:
256,192,136014,1,0,0:0:0:0:
256,192,136264,1,0,0:0:0:0:
256,192,136514,1,8,0:0:0:0:
256,192,136576,1,8,0:0:0:0:
256,192,136639,1,8,0:0:0:0:
256,192,136701,1,8,0:0:0:0:
256,192,136764,1,0,0:0:0:0:
256,192,136889,1,8,0:0:0:0:
256,192,137139,1,0,0:0:0:0:
256,192,137264,1,8,0:0:0:0:
256,192,137326,1,8,0:0:0:0:
256,192,137389,1,0,0:0:0:0:
256,192,137514,1,0,0:0:0:0:
256,192,137639,1,8,0:0:0:0:
256,192,137889,1,0,0:0:0:0:
256,192,138014,1,8,0:0:0:0:
256,192,138076,1,8,0:0:0:0:
256,192,138139,1,0,0:0:0:0:
256,192,138264,1,8,0:0:0:0:
256,192,138389,1,0,0:0:0:0:
256,192,138514,1,0,0:0:0:0:
256,192,138639,1,0,0:0:0:0:
256,192,138701,1,0,0:0:0:0:
256,192,138764,1,0,0:0:0:0:
256,192,138826,1,0,0:0:0:0:
256,192,138889,1,8,0:0:0:0:
256,192,139139,1,8,0:0:0:0:
256,192,139201,1,8,0:0:0:0:
256,192,139264,1,8,0:0:0:0:
256,192,139326,1,8,0:0:0:0:
256,192,139389,1,0,0:0:0:0:
256,192,139514,1,8,0:0:0:0:
256,192,139576,1,0,0:0:0:0:
256,192,139639,1,8,0:0:0:0:
256,192,139764,1,0,0:0:0:0:
256,192,139826,1,8,0:0:0:0:
256,192,139889,1,0,0:0:0:0:
256,192,139951,1,8,0:0:0:0:
256,192,140014,1,0,0:0:0:0:
256,192,140076,1,0,0:0:0:0:
256,192,140139,1,0,0:0:0:0:
256,192,140201,1,0,0:0:0:0:
256,192,140264,1,8,0:0:0:0:
256,192,140389,1,0,0:0:0:0:
256,192,140514,1,8,0:0:0:0:
256,192,140639,1,0,0:0:0:0:
256,192,140764,1,0,0:0:0:0:
256,192,140826,1,0,0:0:0:0:
256,192,140889,1,8,0:0:0:0:
256,192,141014,1,0,0:0:0:0:
256,192,141139,1,8,0:0:0:0:
256,192,141264,1,0,0:0:0:0:
256,192,141389,1,8,0:0:0:0:
256,192,141451,1,8,0:0:0:0:
256,192,141514,1,0,0:0:0:0:
256,192,141576,1,0,0:0:0:0:
256,192,141639,1,8,0:0:0:0:
256,192,141764,1,0,0:0:0:0:
256,192,141826,1,0,0:0:0:0:
256,192,141889,1,8,0:0:0:0:
256,192,141951,1,8,0:0:0:0:
256,192,142014,1,0,0:0:0:0:
256,192,142076,1,0,0:0:0:0:
256,192,142139,1,8,0:0:0:0:
256,192,142264,1,0,0:0:0:0:
256,192,142389,1,0,0:0:0:0:
256,192,142514,1,0,0:0:0:0:
256,192,142764,1,0,0:0:0:0:
256,192,142889,1,8,0:0:0:0:
256,192,143139,1,0,0:0:0:0:
256,192,143264,1,0,0:0:0:0:
256,192,143514,1,0,0:0:0:0:
256,192,143576,1,0,0:0:0:0:
256,192,143639,1,8,0:0:0:0:
256,192,143889,1,0,0:0:0:0:
256,192,144014,1,0,0:0:0:0:
256,192,144264,1,0,0:0:0:0:
256,192,144514,1,0,0:0:0:0:
256,192,144764,1,0,0:0:0:0:
256,192,144889,1,8,0:0:0:0:
256,192,145139,1,0,0:0:0:0:
256,192,145264,1,8,0:0:0:0:
256,192,145326,1,8,0:0:0:0:
256,192,145389,1,0,0:0:0:0:
256,192,145514,1,0,0:0:0:0:
256,192,145639,1,8,0:0:0:0:
256,192,145889,1,0,0:0:0:0:
256,192,146014,1,8,0:0:0:0:
256,192,146076,1,8,0:0:0:0:
256,192,146139,1,0,0:0:0:0:
256,192,146264,1,8,0:0:0:0:
256,192,146389,1,0,0:0:0:0:
256,192,146514,1,0,0:0:0:0:
256,192,146639,1,0,0:0:0:0:
256,192,146701,1,0,0:0:0:0:
256,192,146764,1,0,0:0:0:0:
256,192,146826,1,0,0:0:0:0:
256,192,146889,1,8,0:0:0:0:
256,192,147139,1,8,0:0:0:0:
256,192,147201,1,8,0:0:0:0:
256,192,147264,1,8,0:0:0:0:
256,192,147326,1,8,0:0:0:0:
256,192,147389,1,0,0:0:0:0:
256,192,147514,1,0,0:0:0:0:
256,192,147576,1,0,0:0:0:0:
256,192,147639,1,8,0:0:0:0:
256,192,147764,1,0,0:0:0:0:
256,192,147826,1,8,0:0:0:0:
256,192,147889,1,0,0:0:0:0:
256,192,148014,1,8,0:0:0:0:
256,192,148076,1,8,0:0:0:0:
256,192,148139,1,0,0:0:0:0:
256,192,148201,1,0,0:0:0:0:
256,192,148264,1,8,0:0:0:0:
256,192,148389,1,0,0:0:0:0:
256,192,148764,1,0,0:0:0:0:
256,192,148889,1,8,0:0:0:0:
256,192,149139,1,0,0:0:0:0:
256,192,149389,1,8,0:0:0:0:
256,192,149514,1,0,0:0:0:0:
256,192,149889,1,12,0:0:0:0:
256,192,151389,1,0,0:0:0:0:
256,192,151514,1,0,0:0:0:0:
256,192,153014,1,0,0:0:0:0:
256,192,153139,1,0,0:0:0:0:
256,192,153264,1,0,0:0:0:0:
256,192,153389,1,0,0:0:0:0:
256,192,154264,1,0,0:0:0:0:
256,192,154389,1,8,0:0:0:0:
256,192,154639,1,0,0:0:0:0:
256,192,154764,1,8,0:0:0:0:
256,192,155014,1,8,0:0:0:0:
256,192,155139,1,0,0:0:0:0:
256,192,155264,1,8,0:0:0:0:
256,192,155389,1,0,0:0:0:0:
256,192,155514,1,0,0:0:0:0:
256,192,156264,1,0,0:0:0:0:
256,192,157014,1,0,0:0:0:0:
256,192,157264,1,0,0:0:0:0:
256,192,157389,1,0,0:0:0:0:
256,192,157514,1,0,0:0:0:0:
256,192,158139,1,0,0:0:0:0:
256,192,158201,1,8,0:0:0:0:
256,192,158264,1,0,0:0:0:0:
256,192,158326,1,0,0:0:0:0:
256,192,158389,1,8,0:0:0:0:
256,192,158639,1,0,0:0:0:0:
256,192,158764,1,8,0:0:0:0:
256,192,159014,1,0,0:0:0:0:
256,192,159139,1,8,0:0:0:0:
256,192,159201,1,8,0:0:0:0:
256,192,159264,1,8,0:0:0:0:
256,192,159326,1,8,0:0:0:0:
256,192,159389,1,0,0:0:0:0:
256,192,159514,1,0,0:0:0:0:
256,192,161014,1,0,0:0:0:0:
256,192,161264,1,0,0:0:0:0:
256,192,161389,1,0,0:0:0:0:
256,192,162389,1,8,0:0:0:0:
256,192,162639,1,0,0:0:0:0:
256,192,162764,1,8,0:0:0:0:
256,192,163014,1,8,0:0:0:0:
256,192,163076,1,8,0:0:0:0:
256,192,163139,1,0,0:0:0:0:
256,192,163201,1,8,0:0:0:0:
256,192,163264,1,0,0:0:0:0:
256,192,163326,1,8,0:0:0:0:
256,192,163389,1,0,0:0:0:0:
256,192,163514,1,0,0:0:0:0:
256,192,164264,1,0,0:0:0:0:
256,192,165014,1,0,0:0:0:0:
256,192,165264,1,0,0:0:0:0:
256,192,165389,1,0,0:0:0:0:
256,192,165514,1,0,0:0:0:0:
256,192,166139,1,0,0:0:0:0:
256,192,166264,1,0,0:0:0:0:
256,192,166389,1,8,0:0:0:0:
256,192,166889,1,8,0:0:0:0:
256,192,167389,1,0,0:0:0:0:
256,192,167514,1,8,0:0:0:0:
256,192,167701,1,0,0:0:0:0:
256,192,167764,1,8,0:0:0:0:
256,192,167889,1,0,0:0:0:0:
256,192,168014,1,8,0:0:0:0:
256,192,168201,1,0,0:0:0:0:
256,192,168264,1,8,0:0:0:0:
256,192,168389,1,0,0:0:0:0:
256,192,168514,1,8,0:0:0:0:
256,192,168701,1,0,0:0:0:0:
256,192,168764,1,8,0:0:0:0:
256,192,168889,1,0,0:0:0:0:
256,192,169014,1,8,0:0:0:0:
256,192,169201,1,0,0:0:0:0:
256,192,169264,1,8,0:0:0:0:
256,192,169326,1,8,0:0:0:0:
256,192,169389,1,0,0:0:0:0:
256,192,169514,1,8,0:0:0:0:
256,192,169701,1,0,0:0:0:0:
256,192,169764,1,8,0:0:0:0:
256,192,169889,1,0,0:0:0:0:
256,192,170014,1,8,0:0:0:0:
256,192,170201,1,0,0:0:0:0:
256,192,170264,1,8,0:0:0:0:
256,192,170389,1,0,0:0:0:0:
256,192,170451,1,0,0:0:0:0:
256,192,170514,1,8,0:0:0:0:
256,192,170576,1,8,0:0:0:0:
256,192,170639,1,0,0:0:0:0:
256,192,170701,1,0,0:0:0:0:
256,192,170764,1,8,0:0:0:0:
256,192,170889,1,0,0:0:0:0:
256,192,171014,1,8,0:0:0:0:
256,192,171201,1,0,0:0:0:0:
256,192,171264,1,8,0:0:0:0:
256,192,171326,1,8,0:0:0:0:
256,192,171389,1,0,0:0:0:0:
256,192,171514,1,8,0:0:0:0:
256,192,171701,1,0,0:0:0:0:
256,192,171764,1,8,0:0:0:0:
256,192,171889,1,0,0:0:0:0:
256,192,172014,1,8,0:0:0:0:
256,192,172201,1,0,0:0:0:0:
256,192,172264,1,8,0:0:0:0:
256,192,172389,1,0,0:0:0:0:
256,192,172514,1,8,0:0:0:0:
256,192,172701,1,0,0:0:0:0:
256,192,172764,1,8,0:0:0:0:
256,192,172889,1,0,0:0:0:0:
256,192,173014,1,8,0:0:0:0:
256,192,173201,1,0,0:0:0:0:
256,192,173264,1,8,0:0:0:0:
256,192,173326,1,8,0:0:0:0:
256,192,173389,1,0,0:0:0:0:
256,192,173514,1,8,0:0:0:0:
256,192,173701,1,0,0:0:0:0:
256,192,173764,1,8,0:0:0:0:
256,192,173889,1,0,0:0:0:0:
256,192,174014,1,8,0:0:0:0:
256,192,174201,1,8,0:0:0:0:
256,192,174264,1,8,0:0:0:0:
256,192,174389,1,0,0:0:0:0:
256,192,174514,1,8,0:0:0:0:
256,192,174576,1,8,0:0:0:0:
256,192,174639,1,0,0:0:0:0:
256,192,174701,1,8,0:0:0:0:
256,192,174764,1,0,0:0:0:0:
256,192,174889,1,8,0:0:0:0:
256,192,174951,1,8,0:0:0:0:
256,192,175014,1,0,0:0:0:0:
256,192,175076,1,8,0:0:0:0:
256,192,175139,1,0,0:0:0:0:
256,192,175201,1,0,0:0:0:0:
256,192,175264,1,8,0:0:0:0:
256,192,175326,1,8,0:0:0:0:
256,192,175389,1,0,0:0:0:0:
256,192,175514,1,8,0:0:0:0:
256,192,175701,1,0,0:0:0:0:
256,192,175764,1,8,0:0:0:0:
256,192,175889,1,0,0:0:0:0:
256,192,176014,1,8,0:0:0:0:
256,192,176201,1,0,0:0:0:0:
256,192,176264,1,8,0:0:0:0:
256,192,176389,1,0,0:0:0:0:
256,192,176514,1,8,0:0:0:0:
256,192,176701,1,0,0:0:0:0:
256,192,176764,1,8,0:0:0:0:
256,192,176889,1,0,0:0:0:0:
256,192,177014,1,8,0:0:0:0:
256,192,177201,1,0,0:0:0:0:
256,192,177264,1,8,0:0:0:0:
256,192,177326,1,8,0:0:0:0:
256,192,177389,1,0,0:0:0:0:
256,192,177514,1,8,0:0:0:0:
256,192,177701,1,0,0:0:0:0:
256,192,177764,1,8,0:0:0:0:
256,192,177889,1,0,0:0:0:0:
256,192,178014,1,8,0:0:0:0:
256,192,178201,1,0,0:0:0:0:
256,192,178264,1,8,0:0:0:0:
256,192,178389,1,0,0:0:0:0:
256,192,178451,1,0,0:0:0:0:
256,192,178514,1,8,0:0:0:0:
256,192,178576,1,0,0:0:0:0:
256,192,178639,1,8,0:0:0:0:
256,192,178701,1,0,0:0:0:0:
256,192,178764,1,8,0:0:0:0:
256,192,178889,1,0,0:0:0:0:
256,192,179014,1,8,0:0:0:0:
256,192,179201,1,0,0:0:0:0:
256,192,179264,1,8,0:0:0:0:
256,192,179326,1,8,0:0:0:0:
256,192,179389,1,0,0:0:0:0:
256,192,179514,1,8,0:0:0:0:
256,192,179701,1,8,0:0:0:0:
256,192,179764,1,0,0:0:0:0:
256,192,180014,1,8,0:0:0:0:
256,192,180201,1,0,0:0:0:0:
256,192,180264,1,8,0:0:0:0:
256,192,180389,1,0,0:0:0:0:
256,192,180514,1,8,0:0:0:0:
256,192,180701,1,8,0:0:0:0:
256,192,180764,1,0,0:0:0:0:
256,192,181014,1,8,0:0:0:0:
256,192,181201,1,0,0:0:0:0:
256,192,181264,1,8,0:0:0:0:
256,192,181326,1,8,0:0:0:0:
256,192,181389,1,0,0:0:0:0:
256,192,181514,1,8,0:0:0:0:
256,192,181701,1,0,0:0:0:0:
256,192,181764,1,8,0:0:0:0:
256,192,181889,1,0,0:0:0:0:
256,192,182014,1,8,0:0:0:0:
256,192,182201,1,0,0:0:0:0:
256,192,182264,1,8,0:0:0:0:
256,192,182389,1,0,0:0:0:0:
256,192,182451,1,0,0:0:0:0:
256,192,182514,1,8,0:0:0:0:
256,192,182576,1,8,0:0:0:0:
256,192,182639,1,0,0:0:0:0:
256,192,182764,1,8,0:0:0:0:
256,192,183014,1,0,0:0:0:0:
256,192,183139,1,8,0:0:0:0:
256,192,183201,1,8,0:0:0:0:
256,192,183264,1,0,0:0:0:0:
256,192,183389,1,8,0:0:0:0:
256,192,183514,1,8,0:0:0:0:
256,192,183764,1,0,0:0:0:0:
256,192,184014,1,0,0:0:0:0:
256,192,184264,1,8,0:0:0:0:
256,192,184389,1,0,0:0:0:0:
256,192,184514,1,0,0:0:0:0:
256,192,184764,1,0,0:0:0:0:
256,192,185014,1,0,0:0:0:0:
256,192,185076,1,0,0:0:0:0:
256,192,185139,1,0,0:0:0:0:
256,192,185201,1,0,0:0:0:0:
256,192,185264,1,8,0:0:0:0:
256,192,185389,1,0,0:0:0:0:
256,192,185514,1,8,0:0:0:0:
256,192,185764,1,0,0:0:0:0:
256,192,185889,1,8,0:0:0:0:
256,192,186014,1,0,0:0:0:0:
256,192,186139,1,0,0:0:0:0:
256,192,186264,1,8,0:0:0:0:
256,192,186389,1,0,0:0:0:0:
256,192,186514,1,8,0:0:0:0:
256,192,186764,1,0,0:0:0:0:
256,192,186889,1,8,0:0:0:0:
256,192,187139,1,0,0:0:0:0:
256,192,187264,1,8,0:0:0:0:
256,192,187389,1,0,0:0:0:0:
256,192,187514,1,8,0:0:0:0:
256,192,187764,1,0,0:0:0:0:
256,192,187889,1,8,0:0:0:0:
256,192,188014,1,0,0:0:0:0:
256,192,188139,1,0,0:0:0:0:
256,192,188264,1,8,0:0:0:0:
256,192,188514,1,8,0:0:0:0:
256,192,188639,1,0,0:0:0:0:
256,192,188764,1,8,0:0:0:0:
256,192,188826,1,8,0:0:0:0:
256,192,188889,1,0,0:0:0:0:
256,192,189014,1,8,0:0:0:0:
256,192,189139,1,0,0:0:0:0:
256,192,189264,1,8,0:0:0:0:
256,192,189514,1,8,0:0:0:0:
256,192,189639,1,0,0:0:0:0:
256,192,189764,1,8,0:0:0:0:
256,192,189889,1,0,0:0:0:0:
256,192,190014,1,0,0:0:0:0:
256,192,190264,1,8,0:0:0:0:
256,192,190389,1,0,0:0:0:0:
256,192,190514,1,8,0:0:0:0:
256,192,190764,1,0,0:0:0:0:
256,192,191014,1,0,0:0:0:0:
256,192,191264,1,8,0:0:0:0:
256,192,191326,1,8,0:0:0:0:
256,192,191389,1,8,0:0:0:0:
256,192,191514,1,0,0:0:0:0:
256,192,191764,1,8,0:0:0:0:
256,192,191889,1,0,0:0:0:0:
256,192,192014,1,8,0:0:0:0:
256,192,192139,1,0,0:0:0:0:
256,192,192264,1,8,0:0:0:0:
256,192,192326,1,8,0:0:0:0:
256,192,192389,1,0,0:0:0:0:
256,192,192514,1,8,0:0:0:0:
256,192,192764,1,0,0:0:0:0:
256,192,192889,1,8,0:0:0:0:
256,192,193014,1,0,0:0:0:0:
256,192,193139,1,0,0:0:0:0:
256,192,193264,1,8,0:0:0:0:
256,192,193514,1,8,0:0:0:0:
256,192,193639,1,0,0:0:0:0:
256,192,193764,1,8,0:0:0:0:
256,192,193826,1,8,0:0:0:0:
256,192,193889,1,0,0:0:0:0:
256,192,194014,1,8,0:0:0:0:
256,192,194139,1,0,0:0:0:0:
256,192,194264,1,8,0:0:0:0:
256,192,194389,1,0,0:0:0:0:
256,192,194514,1,8,0:0:0:0:
256,192,194576,1,8,0:0:0:0:
256,192,194639,1,0,0:0:0:0:
256,192,194764,1,8,0:0:0:0:
256,192,194889,1,0,0:0:0:0:
256,192,194951,1,0,0:0:0:0:
256,192,195014,1,8,0:0:0:0:
256,192,195139,1,0,0:0:0:0:
256,192,195201,1,0,0:0:0:0:
256,192,195264,1,8,0:0:0:0:
256,192,195326,1,8,0:0:0:0:
256,192,195389,1,0,0:0:0:0:
256,192,195514,1,8,0:0:0:0:
256,192,195764,1,8,0:0:0:0:
256,192,196014,1,8,0:0:0:0:
256,192,196139,1,0,0:0:0:0:
256,192,196264,1,8,0:0:0:0:
256,192,196389,1,0,0:0:0:0:
256,192,196514,1,0,0:0:0:0:
256,192,196639,1,8,0:0:0:0:
256,192,196889,1,8,0:0:0:0:
256,192,197014,1,0,0:0:0:0:
256,192,197139,1,0,0:0:0:0:
256,192,197264,1,8,0:0:0:0:
256,192,197514,1,8,0:0:0:0:
256,192,197639,1,0,0:0:0:0:
256,192,197764,1,8,0:0:0:0:
256,192,197889,1,0,0:0:0:0:
256,192,198014,1,8,0:0:0:0:
256,192,198076,1,8,0:0:0:0:
256,192,198139,1,0,0:0:0:0:
256,192,198264,1,0,0:0:0:0:
256,192,198389,1,8,0:0:0:0:
256,192,198514,1,0,0:0:0:0:
256,192,198764,1,8,0:0:0:0:
256,192,198826,1,8,0:0:0:0:
256,192,198889,1,8,0:0:0:0:
256,192,198951,1,8,0:0:0:0:
256,192,199014,1,0,0:0:0:0:
256,192,199107,1,8,0:0:0:0:
256,192,199139,1,8,0:0:0:0:
256,192,199389,1,0,0:0:0:0:
256,192,199514,1,8,0:0:0:0:
256,192,199639,1,0,0:0:0:0:
256,192,199764,1,0,0:0:0:0:
256,192,199889,1,8,0:0:0:0:
256,192,200014,1,8,0:0:0:0:
256,192,200139,1,0,0:0:0:0:
256,192,200201,1,8,0:0:0:0:
256,192,200264,1,0,0:0:0:0:
256,192,200389,1,8,0:0:0:0:
256,192,200451,1,8,0:0:0:0:
256,192,200514,1,0,0:0:0:0:
256,192,200639,1,8,0:0:0:0:
256,192,200764,1,0,0:0:0:0:
256,192,200889,1,8,0:0:0:0:
256,192,201014,1,0,0:0:0:0:
256,192,201139,1,0,0:0:0:0:
256,192,201264,1,0,0:0:0:0:
256,192,201389,1,8,0:0:0:0:
256,192,201514,1,0,0:0:0:0:
256,192,201639,1,8,0:0:0:0:
256,192,201764,1,0,0:0:0:0:
256,192,201889,1,8,0:0:0:0:
256,192,202014,1,0,0:0:0:0:
256,192,202139,1,0,0:0:0:0:
256,192,202264,1,0,0:0:0:0:
256,192,202389,1,8,0:0:0:0:
256,192,202514,1,0,0:0:0:0:
256,192,202576,1,0,0:0:0:0:
256,192,202639,1,8,0:0:0:0:
256,192,202764,1,0,0:0:0:0:
256,192,202889,1,8,0:0:0:0:
256,192,202951,1,8,0:0:0:0:
256,192,203014,1,0,0:0:0:0:
256,192,203076,1,0,0:0:0:0:
256,192,203139,1,8,0:0:0:0:
256,192,203264,1,8,0:0:0:0:
256,192,203326,1,8,0:0:0:0:
256,192,203389,1,0,0:0:0:0:
256,192,203514,1,8,0:0:0:0:
256,192,203639,1,0,0:0:0:0:
256,192,203764,1,0,0:0:0:0:
256,192,203889,1,8,0:0:0:0:
256,192,204014,1,8,0:0:0:0:
256,192,204139,1,0,0:0:0:0:
256,192,204201,1,8,0:0:0:0:
256,192,204264,1,0,0:0:0:0:
256,192,204389,1,8,0:0:0:0:
256,192,204514,1,0,0:0:0:0:
256,192,204639,1,0,0:0:0:0:
256,192,204764,1,0,0:0:0:0:
256,192,204889,1,8,0:0:0:0:
256,192,205014,1,0,0:0:0:0:
256,192,205139,1,8,0:0:0:0:
256,192,205264,1,0,0:0:0:0:
256,192,205326,1,0,0:0:0:0:
256,192,205389,1,8,0:0:0:0:
256,192,205514,1,0,0:0:0:0:
256,192,205576,1,8,0:0:0:0:
256,192,205639,1,0,0:0:0:0:
256,192,205764,1,0,0:0:0:0:
256,192,205889,1,8,0:0:0:0:
256,192,206014,1,0,0:0:0:0:
256,192,206139,1,8,0:0:0:0:
256,192,206264,1,0,0:0:0:0:
256,192,206389,1,8,0:0:0:0:
256,192,206451,1,8,0:0:0:0:
256,192,206514,1,8,0:0:0:0:
256,192,206576,1,8,0:0:0:0:
256,192,206639,1,0,0:0:0:0:
256,192,206764,1,8,0:0:0:0:
256,192,206826,1,8,0:0:0:0:
256,192,206889,1,0,0:0:0:0:
256,192,207014,1,0,0:0:0:0:
256,192,207076,1,0,0:0:0:0:
256,192,207139,1,8,0:0:0:0:
256,192,207201,1,8,0:0:0:0:
256,192,207264,1,0,0:0:0:0:
256,192,207389,1,8,0:0:0:0:
256,192,207451,1,8,0:0:0:0:
256,192,207514,1,0,0:0:0:0:
256,192,207639,1,8,0:0:0:0:
256,192,207764,1,0,0:0:0:0:
256,192,207889,1,8,0:0:0:0:
256,192,208014,1,0,0:0:0:0:
256,192,208139,1,8,0:0:0:0:
256,192,208201,1,8,0:0:0:0:
256,192,208264,1,0,0:0:0:0:
256,192,208389,1,8,0:0:0:0:
256,192,208514,1,0,0:0:0:0:
256,192,208639,1,8,0:0:0:0:
256,192,208764,1,0,0:0:0:0:
256,192,208889,1,8,0:0:0:0:
256,192,209014,1,0,0:0:0:0:
256,192,209139,1,0,0:0:0:0:
256,192,209264,1,8,0:0:0:0:
256,192,209326,1,8,0:0:0:0:
256,192,209389,1,0,0:0:0:0:
256,192,209514,1,8,0:0:0:0:
256,192,209576,1,8,0:0:0:0:
256,192,209639,1,0,0:0:0:0:
256,192,209764,1,8,0:0:0:0:
256,192,209889,1,8,0:0:0:0:
256,192,210014,1,0,0:0:0:0:
256,192,210139,1,0,0:0:0:0:
256,192,210264,1,0,0:0:0:0:
256,192,210389,1,8,0:0:0:0:
256,192,210514,1,0,0:0:0:0:
256,192,210576,1,8,0:0:0:0:
256,192,210639,1,0,0:0:0:0:
256,192,210764,1,8,0:0:0:0:
256,192,210889,1,0,0:0:0:0:
256,192,210951,1,0,0:0:0:0:
256,192,211014,1,8,0:0:0:0:
256,192,211076,1,8,0:0:0:0:
256,192,211139,1,0,0:0:0:0:
256,192,211264,1,8,0:0:0:0:
256,192,211389,1,0,0:0:0:0:
256,192,211451,1,0,0:0:0:0:
256,192,211514,1,0,0:0:0:0:
256,192,211639,1,8,0:0:0:0:
256,192,211764,1,0,0:0:0:0:
256,192,211889,1,8,0:0:0:0:
256,192,212014,1,8,0:0:0:0:
256,192,212139,1,0,0:0:0:0:
256,192,212201,1,0,0:0:0:0:
256,192,212264,1,8,0:0:0:0:
256,192,212389,1,0,0:0:0:0:
256,192,212514,1,0,0:0:0:0:
256,192,212639,1,8,0:0:0:0:
256,192,212764,1,0,0:0:0:0:
256,192,212889,1,8,0:0:0:0:
256,192,213014,1,8,0:0:0:0:
256,192,213139,1,0,0:0:0:0:
256,192,213264,1,8,0:0:0:0:
256,192,213326,1,8,0:0:0:0:
256,192,213389,1,0,0:0:0:0:
256,192,213514,1,8,0:0:0:0:
256,192,213576,1,0,0:0:0:0:
256,192,213639,1,8,0:0:0:0:
256,192,213764,1,0,0:0:0:0:
256,192,213889,1,8,0:0:0:0:
256,192,214014,1,8,0:0:0:0:
256,192,214139,1,0,0:0:0:0:
256,192,214264,1,0,0:0:0:0:
256,192,214389,1,8,0:0:0:0:
256,192,214451,1,8,0:0:0:0:
256,192,214514,1,0,0:0:0:0:
256,192,214576,1,0,0:0:0:0:
256,192,214639,1,8,0:0:0:0:
256,192,214764,1,0,0:0:0:0:
256,192,214889,1,8,0:0:0:0:
256,192,214951,1,0,0:0:0:0:
256,192,215014,1,8,0:0:0:0:
256,192,215076,1,8,0:0:0:0:
256,192,215139,1,0,0:0:0:0:
256,192,215264,1,8,0:0:0:0:
256,192,215389,1,0,0:0:0:0:
256,192,215514,1,8,0:0:0:0:
256,192,215555,1,8,0:0:0:0:
256,192,215597,1,8,0:0:0:0:
256,192,215639,1,0,0:0:0:0:
256,192,215764,1,8,0:0:0:0:
256,192,215889,1,0,0:0:0:0:
256,192,216014,1,8,0:0:0:0:
256,192,216076,1,8,0:0:0:0:
256,192,216139,1,0,0:0:0:0:
256,192,216264,1,8,0:0:0:0:
256,192,216514,1,0,0:0:0:0:
256,192,216764,1,0,0:0:0:0:
256,192,217014,1,0,0:0:0:0:
256,192,217264,1,0,0:0:0:0:
256,192,217389,1,0,0:0:0:0:
256,192,217514,1,8,0:0:0:0:
256,192,217701,1,0,0:0:0:0:
256,192,217764,1,8,0:0:0:0:
256,192,217826,1,8,0:0:0:0:
256,192,217889,1,0,0:0:0:0:
256,192,218014,1,8,0:0:0:0:
256,192,218201,1,0,0:0:0:0:
256,192,218264,1,8,0:0:0:0:
256,192,218389,1,0,0:0:0:0:
256,192,218451,1,0,0:0:0:0:
256,192,218514,1,8,0:0:0:0:
256,192,218576,1,0,0:0:0:0:
256,192,218639,1,8,0:0:0:0:
256,192,218701,1,0,0:0:0:0:
256,192,218764,1,8,0:0:0:0:
256,192,218826,1,8,0:0:0:0:
256,192,218889,1,0,0:0:0:0:
256,192,219014,1,8,0:0:0:0:
256,192,219139,1,0,0:0:0:0:
256,192,219201,1,0,0:0:0:0:
256,192,219264,1,8,0:0:0:0:
256,192,219326,1,8,0:0:0:0:
256,192,219389,1,0,0:0:0:0:
256,192,219514,1,8,0:0:0:0:
256,192,219701,1,0,0:0:0:0:
256,192,219764,1,8,0:0:0:0:
256,192,219805,1,8,0:0:0:0:
256,192,219847,1,8,0:0:0:0:
256,192,219889,1,0,0:0:0:0:
256,192,220014,1,8,0:0:0:0:
256,192,220201,1,0,0:0:0:0:
256,192,220264,1,8,0:0:0:0:
256,192,220389,1,0,0:0:0:0:
256,192,220514,1,8,0:0:0:0:
256,192,220576,1,8,0:0:0:0:
256,192,220639,1,0,0:0:0:0:
256,192,220701,1,0,0:0:0:0:
256,192,220764,1,8,0:0:0:0:
256,192,220826,1,8,0:0:0:0:
256,192,220889,1,0,0:0:0:0:
256,192,220951,1,0,0:0:0:0:
256,192,221014,1,8,0:0:0:0:
256,192,221201,1,0,0:0:0:0:
256,192,221264,1,0,0:0:0:0:
256,192,221326,1,8,0:0:0:0:
256,192,221389,1,0,0:0:0:0:
256,192,221514,1,0,0:0:0:0:
256,192,221576,1,0,0:0:0:0:
256,192,221639,1,8,0:0:0:0:
256,192,221701,1,0,0:0:0:0:
256,192,221764,1,8,0:0:0:0:
256,192,221889,1,0,0:0:0:0:
256,192,222014,1,8,0:0:0:0:
256,192,222076,1,8,0:0:0:0:
256,192,222139,1,0,0:0:0:0:
256,192,222201,1,0,0:0:0:0:
256,192,222264,1,8,0:0:0:0:
256,192,222389,1,0,0:0:0:0:
256,192,222514,1,8,0:0:0:0:
256,192,222576,1,8,0:0:0:0:
256,192,222639,1,0,0:0:0:0:
256,192,222701,1,8,0:0:0:0:
256,192,222764,1,0,0:0:0:0:
256,192,222889,1,8,0:0:0:0:
256,192,222951,1,8,0:0:0:0:
256,192,223014,1,8,0:0:0:0:
256,192,223076,1,8,0:0:0:0:
256,192,223139,1,0,0:0:0:0:
256,192,223201,1,0,0:0:0:0:
256,192,223264,1,8,0:0:0:0:
256,192,223326,1,8,0:0:0:0:
256,192,223389,1,0,0:0:0:0:
256,192,223514,1,8,0:0:0:0:
256,192,223701,1,0,0:0:0:0:
256,192,223764,1,8,0:0:0:0:
256,192,223889,1,0,0:0:0:0:
256,192,224014,1,8,0:0:0:0:
256,192,224201,1,0,0:0:0:0:
256,192,224264,1,8,0:0:0:0:
256,192,224326,1,8,0:0:0:0:
256,192,224389,1,0,0:0:0:0:
256,192,224451,1,0,0:0:0:0:
256,192,224514,1,8,0:0:0:0:
256,192,224701,1,0,0:0:0:0:
256,192,224764,1,8,0:0:0:0:
256,192,224826,1,8,0:0:0:0:
256,192,224889,1,0,0:0:0:0:
256,192,224951,1,0,0:0:0:0:
256,192,225014,1,8,0:0:0:0:
256,192,225201,1,0,0:0:0:0:
256,192,225264,1,0,0:0:0:0:
256,192,225326,1,8,0:0:0:0:
256,192,225389,1,0,0:0:0:0:
256,192,225514,1,8,0:0:0:0:
256,192,225576,1,8,0:0:0:0:
256,192,225639,1,0,0:0:0:0:
256,192,225701,1,0,0:0:0:0:
256,192,225764,1,8,0:0:0:0:
256,192,225889,1,0,0:0:0:0:
256,192,226014,1,8,0:0:0:0:
256,192,226076,1,8,0:0:0:0:
256,192,226139,1,0,0:0:0:0:
256,192,226201,1,0,0:0:0:0:
256,192,226264,1,8,0:0:0:0:
256,192,226389,1,0,0:0:0:0:
256,192,226451,1,0,0:0:0:0:
256,192,226514,1,8,0:0:0:0:
256,192,226576,1,0,0:0:0:0:
256,192,226639,1,8,0:0:0:0:
256,192,226701,1,0,0:0:0:0:
256,192,226764,1,8,0:0:0:0:
256,192,226826,1,8,0:0:0:0:
256,192,226889,1,0,0:0:0:0:
256,192,227014,1,8,0:0:0:0:
256,192,227076,1,8,0:0:0:0:
256,192,227139,1,0,0:0:0:0:
256,192,227201,1,0,0:0:0:0:
256,192,227264,1,8,0:0:0:0:
256,192,227326,1,8,0:0:0:0:
256,192,227389,1,0,0:0:0:0:
256,192,227514,1,8,0:0:0:0:
256,192,227576,1,8,0:0:0:0:
256,192,227639,1,0,0:0:0:0:
256,192,227701,1,0,0:0:0:0:
256,192,227764,1,8,0:0:0:0:
256,192,227889,1,0,0:0:0:0:
256,192,228014,1,8,0:0:0:0:
256,192,228201,1,0,0:0:0:0:
256,192,228264,1,8,0:0:0:0:
256,192,228389,1,0,0:0:0:0:
256,192,228514,1,8,0:0:0:0:
256,192,228576,1,0,0:0:0:0:
256,192,228639,1,8,0:0:0:0:
256,192,228701,1,0,0:0:0:0:
256,192,228764,1,8,0:0:0:0:
256,192,228826,1,8,0:0:0:0:
256,192,228889,1,0,0:0:0:0:
256,192,229014,1,8,0:0:0:0:
256,192,229076,1,8,0:0:0:0:
256,192,229139,1,0,0:0:0:0:
256,192,229201,1,0,0:0:0:0:
256,192,229264,1,8,0:0:0:0:
256,192,229326,1,8,0:0:0:0:
256,192,229389,1,0,0:0:0:0:
256,192,229514,1,8,0:0:0:0:
256,192,229576,1,8,0:0:0:0:
256,192,229639,1,0,0:0:0:0:
256,192,229701,1,0,0:0:0:0:
256,192,229764,1,8,0:0:0:0:
256,192,229889,1,0,0:0:0:0:
256,192,230014,1,8,0:0:0:0:
256,192,230076,1,8,0:0:0:0:
256,192,230139,1,0,0:0:0:0:
256,192,230201,1,8,0:0:0:0:
256,192,230264,1,0,0:0:0:0:
256,192,230389,1,8,0:0:0:0:
256,192,230451,1,8,0:0:0:0:
256,192,230514,1,0,0:0:0:0:
256,192,230576,1,0,0:0:0:0:
256,192,230639,1,8,0:0:0:0:
256,192,230701,1,0,0:0:0:0:
256,192,230764,1,8,0:0:0:0:
256,192,230826,1,0,0:0:0:0:
256,192,230889,1,8,0:0:0:0:
256,192,231389,1,0,0:0:0:0:
256,192,231514,1,0,0:0:0:0:
256,192,231639,1,0,0:0:0:0:
256,192,231764,1,0,0:0:0:0:
256,192,231889,1,8,0:0:0:0:
256,192,232014,1,0,0:0:0:0:
256,192,232139,1,0,0:0:0:0:
256,192,232264,1,0,0:0:0:0:
256,192,232389,1,0,0:0:0:0:
256,192,232514,1,0,0:0:0:0:
256,192,232639,1,0,0:0:0:0:
256,192,232764,1,0,0:0:0:0:
256,192,232889,1,8,0:0:0:0:
256,192,233014,1,0,0:0:0:0:
256,192,233139,1,0,0:0:0:0:
256,192,233264,1,8,0:0:0:0:
256,192,233326,1,8,0:0:0:0:
256,192,233389,1,0,0:0:0:0:
256,192,233514,1,8,0:0:0:0:
256,192,233576,1,8,0:0:0:0:
256,192,233639,1,0,0:0:0:0:
256,192,233764,1,8,0:0:0:0:
256,192,233889,1,8,0:0:0:0:
256,192,234014,1,0,0:0:0:0:
256,192,234139,1,0,0:0:0:0:
256,192,234264,1,0,0:0:0:0:
256,192,234389,1,8,0:0:0:0:
256,192,234514,1,0,0:0:0:0:
256,192,234764,1,0,0:0:0:0:
256,192,234889,1,8,0:0:0:0:
256,192,235014,1,0,0:0:0:0:
256,192,235264,1,8,0:0:0:0:
256,192,235389,1,0,0:0:0:0:
256,192,235514,1,0,0:0:0:0:
256,192,235639,1,0,0:0:0:0:
256,192,235764,1,0,0:0:0:0:
256,192,235889,1,8,0:0:0:0:
256,192,236014,1,0,0:0:0:0:
256,192,236139,1,8,0:0:0:0:
256,192,236201,1,8,0:0:0:0:
256,192,236264,1,8,0:0:0:0:
256,192,236389,1,0,0:0:0:0:
256,192,236514,1,8,0:0:0:0:
256,192,236639,1,0,0:0:0:0:
256,192,236764,1,0,0:0:0:0:
256,192,236889,1,8,0:0:0:0:
256,192,237014,1,0,0:0:0:0:
256,192,237139,1,0,0:0:0:0:
256,192,237264,1,8,0:0:0:0:
256,192,237326,1,8,0:0:0:0:
256,192,237389,1,0,0:0:0:0:
256,192,237514,1,8,0:0:0:0:
256,192,237576,1,8,0:0:0:0:
256,192,237639,1,0,0:0:0:0:
256,192,237764,1,8,0:0:0:0:
256,192,237889,1,8,0:0:0:0:
256,192,238014,1,0,0:0:0:0:
256,192,238139,1,0,0:0:0:0:
256,192,238264,1,0,0:0:0:0:
256,192,238389,1,8,0:0:0:0:
256,192,238514,1,0,0:0:0:0:
256,192,238639,1,0,0:0:0:0:
256,192,238764,1,8,0:0:0:0:
256,192,238889,1,0,0:0:0:0:
256,192,239014,1,0,0:0:0:0:
256,192,239139,1,0,0:0:0:0:
256,192,239264,1,8,0:0:0:0:
256,192,239389,1,0,0:0:0:0:
256,192,239451,1,0,0:0:0:0:
256,192,239514,1,0,0:0:0:0:
256,192,239639,1,0,0:0:0:0:
256,192,239764,1,0,0:0:0:0:
256,192,239889,1,8,0:0:0:0:
256,192,240014,1,0,0:0:0:0:
256,192,240139,1,8,0:0:0:0:
256,192,240201,1,8,0:0:0:0:
256,192,240264,1,8,0:0:0:0:
256,192,240389,1,0,0:0:0:0:
256,192,240514,1,8,0:0:0:0:
256,192,240639,1,0,0:0:0:0:
256,192,240764,1,0,0:0:0:0:
256,192,240889,1,8,0:0:0:0:
256,192,241014,1,0,0:0:0:0:
256,192,241139,1,0,0:0:0:0:
256,192,241264,1,8,0:0:0:0:
256,192,241326,1,8,0:0:0:0:
256,192,241389,1,0,0:0:0:0:
256,192,241514,1,8,0:0:0:0:
256,192,241576,1,8,0:0:0:0:
256,192,241639,1,0,0:0:0:0:
256,192,241764,1,8,0:0:0:0:
256,192,241889,1,8,0:0:0:0:
256,192,242014,1,0,0:0:0:0:
256,192,242139,1,0,0:0:0:0:
256,192,242264,1,0,0:0:0:0:
256,192,242389,1,8,0:0:0:0:
256,192,242514,1,0,0:0:0:0:
256,192,242764,1,0,0:0:0:0:
256,192,242889,1,8,0:0:0:0:
256,192,243014,1,0,0:0:0:0:
256,192,243264,1,8,0:0:0:0:
256,192,243389,1,0,0:0:0:0:
256,192,243451,1,0,0:0:0:0:
256,192,243514,1,0,0:0:0:0:
256,192,243639,1,0,0:0:0:0:
256,192,243764,1,0,0:0:0:0:
256,192,243889,1,8,0:0:0:0:
256,192,244014,1,0,0:0:0:0:
256,192,244139,1,8,0:0:0:0:
256,192,244201,1,8,0:0:0:0:
256,192,244264,1,8,0:0:0:0:
256,192,244389,1,0,0:0:0:0:
256,192,244514,1,8,0:0:0:0:
256,192,244639,1,0,0:0:0:0:
256,192,244764,1,0,0:0:0:0:
256,192,244889,1,8,0:0:0:0:
256,192,245014,1,0,0:0:0:0:
256,192,245139,1,0,0:0:0:0:
256,192,245264,1,8,0:0:0:0:
256,192,245326,1,8,0:0:0:0:
256,192,245389,1,0,0:0:0:0:
256,192,245514,1,8,0:0:0:0:
256,192,245576,1,8,0:0:0:0:
256,192,245639,1,0,0:0:0:0:
256,192,245764,1,8,0:0:0:0:
256,192,245889,1,8,0:0:0:0:
256,192,246014,1,0,0:0:0:0:
256,192,246139,1,0,0:0:0:0:
256,192,246264,1,0,0:0:0:0:
256,192,246389,1,8,0:0:0:0:
256,192,246514,1,0,0:0:0:0:
256,192,246764,1,0,0:0:0:0:
256,192,246889,1,8,0:0:0:0:
256,192,247014,1,0,0:0:0:0:
256,192,247264,1,8,0:0:0:0:
256,192,247389,1,0,0:0:0:0:
256,192,247451,1,0,0:0:0:0:
256,192,247514,1,0,0:0:0:0:
256,192,247639,1,0,0:0:0:0:
256,192,247764,1,0,0:0:0:0:
256,192,247889,1,8,0:0:0:0:
256,192,248014,1,0,0:0:0:0:
256,192,248139,1,8,0:0:0:0:
256,192,248201,1,8,0:0:0:0:
256,192,248264,1,8,0:0:0:0:
256,192,248389,1,0,0:0:0:0:
256,192,248514,1,8,0:0:0:0:
256,192,248639,1,0,0:0:0:0:
256,192,248764,1,0,0:0:0:0:
256,192,248889,1,8,0:0:0:0:
256,192,249014,1,0,0:0:0:0:
256,192,249139,1,0,0:0:0:0:
256,192,249264,1,8,0:0:0:0:
256,192,249326,1,8,0:0:0:0:
256,192,249389,1,0,0:0:0:0:
256,192,249514,1,8,0:0:0:0:
256,192,249576,1,8,0:0:0:0:
256,192,249639,1,0,0:0:0:0:
256,192,249764,1,8,0:0:0:0:
256,192,249889,1,8,0:0:0:0:
256,192,250014,1,0,0:0:0:0:
256,192,250139,1,0,0:0:0:0:
256,192,250264,1,0,0:0:0:0:
256,192,250389,1,8,0:0:0:0:
256,192,250514,1,0,0:0:0:0:
256,192,250764,1,0,0:0:0:0:
256,192,250889,1,8,0:0:0:0:
256,192,251014,1,0,0:0:0:0:
256,192,251264,1,8,0:0:0:0:
256,192,251389,1,0,0:0:0:0:
256,192,251451,1,0,0:0:0:0:
256,192,251514,1,0,0:0:0:0:
256,192,251639,1,0,0:0:0:0:
256,192,251764,1,0,0:0:0:0:
256,192,251889,1,8,0:0:0:0:
256,192,252014,1,0,0:0:0:0:
256,192,252139,1,8,0:0:0:0:
256,192,252201,1,8,0:0:0:0:
256,192,252264,1,8,0:0:0:0:
256,192,252389,1,0,0:0:0:0:
256,192,252514,1,8,0:0:0:0:
256,192,252639,1,0,0:0:0:0:
256,192,252764,1,0,0:0:0:0:
256,192,252889,1,8,0:0:0:0:
256,192,253014,1,0,0:0:0:0:
256,192,253139,1,0,0:0:0:0:
256,192,253264,1,8,0:0:0:0:
256,192,253326,1,8,0:0:0:0:
256,192,253389,1,0,0:0:0:0:
256,192,253514,1,8,0:0:0:0:
256,192,253576,1,8,0:0:0:0:
256,192,253639,1,0,0:0:0:0:
256,192,253764,1,8,0:0:0:0:
256,192,253889,1,8,0:0:0:0:
256,192,254014,1,0,0:0:0:0:
256,192,254139,1,0,0:0:0:0:
256,192,254264,1,0,0:0:0:0:
256,192,254389,1,8,0:0:0:0:
256,192,254514,1,0,0:0:0:0:
256,192,254764,1,0,0:0:0:0:
256,192,254889,1,8,0:0:0:0:
256,192,255014,1,0,0:0:0:0:
256,192,255264,1,8,0:0:0:0:
256,192,255389,1,0,0:0:0:0:
256,192,255451,1,0,0:0:0:0:
256,192,255514,1,0,0:0:0:0:
256,192,255639,1,0,0:0:0:0:
256,192,255764,1,0,0:0:0:0:
256,192,255889,1,8,0:0:0:0:
256,192,256014,1,0,0:0:0:0:
256,192,256139,1,8,0:0:0:0:
256,192,256201,1,8,0:0:0:0:
256,192,256264,1,8,0:0:0:0:
256,192,256389,1,0,0:0:0:0:
256,192,256514,1,8,0:0:0:0:
256,192,256639,1,0,0:0:0:0:
256,192,256764,1,0,0:0:0:0:
256,192,256889,1,8,0:0:0:0:
256,192,257014,1,0,0:0:0:0:
256,192,257139,1,0,0:0:0:0:
256,192,257264,1,8,0:0:0:0:
256,192,257326,1,8,0:0:0:0:
256,192,257389,1,0,0:0:0:0:
256,192,257514,1,8,0:0:0:0:
256,192,257576,1,8,0:0:0:0:
256,192,257639,1,0,0:0:0:0:
256,192,257764,1,8,0:0:0:0:
256,192,257889,1,8,0:0:0:0:
256,192,258014,1,0,0:0:0:0:
256,192,258139,1,0,0:0:0:0:
256,192,258264,1,0,0:0:0:0:
256,192,258389,1,8,0:0:0:0:
256,192,258514,1,0,0:0:0:0:
256,192,258764,1,0,0:0:0:0:
256,192,258889,1,8,0:0:0:0:
256,192,259014,1,0,0:0:0:0:
256,192,259264,1,8,0:0:0:0:
256,192,259389,1,0,0:0:0:0:
256,192,259451,1,0,0:0:0:0:
256,192,259514,1,0,0:0:0:0:
256,192,259639,1,0,0:0:0:0:
256,192,259764,1,0,0:0:0:0:
256,192,259889,1,8,0:0:0:0:
256,192,260014,1,0,0:0:0:0:
256,192,260139,1,8,0:0:0:0:
256,192,260201,1,8,0:0:0:0:
256,192,260264,1,8,0:0:0:0:
256,192,260389,1,0,0:0:0:0:
256,192,260514,1,8,0:0:0:0:
256,192,260639,1,0,0:0:0:0:
256,192,260764,1,0,0:0:0:0:
256,192,260889,1,8,0:0:0:0:
256,192,261014,1,0,0:0:0:0:
256,192,261139,1,0,0:0:0:0:
256,192,261264,1,8,0:0:0:0:
256,192,261326,1,8,0:0:0:0:
256,192,261389,1,0,0:0:0:0:
256,192,261514,1,8,0:0:0:0:
256,192,261576,1,8,0:0:0:0:
256,192,261639,1,0,0:0:0:0:
256,192,261764,1,8,0:0:0:0:
256,192,261889,1,8,0:0:0:0:
256,192,262014,1,0,0:0:0:0:
256,192,262139,1,0,0:0:0:0:
256,192,262264,1,0,0:0:0:0:
256,192,262389,1,8,0:0:0:0:
256,192,262514,1,0,0:0:0:0:
256,192,262764,1,0,0:0:0:0:
256,192,262889,1,8,0:0:0:0:
256,192,262951,1,8,0:0:0:0:
256,192,263014,1,0,0:0:0:0:
256,192,263264,1,8,0:0:0:0:
256,192,263389,5,0,0:0:0:0:
256,192,263514,1,8,0:0:0:0:
256,192,263764,1,8,0:0:0:0:
256,192,263889,1,0,0:0:0:0:
256,192,264014,1,8,0:0:0:0:
256,192,264076,1,8,0:0:0:0:
256,192,264139,1,0,0:0:0:0:
256,192,264264,1,8,0:0:0:0:
256,192,264389,1,8,0:0:0:0:
256,192,264514,1,0,0:0:0:0:
256,192,264764,1,0,0:0:0:0:
256,192,265014,1,0,0:0:0:0:
256,192,265264,1,0,0:0:0:0:
256,192,265389,1,0,0:0:0:0:
256,192,265514,1,8,0:0:0:0:
256,192,265701,1,0,0:0:0:0:
256,192,265764,1,8,0:0:0:0:
256,192,265889,1,0,0:0:0:0:
256,192,266014,1,8,0:0:0:0:
256,192,266201,1,0,0:0:0:0:
256,192,266264,1,8,0:0:0:0:
256,192,266389,1,0,0:0:0:0:
256,192,266451,1,0,0:0:0:0:
256,192,266514,1,8,0:0:0:0:
256,192,266576,1,0,0:0:0:0:
256,192,266639,1,8,0:0:0:0:
256,192,266701,1,0,0:0:0:0:
256,192,266764,1,8,0:0:0:0:
256,192,266826,1,8,0:0:0:0:
256,192,266889,1,0,0:0:0:0:
256,192,267014,1,8,0:0:0:0:
256,192,267201,1,0,0:0:0:0:
256,192,267264,1,8,0:0:0:0:
256,192,267326,1,8,0:0:0:0:
256,192,267389,1,0,0:0:0:0:
256,192,267514,1,8,0:0:0:0:
256,192,267701,1,0,0:0:0:0:
256,192,267764,1,8,0:0:0:0:
256,192,267889,1,0,0:0:0:0:
256,192,268014,1,8,0:0:0:0:
256,192,268201,1,0,0:0:0:0:
256,192,268264,1,8,0:0:0:0:
256,192,268389,1,0,0:0:0:0:
256,192,268514,1,8,0:0:0:0:
256,192,268701,1,0,0:0:0:0:
256,192,268764,1,8,0:0:0:0:
256,192,268889,1,0,0:0:0:0:
256,192,269014,1,8,0:0:0:0:
256,192,269201,1,0,0:0:0:0:
256,192,269264,1,8,0:0:0:0:
256,192,269326,1,8,0:0:0:0:
256,192,269389,1,0,0:0:0:0:
256,192,269514,1,8,0:0:0:0:
256,192,269701,1,0,0:0:0:0:
256,192,269764,1,8,0:0:0:0:
256,192,269889,1,0,0:0:0:0:
256,192,270014,1,8,0:0:0:0:
256,192,270201,1,8,0:0:0:0:
256,192,270264,1,0,0:0:0:0:
256,192,270389,1,0,0:0:0:0:
256,192,270514,1,8,0:0:0:0:
256,192,270576,1,0,0:0:0:0:
256,192,270639,1,8,0:0:0:0:
256,192,270701,1,8,0:0:0:0:
256,192,270764,1,0,0:0:0:0:
256,192,270889,1,8,0:0:0:0:
256,192,270951,1,8,0:0:0:0:
256,192,271014,1,0,0:0:0:0:
256,192,271076,1,0,0:0:0:0:
256,192,271139,1,0,0:0:0:0:
256,192,271201,1,0,0:0:0:0:
256,192,271264,1,8,0:0:0:0:
256,192,271326,1,8,0:0:0:0:
256,192,271389,1,0,0:0:0:0:
256,192,271514,1,8,0:0:0:0:
256,192,271701,1,0,0:0:0:0:
256,192,271764,1,8,0:0:0:0:
256,192,271889,1,0,0:0:0:0:
256,192,272014,1,8,0:0:0:0:
256,192,272201,1,0,0:0:0:0:
256,192,272264,1,8,0:0:0:0:
256,192,272389,1,0,0:0:0:0:
256,192,272514,1,8,0:0:0:0:
256,192,272701,1,0,0:0:0:0:
256,192,272764,1,8,0:0:0:0:
256,192,272889,1,0,0:0:0:0:
256,192,273014,1,8,0:0:0:0:
256,192,273201,1,0,0:0:0:0:
256,192,273264,1,8,0:0:0:0:
256,192,273326,1,8,0:0:0:0:
256,192,273389,1,0,0:0:0:0:
256,192,273514,1,8,0:0:0:0:
256,192,273701,1,0,0:0:0:0:
256,192,273764,1,8,0:0:0:0:
256,192,273889,1,0,0:0:0:0:
256,192,274014,1,8,0:0:0:0:
256,192,274201,1,0,0:0:0:0:
256,192,274264,1,8,0:0:0:0:
256,192,274389,1,0,0:0:0:0:
256,192,274451,1,0,0:0:0:0:
256,192,274514,1,8,0:0:0:0:
256,192,274576,1,0,0:0:0:0:
256,192,274639,1,8,0:0:0:0:
256,192,274701,1,0,0:0:0:0:
256,192,274764,1,8,0:0:0:0:
256,192,274889,1,0,0:0:0:0:
256,192,275014,1,8,0:0:0:0:
256,192,275201,1,0,0:0:0:0:
256,192,275264,1,0,0:0:0:0:
256,192,275326,1,8,0:0:0:0:
256,192,275389,1,8,0:0:0:0:
256,192,275451,1,0,0:0:0:0:
256,192,275514,1,8,0:0:0:0:
256,192,275576,1,0,0:0:0:0:
256,192,275639,1,8,0:0:0:0:
256,192,275701,1,8,0:0:0:0:
256,192,275764,1,0,0:0:0:0:
256,192,276014,1,0,0:0:0:0:
256,192,276264,1,0,0:0:0:0:
256,192,276389,1,8,0:0:0:0:
256,192,276451,1,0,0:0:0:0:
256,192,276514,1,8,0:0:0:0:
256,192,276576,1,8,0:0:0:0:
256,192,276639,1,0,0:0:0:0:
256,192,276701,1,8,0:0:0:0:
256,192,276764,1,0,0:0:0:0:
256,192,277014,1,0,0:0:0:0:
256,192,277264,1,0,0:0:0:0:
256,192,277389,1,0,0:0:0:0:
256,192,277514,1,0,0:0:0:0:
256,192,277576,1,0,0:0:0:0:
256,192,277639,1,8,0:0:0:0:
256,192,277701,1,0,0:0:0:0:
256,192,277764,1,8,0:0:0:0:
256,192,277826,1,0,0:0:0:0:
256,192,277889,1,8,0:0:0:0:
256,192,277951,1,8,0:0:0:0:
256,192,278014,1,0,0:0:0:0:
256,192,278076,1,0,0:0:0:0:
256,192,278139,1,8,0:0:0:0:
256,192,278201,1,8,0:0:0:0:
256,192,278264,1,0,0:0:0:0:
256,192,278326,1,0,0:0:0:0:
256,192,278389,1,8,0:0:0:0:
256,192,278451,1,8,0:0:0:0:
256,192,278514,1,0,0:0:0:0:
256,192,278576,1,8,0:0:0:0:
256,192,278639,1,0,0:0:0:0:
256,192,278764,5,8,0:0:0:0:
256,192,279014,1,0,0:0:0:0:
256,192,279139,1,8,0:0:0:0:
256,192,279389,1,8,0:0:0:0:
256,192,279514,1,0,0:0:0:0:
256,192,279576,1,0,0:0:0:0:
256,192,279639,1,8,0:0:0:0:
256,192,279701,1,0,0:0:0:0:
256,192,279764,1,8,0:0:0:0:
256,192,279826,1,0,0:0:0:0:
256,192,279889,12,0,280389,0:0:0:0:
256,192,281764,5,4,0:0:0:0:
256,192,282014,1,0,0:0:0:0:
256,192,282097,1,8,0:0:0:0:
256,192,282264,1,8,0:0:0:0:
256,192,282347,1,8,0:0:0:0:
256,192,282430,1,0,0:0:0:0:
256,192,282514,1,0,0:0:0:0:
256,192,282597,1,8,0:0:0:0:
256,192,282652,1,8,0:0:0:0:
256,192,282708,1,8,0:0:0:0:
256,192,282764,1,0,0:0:0:0:
256,192,282930,1,8,0:0:0:0:
256,192,282986,1,8,0:0:0:0:
256,192,283041,1,8,0:0:0:0:
256,192,283097,1,0,0:0:0:0:
256,192,283180,1,8,0:0:0:0:
256,192,283264,1,0,0:0:0:0:
256,192,283347,1,0,0:0:0:0:
256,192,283430,1,8,0:0:0:0:
256,192,283514,1,8,0:0:0:0:
256,192,283597,1,0,0:0:0:0:
256,192,283680,1,0,0:0:0:0:
256,192,283764,1,8,0:0:0:0:
256,192,283847,1,8,0:0:0:0:
256,192,283930,1,0,0:0:0:0:
256,192,284014,1,8,0:0:0:0:
256,192,284097,1,0,0:0:0:0:
256,192,284264,1,0,0:0:0:0:
256,192,284347,1,8,0:0:0:0:
256,192,284430,1,0,0:0:0:0:
256,192,284514,1,0,0:0:0:0:
256,192,284597,1,8,0:0:0:0:
256,192,284680,1,8,0:0:0:0:
256,192,284764,1,0,0:0:0:0:
256,192,284930,1,8,0:0:0:0:
256,192,285014,1,0,0:0:0:0:
256,192,285097,1,8,0:0:0:0:
256,192,285180,1,8,0:0:0:0:
256,192,285264,1,0,0:0:0:0:
256,192,285514,1,0,0:0:0:0:
256,192,285597,1,8,0:0:0:0:
256,192,285680,1,0,0:0:0:0:
256,192,285764,1,8,0:0:0:0:
256,192,285819,1,0,0:0:0:0:
256,192,285875,1,0,0:0:0:0:
256,192,285930,1,8,0:0:0:0:
256,192,286014,1,0,0:0:0:0:
256,192,286069,1,8,0:0:0:0:
256,192,286125,1,8,0:0:0:0:
256,192,286180,1,0,0:0:0:0:
256,192,286264,1,8,0:0:0:0:
256,192,286319,1,8,0:0:0:0:
256,192,286375,1,8,0:0:0:0:
256,192,286430,1,0,0:0:0:0:
256,192,287097,5,4,0:0:0:0:
256,192,287347,1,0,0:0:0:0:
256,192,287430,1,0,0:0:0:0:
256,192,287514,1,8,0:0:0:0:
256,192,287597,1,8,0:0:0:0:
256,192,287680,1,0,0:0:0:0:
256,192,287847,1,0,0:0:0:0:
256,192,287930,1,0,0:0:0:0:
256,192,288014,1,8,0:0:0:0:
256,192,288180,1,0,0:0:0:0:
256,192,288264,1,0,0:0:0:0:
256,192,288347,1,8,0:0:0:0:
256,192,288430,1,0,0:0:0:0:
256,192,288597,1,0,0:0:0:0:
256,192,288764,1,8,0:0:0:0:
256,192,288930,1,0,0:0:0:0:
256,192,289014,1,0,0:0:0:0:
256,192,289097,1,8,0:0:0:0:
256,192,289180,1,8,0:0:0:0:
256,192,289264,1,0,0:0:0:0:
256,192,289347,1,8,0:0:0:0:
256,192,289514,1,8,0:0:0:0:
256,192,289597,1,0,0:0:0:0:
256,192,289764,1,0,0:0:0:0:
256,192,289847,1,8,0:0:0:0:
256,192,289930,1,0,0:0:0:0:
256,192,290014,1,0,0:0:0:0:
256,192,290097,1,8,0:0:0:0:
256,192,290180,1,8,0:0:0:0:
256,192,290264,1,0,0:0:0:0:
256,192,290347,1,0,0:0:0:0:
256,192,290430,1,8,0:0:0:0:
256,192,290514,1,0,0:0:0:0:
256,192,290597,1,8,0:0:0:0:
256,192,290680,1,8,0:0:0:0:
256,192,290764,1,0,0:0:0:0:
256,192,290847,1,0,0:0:0:0:
256,192,290930,1,8,0:0:0:0:
256,192,291014,1,8,0:0:0:0:
256,192,291097,12,0,292264,0:0:0:0:
256,192,292430,5,4,0:0:0:0:
256,192,292680,1,0,0:0:0:0:
256,192,292764,1,8,0:0:0:0:
256,192,292847,1,0,0:0:0:0:
256,192,292930,1,8,0:0:0:0:
256,192,293180,1,8,0:0:0:0:
256,192,293264,1,0,0:0:0:0:
256,192,293347,1,0,0:0:0:0:
256,192,293430,1,8,0:0:0:0:
256,192,293486,1,0,0:0:0:0:
256,192,293541,1,0,0:0:0:0:
256,192,293597,1,8,0:0:0:0:
256,192,293764,1,8,0:0:0:0:
256,192,293819,1,8,0:0:0:0:
256,192,293875,1,8,0:0:0:0:
256,192,293930,1,0,0:0:0:0:
256,192,294014,1,0,0:0:0:0:
256,192,294097,1,0,0:0:0:0:
256,192,294180,1,0,0:0:0:0:
256,192,294264,1,8,0:0:0:0:
256,192,294319,1,8,0:0:0:0:
256,192,294375,1,8,0:0:0:0:
256,192,294430,1,0,0:0:0:0:
256,192,294514,1,0,0:0:0:0:
256,192,294597,1,0,0:0:0:0:
256,192,294680,1,0,0:0:0:0:
256,192,294764,1,8,0:0:0:0:
256,192,294819,1,0,0:0:0:0:
256,192,294875,1,0,0:0:0:0:
256,192,294930,1,8,0:0:0:0:
256,192,294986,1,8,0:0:0:0:
256,192,295041,1,8,0:0:0:0:
256,192,295097,1,0,0:0:0:0:
256,192,295180,1,0,0:0:0:0:
256,192,295264,1,8,0:0:0:0:
256,192,295347,1,8,0:0:0:0:
256,192,295430,1,0,0:0:0:0:
256,192,295514,1,0,0:0:0:0:
256,192,295597,1,8,0:0:0:0:
256,192,295764,1,0,0:0:0:0:
256,192,295847,1,8,0:0:0:0:
256,192,295930,1,0,0:0:0:0:
256,192,296014,1,0,0:0:0:0:
256,192,296097,1,8,0:0:0:0:
256,192,296152,1,8,0:0:0:0:
256,192,296208,1,0,0:0:0:0:
256,192,296264,1,0,0:0:0:0:
256,192,296319,1,8,0:0:0:0:
256,192,296375,1,8,0:0:0:0:
256,192,296430,1,0,0:0:0:0:
256,192,296597,1,0,0:0:0:0:
256,192,296680,1,0,0:0:0:0:
256,192,296764,1,0,0:0:0:0:
256,192,296847,1,0,0:0:0:0:
256,192,296930,1,8,0:0:0:0:
256,192,297097,1,0,0:0:0:0:
256,192,297152,1,0,0:0:0:0:
256,192,297208,1,8,0:0:0:0:
256,192,297264,1,8,0:0:0:0:
256,192,297319,1,0,0:0:0:0:
256,192,297375,1,0,0:0:0:0:
256,192,297430,1,8,0:0:0:0:
256,192,297486,1,8,0:0:0:0:
256,192,297541,1,8,0:0:0:0:
256,192,297597,1,0,0:0:0:0:
256,192,297764,1,12,0:0:0:0:
256,192,298014,1,0,0:0:0:0:
256,192,298097,1,0,0:0:0:0:
256,192,298180,1,0,0:0:0:0:
256,192,298264,1,8,0:0:0:0:
256,192,298319,1,8,0:0:0:0:
256,192,298375,1,8,0:0:0:0:
256,192,298430,1,0,0:0:0:0:
256,192,298514,1,8,0:0:0:0:
256,192,298597,1,0,0:0:0:0:
256,192,298764,1,0,0:0:0:0:
256,192,298847,1,8,0:0:0:0:
256,192,299014,1,8,0:0:0:0:
256,192,299097,1,0,0:0:0:0:
256,192,299264,1,0,0:0:0:0:
256,192,299430,1,8,0:0:0:0:
256,192,299486,1,8,0:0:0:0:
256,192,299541,1,0,0:0:0:0:
256,192,299597,1,8,0:0:0:0:
256,192,299652,1,0,0:0:0:0:
256,192,299708,1,0,0:0:0:0:
256,192,299764,1,8,0:0:0:0:
256,192,299930,1,0,0:0:0:0:
256,192,300097,1,0,0:0:0:0:
256,192,300264,1,8,0:0:0:0:
256,192,300430,1,0,0:0:0:0:
256,192,300514,1,8,0:0:0:0:
256,192,300597,1,0,0:0:0:0:
256,192,300680,1,0,0:0:0:0:
256,192,300764,1,8,0:0:0:0:
256,192,300930,1,0,0:0:0:0:
256,192,301014,1,8,0:0:0:0:
256,192,301097,1,0,0:0:0:0:
256,192,301180,1,8,0:0:0:0:
256,192,301264,1,8,0:0:0:0:
256,192,301430,1,0,0:0:0:0:
256,192,301486,1,0,0:0:0:0:
256,192,301541,1,0,0:0:0:0:
256,192,301597,1,8,0:0:0:0:
256,192,301764,12,0,302930,0:0:0:0:
256,192,303097,5,8,0:0:0:0:
256,192,303180,1,8,0:0:0:0:
256,192,303264,1,0,0:0:0:0:
256,192,303347,1,0,0:0:0:0:
256,192,303430,1,12,0:0:0:0:
256,192,303597,1,0,0:0:0:0:
256,192,303680,1,8,0:0:0:0:
256,192,303764,1,8,0:0:0:0:
256,192,303847,1,8,0:0:0:0:
256,192,303930,1,4,0:0:0:0:
256,192,304097,1,8,0:0:0:0:
256,192,304180,1,0,0:0:0:0:
256,192,304264,1,8,0:0:0:0:
256,192,304347,1,8,0:0:0:0:
256,192,304430,1,0,0:0:0:0:
256,192,304514,1,0,0:0:0:0:
256,192,304597,1,8,0:0:0:0:
256,192,304680,1,8,0:0:0:0:
256,192,304764,1,0,0:0:0:0:
256,192,304930,1,4,0:0:0:0:
256,192,305264,1,0,0:0:0:0:
256,192,305430,1,12,0:0:0:0:
256,192,305764,1,0,0:0:0:0:
256,192,305930,1,0,0:0:0:0:
256,192,306097,1,8,0:0:0:0:
256,192,306347,1,8,0:0:0:0:
256,192,306430,1,0,0:0:0:0:
256,192,306514,1,8,0:0:0:0:
256,192,306597,1,8,0:0:0:0:
256,192,306930,1,8,0:0:0:0:
256,192,307014,1,0,0:0:0:0:
256,192,307097,1,0,0:0:0:0:
256,192,307430,1,0,0:0:0:0:
256,192,307597,1,8,0:0:0:0:
256,192,307930,1,0,0:0:0:0:
256,192,308097,1,8,0:0:0:0:
256,192,308430,1,8,0:0:0:0:
256,192,308486,1,0,0:0:0:0:
256,192,308541,1,8,0:0:0:0:
256,192,308597,1,0,0:0:0:0:
256,192,308652,1,8,0:0:0:0:
256,192,308708,1,0,0:0:0:0:
256,192,308764,1,8,0:0:0:0:
256,192,308819,1,8,0:0:0:0:
256,192,308875,1,0,0:0:0:0:
256,192,308930,1,0,0:0:0:0:
256,192,308986,1,0,0:0:0:0:
256,192,309041,1,0,0:0:0:0:
256,192,309097,1,8,0:0:0:0:
256,192,309180,1,0,0:0:0:0:
256,192,309264,1,0,0:0:0:0:
256,192,309347,1,8,0:0:0:0:
256,192,309430,1,0,0:0:0:0:
256,192,309486,1,0,0:0:0:0:
256,192,309541,1,8,0:0:0:0:
256,192,309597,1,8,0:0:0:0:
256,192,309652,1,0,0:0:0:0:
256,192,309708,1,0,0:0:0:0:
256,192,309764,1,8,0:0:0:0:
256,192,309930,1,0,0:0:0:0:
256,192,310014,1,8,0:0:0:0:
256,192,310097,1,0,0:0:0:0:
256,192,310180,1,0,0:0:0:0:
256,192,310264,1,8,0:0:0:0:
256,192,310430,1,0,0:0:0:0:
256,192,310513,1,8,0:0:0:0:
256,192,310597,1,0,0:0:0:0:
256,192,310680,1,8,0:0:0:0:
256,192,310763,1,0,0:0:0:0:
256,192,310819,1,0,0:0:0:0:
256,192,310875,1,0,0:0:0:0:
256,192,310930,1,0,0:0:0:0:
256,192,310986,1,8,0:0:0:0:
256,192,311041,1,8,0:0:0:0:
256,192,311097,1,8,0:0:0:0:
256,192,311152,1,8,0:0:0:0:
256,192,311208,1,0,0:0:0:0:
256,192,311263,1,0,0:0:0:0:
256,192,311319,1,8,0:0:0:0:
256,192,311375,1,8,0:0:0:0:
256,192,311430,1,0,0:0:0:0:
256,192,311597,1,0,0:0:0:0:
256,192,311680,1,8,0:0:0:0:
256,192,311763,1,0,0:0:0:0:
256,192,311847,1,0,0:0:0:0:
256,192,311930,1,8,0:0:0:0:
256,192,312097,1,0,0:0:0:0:
256,192,312180,1,8,0:0:0:0:
256,192,312263,1,0,0:0:0:0:
256,192,312347,1,8,0:0:0:0:
256,192,312430,1,0,0:0:0:0:
256,192,312597,1,0,0:0:0:0:
256,192,312763,1,8,0:0:0:0:
256,192,313013,1,8,0:0:0:0:
256,192,313097,1,0,0:0:0:0:
256,192,313180,1,8,0:0:0:0:
256,192,313263,1,8,0:0:0:0:
256,192,313430,1,0,0:0:0:0:
256,192,313597,1,8,0:0:0:0:
256,192,313763,1,0,0:0:0:0:
256,192,313930,1,8,0:0:0:0:
256,192,313986,1,0,0:0:0:0:
256,192,314041,1,0,0:0:0:0:
256,192,314097,1,8,0:0:0:0:
256,192,314263,1,8,0:0:0:0:
256,192,314319,1,8,0:0:0:0:
256,192,314375,1,8,0:0:0:0:
256,192,314430,1,0,0:0:0:0:
256,192,314597,1,8,0:0:0:0:
256,192,314680,1,8,0:0:0:0:
256,192,314763,1,0,0:0:0:0:
256,192,314847,1,0,0:0:0:0:
256,192,314930,1,8,0:0:0:0:
256,192,315097,1,0,0:0:0:0:
256,192,315180,1,0,0:0:0:0:
256,192,315263,1,8,0:0:0:0:
256,192,315347,1,0,0:0:0:0:
256,192,315430,1,8,0:0:0:0:
256,192,315513,1,0,0:0:0:0:
256,192,315597,1,8,0:0:0:0:
256,192,315680,1,8,0:0:0:0:
256,192,315763,1,0,0:0:0:0:
256,192,315847,1,0,0:0:0:0:
256,192,315930,1,8,0:0:0:0:
256,192,315986,1,8,0:0:0:0:
256,192,316041,1,8,0:0:0:0:
256,192,316097,1,0,0:0:0:0:
256,192,316180,1,0,0:0:0:0:
256,192,316263,1,8,0:0:0:0:
256,192,316430,1,8,0:0:0:0:
256,192,316486,1,8,0:0:0:0:
256,192,316541,1,0,0:0:0:0:
256,192,316597,1,0,0:0:0:0:
256,192,316652,1,8,0:0:0:0:
256,192,316708,1,8,0:0:0:0:
256,192,316763,1,0,0:0:0:0:
256,192,316819,1,0,0:0:0:0:
256,192,316875,1,8,0:0:0:0:
256,192,316930,1,8,0:0:0:0:
256,192,316986,1,0,0:0:0:0:
256,192,317041,1,0,0:0:0:0:
256,192,317097,1,8,0:0:0:0:
256,192,317152,1,8,0:0:0:0:
256,192,317208,1,0,0:0:0:0:
256,192,317263,1,0,0:0:0:0:
256,192,317319,1,0,0:0:0:0:
256,192,317375,1,0,0:0:0:0:
256,192,317430,1,8,0:0:0:0:
256,192,317486,1,8,0:0:0:0:
256,192,317541,1,0,0:0:0:0:
256,192,317597,1,0,0:0:0:0:
256,192,317652,1,8,0:0:0:0:
256,192,317708,1,0,0:0:0:0:
256,192,317763,1,8,0:0:0:0:
256,192,317930,1,0,0:0:0:0:
256,192,317986,1,0,0:0:0:0:
256,192,318041,1,8,0:0:0:0:
256,192,318097,1,8,0:0:0:0:
256,192,318152,1,0,0:0:0:0:
256,192,318208,1,0,0:0:0:0:
256,192,318263,1,8,0:0:0:0:
256,192,318430,1,8,0:0:0:0:
256,192,318486,1,8,0:0:0:0:
256,192,318541,1,8,0:0:0:0:
256,192,318597,1,0,0:0:0:0:
256,192,318763,1,0,0:0:0:0:
256,192,318847,1,0,0:0:0:0:
256,192,318930,1,8,0:0:0:0:
256,192,319097,1,0,0:0:0:0:
256,192,319430,1,8,0:0:0:0:
256,192,319597,1,0,0:0:0:0:
256,192,319763,1,0,0:0:0:0:
256,192,319930,1,8,0:0:0:0:
256,192,320097,1,0,0:0:0:0:
256,192,320180,1,8,0:0:0:0:
256,192,320263,1,0,0:0:0:0:
256,192,320347,1,8,0:0:0:0:
256,192,320430,1,0,0:0:0:0:
256,192,320763,1,8,0:0:0:0:
256,192,320930,1,0,0:0:0:0:
256,192,321263,1,8,0:0:0:0:
256,192,321319,1,8,0:0:0:0:
256,192,321375,1,8,0:0:0:0:
256,192,321430,1,0,0:0:0:0:
256,192,321597,1,8,0:0:0:0:
256,192,321652,1,8,0:0:0:0:
256,192,321708,1,0,0:0:0:0:
256,192,321763,1,8,0:0:0:0:
256,192,321819,1,0,0:0:0:0:
256,192,321875,1,8,0:0:0:0:
256,192,321930,1,0,0:0:0:0:
256,192,321986,1,0,0:0:0:0:
256,192,322041,1,8,0:0:0:0:
256,192,322097,1,8,0:0:0:0:
256,192,322152,1,0,0:0:0:0:
256,192,322208,1,0,0:0:0:0:
256,192,322263,1,8,0:0:0:0:
256,192,322319,1,8,0:0:0:0:
256,192,322375,1,0,0:0:0:0:
256,192,322430,1,0,0:0:0:0:
256,192,322486,1,8,0:0:0:0:
256,192,322541,1,8,0:0:0:0:
256,192,322597,1,0,0:0:0:0:
256,192,322652,1,0,0:0:0:0:
256,192,322708,1,8,0:0:0:0:
256,192,322763,1,8,0:0:0:0:
256,192,322819,1,0,0:0:0:0:
256,192,322875,1,8,0:0:0:0:
256,192,322930,1,0,0:0:0:0:
256,192,322986,1,8,0:0:0:0:
256,192,323041,1,0,0:0:0:0:
256,192,323097,1,8,0:0:0:0:
256,192,323263,1,0,0:0:0:0:
256,192,323430,1,8,0:0:0:0:
256,192,323486,1,8,0:0:0:0:
256,192,323541,1,8,0:0:0:0:
256,192,323597,1,0,0:0:0:0:
256,192,323680,1,8,0:0:0:0:
256,192,323763,1,0,0:0:0:0:
256,192,323847,1,8,0:0:0:0:
256,192,323930,1,0,0:0:0:0:
256,192,324013,1,8,0:0:0:0:
256,192,324097,1,0,0:0:0:0:
256,192,324152,1,0,0:0:0:0:
256,192,324208,1,0,0:0:0:0:
256,192,324263,1,8,0:0:0:0:
256,192,324347,1,0,0:0:0:0:
256,192,324430,1,0,0:0:0:0:
256,192,327097,1,0,0:0:0:0:
256,192,327263,1,0,0:0:0:0:
256,192,327430,1,8,0:0:0:0:
256,192,327513,1,0,0:0:0:0:
256,192,327597,1,8,0:0:0:0:
256,192,327680,1,8,0:0:0:0:
256,192,327763,1,0,0:0:0:0:
256,192,327847,1,8,0:0:0:0:
256,192,327930,1,0,0:0:0:0:
256,192,328097,1,8,0:0:0:0:
256,192,328180,1,0,0:0:0:0:
256,192,328263,1,8,0:0:0:0:
256,192,328347,1,0,0:0:0:0:
256,192,328430,1,0,0:0:0:0:
256,192,328513,1,8,0:0:0:0:
256,192,328597,1,0,0:0:0:0:
256,192,328680,1,8,0:0:0:0:
256,192,328763,1,0,0:0:0:0:
256,192,328847,1,0,0:0:0:0:
256,192,328930,1,8,0:0:0:0:
256,192,329013,1,8,0:0:0:0:
256,192,329097,1,0,0:0:0:0:
256,192,329180,1,8,0:0:0:0:
256,192,329263,1,0,0:0:0:0:
256,192,329347,1,0,0:0:0:0:
256,192,329430,1,8,0:0:0:0:
256,192,329513,1,0,0:0:0:0:
256,192,329597,1,8,0:0:0:0:
256,192,329680,1,8,0:0:0:0:
256,192,329763,1,0,0:0:0:0:
256,192,329930,1,0,0:0:0:0:
256,192,330097,1,8,0:0:0:0:
256,192,330180,1,8,0:0:0:0:
256,192,330263,1,0,0:0:0:0:
256,192,330347,1,8,0:0:0:0:
256,192,330430,1,0,0:0:0:0:
256,192,330513,1,8,0:0:0:0:
256,192,330597,1,0,0:0:0:0:
256,192,330763,1,8,0:0:0:0:
256,192,330847,1,0,0:0:0:0:
256,192,330930,1,8,0:0:0:0:
256,192,331013,1,8,0:0:0:0:
256,192,331097,1,0,0:0:0:0:
256,192,331180,1,8,0:0:0:0:
256,192,331263,1,8,0:0:0:0:
256,192,331347,1,0,0:0:0:0:
256,192,331430,1,8,0:0:0:0:
256,192,331513,1,0,0:0:0:0:
256,192,331597,1,8,0:0:0:0:
256,192,331680,1,8,0:0:0:0:
256,192,331763,1,0,0:0:0:0:
256,192,331847,1,0,0:0:0:0:
256,192,331930,1,8,0:0:0:0:
256,192,332013,1,8,0:0:0:0:
256,192,332097,1,0,0:0:0:0:
256,192,332180,1,0,0:0:0:0:
256,192,332263,1,8,0:0:0:0:
256,192,332430,1,0,0:0:0:0:
256,192,332597,1,0,0:0:0:0:
256,192,332763,1,8,0:0:0:0:
256,192,332847,1,0,0:0:0:0:
256,192,332930,1,8,0:0:0:0:
256,192,333013,1,8,0:0:0:0:
256,192,333097,1,0,0:0:0:0:
256,192,333180,1,8,0:0:0:0:
256,192,333263,1,0,0:0:0:0:
256,192,333430,1,8,0:0:0:0:
256,192,333513,1,0,0:0:0:0:
256,192,333597,1,8,0:0:0:0:
256,192,333680,1,0,0:0:0:0:
256,192,333763,1,0,0:0:0:0:
256,192,333847,1,8,0:0:0:0:
256,192,333930,1,8,0:0:0:0:
256,192,334013,1,0,0:0:0:0:
256,192,334097,1,0,0:0:0:0:
256,192,334180,1,8,0:0:0:0:
256,192,334263,1,0,0:0:0:0:
256,192,334347,1,8,0:0:0:0:
256,192,334430,1,0,0:0:0:0:
256,192,334513,1,8,0:0:0:0:
256,192,334597,1,0,0:0:0:0:
256,192,334680,1,0,0:0:0:0:
256,192,334763,1,8,0:0:0:0:
256,192,334847,1,0,0:0:0:0:
256,192,334930,1,8,0:0:0:0:
256,192,335013,1,8,0:0:0:0:
256,192,335097,1,0,0:0:0:0:
256,192,335263,1,0,0:0:0:0:
256,192,335430,1,8,0:0:0:0:
256,192,335513,1,8,0:0:0:0:
256,192,335597,1,0,0:0:0:0:
256,192,335680,1,8,0:0:0:0:
256,192,335763,1,0,0:0:0:0:
256,192,335847,1,8,0:0:0:0:
256,192,335930,1,0,0:0:0:0:
256,192,336097,1,8,0:0:0:0:
256,192,336180,1,0,0:0:0:0:
256,192,336263,1,8,0:0:0:0:
256,192,336347,1,8,0:0:0:0:
256,192,336430,1,0,0:0:0:0:
256,192,336486,1,0,0:0:0:0:
256,192,336541,1,8,0:0:0:0:
256,192,336597,1,0,0:0:0:0:
256,192,336652,1,8,0:0:0:0:
256,192,336708,1,8,0:0:0:0:
256,192,336763,1,0,0:0:0:0:
256,192,336847,1,0,0:0:0:0:
256,192,336930,1,8,0:0:0:0:
256,192,337013,1,8,0:0:0:0:
256,192,337097,1,0,0:0:0:0:
256,192,337180,1,8,0:0:0:0:
256,192,337263,1,0,0:0:0:0:
256,192,337347,1,8,0:0:0:0:
256,192,337430,1,0,0:0:0:0:
256,192,337513,1,8,0:0:0:0:
256,192,337597,1,0,0:0:0:0:
256,192,337763,1,0,0:0:0:0:
256,192,337847,1,8,0:0:0:0:
256,192,337930,1,0,0:0:0:0:
256,192,338097,1,8,0:0:0:0:
256,192,338180,1,0,0:0:0:0:
256,192,338263,1,8,0:0:0:0:
256,192,338347,1,8,0:0:0:0:
256,192,338430,1,0,0:0:0:0:
256,192,338513,1,8,0:0:0:0:
256,192,338597,1,0,0:0:0:0:
256,192,338680,1,0,0:0:0:0:
256,192,338763,1,8,0:0:0:0:
256,192,338847,1,0,0:0:0:0:
256,192,338930,1,8,0:0:0:0:
256,192,339013,1,0,0:0:0:0:
256,192,339097,1,8,0:0:0:0:
256,192,339180,1,0,0:0:0:0:
256,192,339263,1,8,0:0:0:0:
256,192,339347,1,8,0:0:0:0:
256,192,339430,1,0,0:0:0:0:
256,192,339513,1,0,0:0:0:0:
256,192,339597,1,8,0:0:0:0:
256,192,339680,1,8,0:0:0:0:
256,192,339763,1,0,0:0:0:0:
256,192,339847,1,0,0:0:0:0:
256,192,339930,1,8,0:0:0:0:
256,192,340013,1,8,0:0:0:0:
256,192,340097,1,0,0:0:0:0:
256,192,340180,1,8,0:0:0:0:
256,192,340263,1,0,0:0:0:0:
256,192,340319,1,0,0:0:0:0:
256,192,340375,1,0,0:0:0:0:
256,192,340430,1,8,0:0:0:0:
256,192,340513,1,0,0:0:0:0:
256,192,340597,1,0,0:0:0:0:
256,192,340680,1,8,0:0:0:0:
256,192,340763,1,8,0:0:0:0:
256,192,340847,1,0,0:0:0:0:
256,192,340930,1,8,0:0:0:0:
256,192,341013,1,0,0:0:0:0:
256,192,341097,1,8,0:0:0:0:
256,192,341180,1,8,0:0:0:0:
256,192,341263,1,0,0:0:0:0:
256,192,341347,1,0,0:0:0:0:
256,192,341430,1,8,0:0:0:0:
256,192,341513,1,0,0:0:0:0:
256,192,341597,1,8,0:0:0:0:
256,192,341680,1,0,0:0:0:0:
256,192,341763,1,8,0:0:0:0:
256,192,341819,1,0,0:0:0:0:
256,192,341875,1,8,0:0:0:0:
256,192,341930,1,8,0:0:0:0:
256,192,341986,1,0,0:0:0:0:
256,192,342041,1,0,0:0:0:0:
256,192,342097,1,8,0:0:0:0:
256,192,342152,1,8,0:0:0:0:
256,192,342208,1,0,0:0:0:0:
256,192,342263,1,8,0:0:0:0:
256,192,342319,1,0,0:0:0:0:
256,192,342375,1,8,0:0:0:0:
256,192,342430,1,0,0:0:0:0:
256,192,342513,1,8,0:0:0:0:
256,192,342597,1,0,0:0:0:0:
256,192,342680,1,8,0:0:0:0:
256,192,342763,1,0,0:0:0:0:
256,192,342847,1,0,0:0:0:0:
256,192,342930,1,8,0:0:0:0:
256,192,342986,1,8,0:0:0:0:
256,192,343041,1,8,0:0:0:0:
256,192,343097,1,0,0:0:0:0:
256,192,343263,1,8,0:0:0:0:
256,192,343430,1,0,0:0:0:0:
256,192,343486,1,0,0:0:0:0:
256,192,343541,1,0,0:0:0:0:
256,192,343597,1,8,0:0:0:0:
256,192,343680,1,0,0:0:0:0:
256,192,343763,1,8,0:0:0:0:
256,192,343847,1,0,0:0:0:0:
256,192,343930,1,8,0:0:0:0:
256,192,344013,1,8,0:0:0:0:
256,192,344097,1,0,0:0:0:0:
256,192,344180,1,0,0:0:0:0:
256,192,344263,1,8,0:0:0:0:
256,192,344347,1,0,0:0:0:0:
256,192,344430,1,8,0:0:0:0:
256,192,344513,1,8,0:0:0:0:
256,192,344597,1,0,0:0:0:0:
256,192,344680,1,0,0:0:0:0:
256,192,344763,1,8,0:0:0:0:
256,192,344847,1,0,0:0:0:0:
256,192,344930,1,8,0:0:0:0:
256,192,345013,1,8,0:0:0:0:
256,192,345097,1,0,0:0:0:0:
256,192,345180,1,8,0:0:0:0:
256,192,345263,1,0,0:0:0:0:
256,192,345347,1,0,0:0:0:0:
256,192,345430,1,8,0:0:0:0:
256,192,345513,1,0,0:0:0:0:
256,192,345597,1,8,0:0:0:0:
256,192,345652,1,8,0:0:0:0:
256,192,345708,1,8,0:0:0:0:
256,192,345763,1,0,0:0:0:0:
256,192,345930,1,8,0:0:0:0:
256,192,346097,1,8,0:0:0:0:
256,192,346180,1,8,0:0:0:0:
256,192,346263,1,0,0:0:0:0:
256,192,346347,1,8,0:0:0:0:
256,192,346430,1,0,0:0:0:0:
256,192,346513,1,8,0:0:0:0:
256,192,346597,1,8,0:0:0:0:
256,192,346680,1,0,0:0:0:0:
256,192,346763,1,8,0:0:0:0:
256,192,346847,1,0,0:0:0:0:
256,192,346930,1,8,0:0:0:0:
256,192,347097,1,8,0:0:0:0:
256,192,347180,1,8,0:0:0:0:
256,192,347263,1,0,0:0:0:0:
256,192,347347,1,0,0:0:0:0:
256,192,347430,1,0,0:0:0:0:
256,192,347513,1,0,0:0:0:0:
256,192,347597,1,8,0:0:0:0:
256,192,347680,1,8,0:0:0:0:
256,192,347763,1,0,0:0:0:0:
256,192,347819,1,8,0:0:0:0:
256,192,347875,1,8,0:0:0:0:
256,192,347930,1,0,0:0:0:0:
256,192,348013,1,8,0:0:0:0:
256,192,348097,1,0,0:0:0:0:
256,192,348180,1,0,0:0:0:0:
256,192,348263,1,8,0:0:0:0:
256,192,348430,12,0,349430,0:0:0:0:
