osu file format v14

[General]
AudioFilename: audio.mp3
AudioLeadIn: 0
PreviewTime: 24059
Countdown: 0
SampleSet: None
StackLeniency: 0.7
Mode: 1
LetterboxInBreaks: 0
WidescreenStoryboard: 1

[Editor]
DistanceSpacing: 0.8
BeatDivisor: 1
GridSize: 16
TimelineZoom: 1

[Metadata]
Title:the eye of truth
TitleUnicode:the eye of truth
Artist:driver
ArtistUnicode:driver
Creator:KillerfishyOsu
Version:Futsuu
Source:
Tags:
BeatmapID:1631494
BeatmapSetID:776512

[Difficulty]
HPDrainRate:5
CircleSize:2
OverallDifficulty:5
ApproachRate:5
SliderMultiplier:1.3999999666214
SliderTickRate:1

[Events]
//Background and Video events
0,0,"9357ad67f9c4908.jpg",0,0
//Break Periods
//Storyboard Layer 0 (Background)
//Storyboard Layer 1 (Fail)
//Storyboard Layer 2 (Pass)
//Storyboard Layer 3 (Foreground)
//Storyboard Sound Samples

[TimingPoints]
24059.2589856625,374.0461822353,4,2,0,100,1,0
45005,-100,4,2,0,45,0,0
47998,-100,4,2,0,100,0,0
143754,-100,4,2,0,86,0,0
146747,-100,4,2,0,64,0,0
149739,-100,4,2,0,41,0,0
152726,-100,4,2,0,26,0,0
155696,-100,4,2,0,5,0,0

[HitObjects]
320,192,24059,5,0,0:0:0:0:
320,192,24807,1,8,0:0:0:0:
320,192,25555,1,0,0:0:0:0:
320,192,27051,1,0,0:0:0:0:
320,192,27799,1,0,0:0:0:0:
320,192,28547,1,8,0:0:0:0:
320,192,30043,1,0,0:0:0:0:
320,192,30792,1,0,0:0:0:0:
320,192,31540,1,8,0:0:0:0:
320,192,33036,1,8,0:0:0:0:
320,192,33784,1,0,0:0:0:0:
320,192,34532,1,8,0:0:0:0:
320,192,36028,1,0,0:0:0:0:
320,192,36776,1,0,0:0:0:0:
320,192,37524,1,8,0:0:0:0:
320,192,39021,1,0,0:0:0:0:
320,192,39769,1,8,0:0:0:0:
320,192,40517,1,0,0:0:0:0:
320,192,42013,1,0,0:0:0:0:
320,192,42761,1,8,0:0:0:0:
320,192,43509,1,0,0:0:0:0:
320,192,45005,1,0,0:0:0:0:
320,192,45753,1,0,0:0:0:0:
320,192,46502,1,8,0:0:0:0:
320,192,47998,1,0,0:0:0:0:
320,192,48746,1,0,0:0:0:0:
320,192,49494,1,8,0:0:0:0:
320,192,50990,1,0,0:0:0:0:
320,192,51364,1,0,0:0:0:0:
320,192,51738,1,0,0:0:0:0:
320,192,52486,1,8,0:0:0:0:
320,192,52860,1,8,0:0:0:0:
320,192,53234,1,8,0:0:0:0:
320,192,53982,1,0,0:0:0:0:
320,192,54731,1,8,0:0:0:0:
320,192,55479,1,0,0:0:0:0:
320,192,56975,1,0,0:0:0:0:
320,192,57349,1,8,0:0:0:0:
320,192,57723,1,0,0:0:0:0:
320,192,58471,1,0,0:0:0:0:
320,192,58845,1,0,0:0:0:0:
320,192,59219,1,8,0:0:0:0:
320,192,59967,1,0,0:0:0:0:
320,192,60715,1,8,0:0:0:0:
320,192,61463,1,0,0:0:0:0:
320,192,62960,1,0,0:0:0:0:
320,192,63334,1,0,0:0:0:0:
320,192,63708,1,0,0:0:0:0:
320,192,64456,1,8,0:0:0:0:
320,192,64830,1,0,0:0:0:0:
320,192,65204,1,8,0:0:0:0:
320,192,65952,1,0,0:0:0:0:
320,192,66700,1,8,0:0:0:0:
320,192,67448,1,0,0:0:0:0:
320,192,68944,1,8,0:0:0:0:
320,192,69318,1,0,0:0:0:0:
320,192,69692,1,0,0:0:0:0:
320,192,70440,1,0,0:0:0:0:
320,192,70815,1,0,0:0:0:0:
320,192,71189,1,8,0:0:0:0:
320,192,71937,1,0,0:0:0:0:
320,192,72685,1,8,0:0:0:0:
320,192,73433,1,0,0:0:0:0:
320,192,73807,1,0,0:0:0:0:
320,192,74181,1,8,0:0:0:0:
320,192,74929,1,0,0:0:0:0:
320,192,75677,1,8,0:0:0:0:
224,80,76425,1,0,0:0:0:0:
224,80,76799,1,8,0:0:0:0:
224,80,77173,1,0,0:0:0:0:
240,160,77921,1,0,0:0:0:0:
240,160,78670,1,8,0:0:0:0:
240,160,79044,1,0,0:0:0:0:
240,160,79418,1,0,0:0:0:0:
240,160,80914,1,0,0:0:0:0:
240,160,81662,1,8,0:0:0:0:
240,160,82410,1,0,0:0:0:0:
240,160,83906,1,0,0:0:0:0:
240,160,84280,1,8,0:0:0:0:
240,160,84654,1,8,0:0:0:0:
240,160,85402,1,0,0:0:0:0:
240,160,85776,1,8,0:0:0:0:
240,160,86150,1,8,0:0:0:0:
240,160,86899,1,0,0:0:0:0:
240,160,87273,1,8,0:0:0:0:
240,160,87647,1,0,0:0:0:0:
240,160,88395,1,0,0:0:0:0:
240,160,89143,1,8,0:0:0:0:
240,160,89891,1,4,0:0:0:0:
240,160,91387,1,0,0:0:0:0:
240,160,92135,1,8,0:0:0:0:
240,160,92883,1,0,0:0:0:0:
240,160,94379,1,0,0:0:0:0:
240,160,95128,1,0,0:0:0:0:
240,160,95876,1,8,0:0:0:0:
240,160,97372,1,0,0:0:0:0:
240,160,98120,1,0,0:0:0:0:
240,160,98868,1,8,0:0:0:0:
240,160,100364,1,8,0:0:0:0:
240,160,100738,1,0,0:0:0:0:
240,160,101112,1,0,0:0:0:0:
240,160,101860,1,0,0:0:0:0:
240,160,102608,1,8,0:0:0:0:
240,160,103357,1,0,0:0:0:0:
240,160,104853,1,0,0:0:0:0:
240,160,105601,1,0,0:0:0:0:
240,160,106349,1,8,0:0:0:0:
240,160,107845,1,0,0:0:0:0:
240,160,108593,1,8,0:0:0:0:
240,160,109341,1,0,0:0:0:0:
240,160,110837,1,0,0:0:0:0:
240,160,111586,1,0,0:0:0:0:
240,160,112334,1,0,0:0:0:0:
240,160,113830,1,8,0:0:0:0:
240,160,114578,1,0,0:0:0:0:
240,160,115326,1,8,0:0:0:0:
240,160,116074,1,0,0:0:0:0:
240,160,116822,1,8,0:0:0:0:
240,160,118318,1,0,0:0:0:0:
240,160,119815,1,8,0:0:0:0:
240,160,121311,1,0,0:0:0:0:
240,160,122059,1,0,0:0:0:0:
240,160,122807,1,0,0:0:0:0:
240,160,124303,1,0,0:0:0:0:
240,160,125051,1,8,0:0:0:0:
240,160,125799,1,0,0:0:0:0:
240,160,127296,1,0,0:0:0:0:
240,160,128044,1,0,0:0:0:0:
240,160,128792,1,8,0:0:0:0:
240,160,130288,1,0,0:0:0:0:
240,160,131784,1,8,0:0:0:0:
240,160,132532,1,0,0:0:0:0:
240,160,133280,1,8,0:0:0:0:
240,160,134776,1,0,0:0:0:0:
240,160,135150,1,0,0:0:0:0:
240,160,135525,1,0,0:0:0:0:
240,160,136273,1,8,0:0:0:0:
240,160,136647,1,8,0:0:0:0:
240,160,137021,1,8,0:0:0:0:
240,160,137769,1,0,0:0:0:0:
240,160,138143,1,0,0:0:0:0:
240,160,138517,1,8,0:0:0:0:
240,160,139265,1,0,0:0:0:0:
240,160,139639,1,8,0:0:0:0:
240,160,140013,1,0,0:0:0:0:
240,160,140761,1,0,0:0:0:0:
240,160,141509,1,0,0:0:0:0:
240,160,142257,1,0,0:0:0:0:
240,160,142631,1,0,0:0:0:0:
240,160,143005,1,8,0:0:0:0:
240,160,143754,1,0,0:0:0:0:
240,160,144502,1,8,0:0:0:0:
240,160,145250,1,0,0:0:0:0:
240,160,145624,1,0,0:0:0:0:
240,160,145998,1,8,0:0:0:0:
240,160,146746,1,0,0:0:0:0:
240,160,147494,1,8,0:0:0:0:
240,160,148242,1,8,0:0:0:0:
240,160,148616,1,0,0:0:0:0:
240,160,148990,1,8,0:0:0:0:
240,160,149738,1,0,0:0:0:0:
256,192,150112,12,0,156097,0:0:0:0:
